osu file format v11

[General]
AudioFilename: IA.mp3
AudioLeadIn: 1500
PreviewTime: 107485
Countdown: 0
SampleSet: Soft
StackLeniency: 0.5
Mode: 0
LetterboxInBreaks: 0

[Editor]
Bookmarks: 96298
DistanceSpacing: 1
BeatDivisor: 4
GridSize: 4

[Metadata]
Title:Heisei Kataku Rhythm
TitleUnicode:ヘイセイカタクリズム
Artist:jippusu
ArtistUnicode:じっぷす
Creator:HelloSCV
Version:Insane
Source:
Tags:vocaloid3 Kaburagi Kotetsu Sanjenin Nagi IA
BeatmapID:205379
BeatmapSetID:71720

[Difficulty]
HPDrainRate:6
CircleSize:4
OverallDifficulty:8
ApproachRate:9
SliderMultiplier:1.7
SliderTickRate:2

[Events]
//Background and Video events
0,0,"IA.png"
//Break Periods
2,142940,146703
//Storyboard Layer 0 (Background)
//Storyboard Layer 1 (Fail)
//Storyboard Layer 2 (Pass)
//Storyboard Layer 3 (Foreground)
//Storyboard Sound Samples
//Background Colour Transformations
3,100,163,162,255

[TimingPoints]
1122,272.727272727273,4,2,1,40,1,0
3303,-100,4,2,1,70,0,1
3372,-100,4,2,1,70,0,0
20758,-100,4,2,1,70,0,0
38212,-125,4,2,1,60,0,0
42576,-100,4,2,1,70,0,0
48985,-125,4,2,1,60,0,0
51303,-200,4,2,1,50,0,0
53485,-100,4,2,1,70,0,0
55667,-100,4,2,1,90,0,1
64326,-100,4,2,1,90,0,0
64394,-100,4,2,1,90,0,1
72576,-100,4,2,1,90,0,0
73122,-100,4,2,1,70,0,0
90576,-125,4,2,1,60,0,0
94940,-100,4,2,1,70,0,0
101349,-125,4,2,1,70,0,0
103667,-200,4,2,1,50,0,0
105849,-100,4,2,1,70,0,0
108031,-100,4,2,1,90,0,1
116690,-100,4,2,1,90,0,0
116758,-100,4,2,1,90,0,1
124940,-100,4,2,1,90,0,0
125485,-100,4,2,1,70,0,1
125553,-100,4,2,1,70,0,0
134212,-100,4,2,1,70,0,1
134281,-100,4,2,1,70,0,0
147303,-100,4,2,1,70,0,0
151667,-100,4,2,1,90,0,1
160326,-100,4,2,1,90,0,0
160394,-100,4,2,1,90,0,1
168576,-100,4,2,1,90,0,0
169122,-100,4,2,1,90,0,1
170758,-100,4,2,1,90,0,0
171303,-100,4,2,1,70,0,1
171372,-100,4,2,1,70,0,0

[Colours]
Combo1 : 0,255,255
Combo2 : 255,0,128
Combo3 : 17,136,255
Combo4 : 255,255,255

[HitObjects]
164,68,1121,2,0,P|236:112|256:192,1,170,2|2,0:0|0:0,0:0:0
348,68,1667,2,0,P|276:112|256:192,1,170,2|2,0:0|0:0,0:0:0
256,360,2212,1,2,0:0:0
172,212,2485,1,2,0:0:0
340,212,2621,1,0,0:0:0
256,192,2758,1,2,0:0:0
256,192,3303,6,0,P|240:144|256:112|256:112|272:72|256:24,1,170,4|8,0:2|0:0,0:0:0
184,68,3712,1,0,0:0:0
132,136,3849,2,0,P|106:101|101:56,2,85,0|0|8,0:0|0:0|0:0,0:0:0
172,212,4258,2,0,P|232:272|312:256,1,170,0|0,0:0|0:0,0:0:0
380,212,4667,1,8,0:0:0
448,56,4940,2,0,P|412:136,1,85
413,133,5144,1,0,0:0:0
413,133,5212,1,8,0:0:0
312,140,5349,1,0,0:0:0
224,148,5485,6,0,P|140:140|88:208,1,170,0|8,0:0|0:0,0:0:0
172,212,5894,2,0,P|104:56,1,170
20,28,6303,1,8,0:0:0
104,56,6440,1,0,0:0:0
184,44,6576,2,0,P|276:44,1,85
356,44,6849,1,8,0:0:0
440,56,6985,2,0,P|416:140|476:200,1,170,0|0,0:0|0:0,0:0:0
496,116,7394,1,12,0:2:0
496,116,7462,1,0,0:0:0
496,116,7530,1,0,0:0:0
496,116,7599,1,0,0:0:0
496,116,7667,6,0,P|432:276,1,170,4|8,0:2|0:0,0:0:0
404,356,8076,1,0,0:0:0
352,292,8212,2,0,P|368:252|360:208,2,85,0|0|8,0:0|0:0|0:0,0:0:0
284,240,8621,2,0,P|204:240|128:292,1,170
76,352,9030,1,8,0:0:0
64,184,9303,2,0,P|48:272,1,85
48,268,9508,1,0,0:0:0
48,267,9576,1,8,0:0:0
144,188,9712,1,0,0:0:0
160,112,9849,6,0,P|332:104,1,170,0|8,0:0|0:0,0:0:0
280,36,10258,2,0,P|252:124|316:180,1,170
380,204,10667,1,8,0:0:0
464,216,10803,1,0,0:0:0
408,280,10940,2,0,P|352:352|264:344,1,170,0|8,0:0|0:0,0:0:0
196,340,11349,1,0,0:0:0
120,300,11485,1,0,0:0:0
92,216,11621,1,8,0:0:0
92,216,11690,1,0,0:0:0
92,216,11758,2,0,P|88:124,1,85,8|8,0:0|0:0,0:0:0
156,80,12030,6,0,P|188:108|232:116,1,85,4|0,0:2|0:0,0:0:0
312,68,12303,2,0,P|280:40|240:32,1,85,8|0,0:0|0:0,0:0:0
356,144,12576,1,0,0:0:0
376,228,12712,1,0,0:0:0
292,204,12849,1,8,0:0:0
356,144,12985,2,0,P|448:176|460:252,1,170
440,320,13394,1,8,0:0:0
272,352,13667,2,0,P|236:268,1,85
220,236,13871,1,0,0:0:0
204,196,13940,1,8,0:0:0
140,252,14076,1,0,0:0:0
112,172,14212,6,0,P|84:92,2,85,0|0|8,0:0|0:0|0:0,0:0:0
56,236,14621,2,0,P|0:68,1,170
68,20,15030,1,8,0:0:0
148,44,15167,1,0,0:0:0
232,40,15303,2,0,P|320:40,1,85
404,40,15576,1,8,0:0:0
360,112,15712,2,0,P|376:188|312:244,1,170,0|0,0:0|0:0,0:0:0
228,256,16121,1,12,0:2:0
228,256,16190,1,0,0:0:0
228,256,16258,1,0,0:0:0
180,188,16394,6,0,P|260:180|312:244,1,170,4|8,0:2|0:0,0:0:0
308,328,16803,1,0,0:0:0
224,328,16940,2,0,P|136:328,2,85,0|0|8,0:0|0:0|0:0,0:0:0
308,328,17349,2,0,P|392:308|440:232,1,170
460,160,17758,1,8,0:0:0
460,76,17894,1,0,0:0:0
392,28,18030,1,0,0:0:0
308,44,18167,2,0,P|264:24,2,42.5,0|0|12,0:0|0:0|0:2,0:0:0
308,44,18576,6,0,P|316:84|308:128,1,85,4|0,0:2|0:0,0:0:0
304,152,18780,1,8,0:0:0
296,176,18849,1,8,0:0:0
256,252,18985,1,8,0:0:0
204,44,19121,2,0,P|196:84|204:128,1,85,4|0,0:2|0:0,0:0:0
208,152,19326,1,8,0:0:0
216,176,19394,1,8,0:0:0
256,252,19530,1,8,0:0:0
256,336,19667,5,12,0:2:0
104,320,19803,1,0,0:0:0
184,288,19940,1,12,0:2:0
64,196,20076,1,0,0:0:0
208,152,20212,1,12,0:2:0
364,88,20485,5,0,1:0:0
372,128,20553,1,0,0:0:0
380,172,20621,1,0,1:0:0
388,212,20690,1,0,0:0:0
396,252,20758,2,0,P|408:296|400:340,1,85,0|0,0:0|0:0,0:0:0
324,300,21030,2,0,P|312:256|317:217,1,85,2|0,0:0|0:0,0:0:0
296,136,21303,2,0,P|280:48,2,85,0|0|2,0:0|0:0|0:0,0:0:0
131,156,21712,6,0,P|164:140|212:140,1,85
188,220,21985,1,0,0:0:0
68,212,22121,1,2,0:0:0
120,280,22258,1,0,0:0:0
132,156,22394,2,0,P|176:92|260:48,1,170,0|2,0:0|0:0,0:0:0
340,44,22803,1,0,0:0:0
368,124,22940,6,0,P|344:220,1,85,0|0,0:0|0:0,0:0:0
411,290,23212,2,0,P|432:208,1,85,2|0,0:0|0:0,0:0:0
328,288,23485,1,0,0:0:0
256,336,23621,1,0,0:0:0
172,336,23758,1,2,0:0:0
92,316,23894,6,0,P|52:244|68:152,1,170
124,100,24303,2,0,P|64:160,1,85,2|0,0:0|0:0,0:0:0
132,212,24576,1,0,0:0:0
244,200,24712,1,0,0:0:0
256,96,24849,1,2,0:0:0
256,96,25121,6,0,P|300:88|348:92,1,85
425,100,25394,2,0,P|420:60|396:24,1,85,2|0,0:0|0:0,0:0:0
396,180,25667,1,0,0:0:0
324,224,25803,1,0,0:0:0
316,308,25940,1,2,0:0:0
392,268,26076,6,0,P|320:224|244:252,1,170
200,324,26485,2,0,P|108:320,1,85,2|0,0:0|0:0,0:0:0
76,244,26758,2,0,P|252:252,1,170,0|2,0:0|0:0,0:0:0
316,308,27167,1,0,0:0:0
392,268,27303,6,0,P|456:208|464:116,1,170,0|2,0:0|0:0,0:0:0
388,160,27712,2,0,P|365:87|285:31,1,170
208,36,28121,1,2,0:0:0
208,36,28394,5,0,0:0:0
96,36,28530,1,0,0:0:0
96,148,28667,1,2,0:0:0
208,148,28803,1,0,0:0:0
248,224,28940,2,0,P|288:304,2,85,8|0|10,0:0|0:0|0:0,0:0:0
348,84,29485,6,0,P|356:176,1,85,4|0,0:0|0:0,0:0:0
432,132,29758,2,0,P|458:51,1,85,8|0,0:0|0:0,0:0:0
428,216,30030,1,0,0:0:0
372,280,30167,2,0,P|344:304|296:320,1,85,0|8,0:0|0:0,0:0:0
292,236,30440,6,0,P|228:236|168:156,1,170
164,72,30849,1,8,0:0:0
256,156,30985,1,0,0:0:0
128,256,31121,2,0,P|160:288|200:304,1,85
263,350,31394,2,0,P|236:320|196:303,1,85,8|0,0:0|0:0,0:0:0
128,356,31667,6,0,P|60:292|32:204,1,170,0|8,0:0|0:0,0:0:0
32,136,32076,1,0,0:0:0
104,180,32212,2,0,P|112:136|148:104,2,85,0|0|8,0:0|0:0|0:0,0:0:0
168,32,32621,6,0,P|228:56|216:132|216:132|256:164,1,170
308,96,33030,2,0,P|388:152,1,85,8|0,0:0|0:0,0:0:0
468,208,33303,1,0,0:0:0
372,260,33440,1,0,0:0:0
472,308,33576,1,12,0:0:0
372,260,33849,6,0,P|288:248|224:296,1,170,4|8,0:0|0:0,0:0:0
184,372,34258,1,0,0:0:0
223,296,34394,2,0,P|188:272|168:184,1,127.5
176,152,34667,1,8,0:0:0
104,108,34803,2,0,P|192:112|272:56,1,170
336,32,35212,1,8,0:0:0
336,32,35485,6,0,P|348:84|380:104|412:128|424:180,1,170,0|8,0:0|0:0,0:0:0
436,260,35894,1,0,0:0:0
360,296,36030,5,4,0:0:0
280,324,36167,1,0,0:0:0
164,272,36303,1,8,0:0:0
244,244,36440,1,0,0:0:0
320,132,36576,1,0,0:0:0
240,160,36712,1,0,0:0:0
104,120,36849,1,8,0:0:0
184,92,36985,1,0,0:0:0
264,64,37121,5,0,0:0:0
156,184,37258,1,0,0:0:0
328,216,37394,1,8,0:0:0
196,352,37530,1,8,0:0:0
196,352,37599,1,0,0:0:0
196,352,37667,1,12,0:0:0
116,344,37803,2,0,P|72:268,1,85,0|12,0:0|0:0,0:0:0
28,200,38076,1,8,0:0:0
28,116,38212,6,0,P|20:48,2,68,4|0|2,0:0|0:0|0:0,0:0:0
28,116,38621,2,0,P|84:120|152:56,1,136
204,36,39030,1,2,0:0:0
272,36,39167,2,0,P|336:60|368:128,1,136
432,92,39576,2,0,P|444:128|444:164,1,68,2|0,0:0|0:0,0:0:0
444,228,39849,1,0,0:0:0
416,292,39985,1,0,0:0:0
416,292,40258,6,0,P|348:284|296:332,1,136,0|0,0:0|0:0,0:0:0
232,344,40667,2,0,P|176:344|132:304,1,102,2|0,0:0|0:0,0:0:0
120,288,40940,1,0,0:0:0
108,220,41076,1,0,0:0:0
168,100,41349,6,0,P|228:144,1,68,0|0,0:0|0:0,0:0:0
276,184,41621,2,0,P|216:228,1,68,0|2,0:0|0:0,0:0:0
184,280,41894,2,0,P|244:324,1,68
296,284,42167,2,0,P|368:284,1,68,0|2,0:0|0:0,0:0:0
432,284,42440,1,0,0:0:0
464,204,42576,5,4,0:0:0
464,204,42712,2,0,P|476:128|408:72,2,170
396,152,43394,1,8,0:0:0
312,132,43530,2,0,P|232:124|160:180,1,170
112,248,43940,2,0,P|152:264|192:256,1,85,8|0,0:0|0:0,0:0:0
164,176,44212,2,0,P|124:160|84:168,1,85
16,220,44485,1,8,0:0:0
16,220,44553,1,0,0:0:0
16,220,44621,1,8,0:0:0
16,220,44690,1,0,0:0:0
16,220,44758,5,2,0:0:0
108,364,45030,1,2,0:0:0
248,268,45303,1,2,0:0:0
200,196,45440,1,2,0:0:0
156,124,45576,1,12,0:0:0
244,116,45712,6,0,P|328:96|388:156,1,170,0|0,0:0|0:0,0:0:0
444,208,46121,1,8,0:0:0
444,208,46190,1,0,0:0:0
444,208,46258,2,0,P|360:228|300:168,1,170,8|0,0:0|0:0,0:0:0
244,116,46667,1,12,0:0:0
72,112,46940,6,0,P|88:72|128:48,2,85,4|0|8,0:0|0:0|0:0,0:0:0
84,196,47349,2,0,P|140:240|132:336,1,170
68,280,47758,1,8,0:0:0
134,331,47894,2,0,P|224:344|304:316,1,170
244,256,48303,2,0,P|284:236|304:196,1,85,8|0,0:0|0:0,0:0:0
312,116,48576,1,0,0:0:0
292,36,48712,1,0,0:0:0
228,92,48849,1,12,0:0:0
312,116,48985,6,0,P|376:152|388:212,1,136
376,276,49394,1,2,0:0:0
324,320,49530,1,0,0:0:0
256,328,49667,2,0,P|184:328,1,68
76,252,50076,2,0,P|48:192|68:128,1,136,2|2,0:0|0:0,0:0:0
160,28,50621,2,0,P|188:88|168:152,1,136,2|2,0:0|0:0,0:0:0
136,212,51030,1,4,1:0:0
196,272,51303,6,0,P|288:272,1,85,4|2,0:1|0:0,0:0:0
320,348,51849,2,0,P|228:348,1,85,8|2,0:0|0:0,0:0:0
152,352,52394,1,0,0:0:0
80,304,52667,1,2,0:0:0
152,352,52940,1,8,0:0:0
68,220,53212,1,6,0:0:0
44,52,53485,6,0,P|112:112,1,85,12|0,0:0|0:0,0:0:0
176,160,53758,1,8,0:0:0
212,84,53894,2,0,P|292:128,1,85,8|0,0:0|0:0,0:0:0
364,164,54167,1,8,0:0:0
440,204,54303,2,0,P|480:224,2,42.5,0|0|12,0:0|0:0|0:0,0:0:0
396,280,54576,2,0,P|476:324,1,85,4|8,0:0|0:0,0:0:0
356,356,54849,2,0,P|317:336,2,42.5,0|0|8,0:0|0:0|0:0,0:0:0
396,280,55121,6,0,P|321:239,1,85,2|0,0:0|0:0,0:0:0
116,104,55394,2,0,P|190:144,1,85,2|0,0:0|0:0,0:0:0
204,60,55667,6,0,P|268:80|368:32,1,170,4|8,0:0|0:0,0:0:0
452,20,56076,1,0,0:0:0
484,108,56212,2,0,P|492:212,1,85,0|0,0:0|0:0,0:0:0
442,352,56485,2,0,P|436:268,1,85,8|0,0:0|0:0,0:0:0
376,196,56758,5,0,0:0:0
232,216,56894,1,0,0:0:0
360,284,57030,1,8,0:0:0
296,156,57167,1,0,0:0:0
268,300,57303,1,0,0:0:0
296,156,57440,1,0,0:0:0
296,156,57508,1,0,0:0:0
296,156,57576,2,0,P|264:68,1,85,8|0,0:0|0:0,0:0:0
360,56,57849,5,4,0:0:0
368,76,57917,1,0,0:0:0
376,96,57985,1,0,0:0:0
360,284,58121,1,8,0:0:0
352,264,58190,1,0,0:0:0
344,244,58258,1,0,0:0:0
192,128,58394,1,0,0:0:0
200,148,58462,1,0,0:0:0
208,168,58530,1,0,0:0:0
136,304,58667,1,12,0:0:0
128,284,58735,1,0,0:0:0
120,264,58803,1,0,0:0:0
84,176,58940,5,4,0:0:0
240,244,59076,1,0,0:0:0
272,76,59212,1,12,0:0:0
372,72,59349,2,0,P|416:72,2,42.5
412,156,59621,2,0,P|456:156,2,42.5,0|0|12,0:0|0:0|0:0,0:0:0
456,240,59894,1,0,0:0:0
428,332,60030,6,0,P|348:368|284:328,1,170,4|8,0:0|0:0,0:0:0
240,244,60440,1,0,0:0:0
212,156,60576,2,0,P|184:120|148:104,1,85
60,136,60849,2,0,P|88:172|124:188,1,85,8|0,0:0|0:0,0:0:0
212,156,61121,5,0,0:0:0
344,216,61258,1,0,0:0:0
332,72,61394,1,8,0:0:0
260,96,61530,1,0,0:0:0
272,200,61667,1,0,0:0:0
396,152,61940,6,0,P|452:224,1,85,8|0,0:0|0:0,0:0:0
444,304,62212,2,0,P|384:324|320:300,1,127.5,4|0,0:0|0:0,0:0:0
300,264,62485,2,0,P|256:192,1,85,8|0,0:0|0:0,0:0:0
68,304,62758,2,0,P|128:324|192:300,1,127.5,4|0,0:0|0:0,0:0:0
212,264,63030,2,0,P|256:192,1,85,8|0,0:0|0:0,0:0:0
296,108,63303,5,4,0:0:0
212,144,63440,1,0,0:0:0
300,144,63576,1,12,0:0:0
216,108,63712,1,0,0:0:0
256,24,63849,2,0,P|256:196,1,170,4|12,0:0|0:0,0:0:0
256,340,64394,6,0,P|312:268|392:268,1,170,4|8,0:0|0:0,0:0:0
476,284,64803,1,0,0:0:0
464,192,64940,1,0,0:0:0
352,108,65076,1,0,0:0:0
464,192,65212,1,8,0:0:0
352,108,65349,1,0,0:0:0
444,88,65485,6,0,P|428:44|396:24,1,85
260,128,65758,2,0,P|276:172|308:192,2,85,8|0|0,0:0|0:0|0:0,0:0:0
236,36,66167,1,0,0:0:0
236,36,66235,1,0,0:0:0
236,36,66303,2,0,P|140:48,1,85,8|0,0:0|0:0,0:0:0
116,132,66576,6,0,P|112:176,2,42.5,4|0|0,0:0|0:0|0:0,0:0:0
208,282,66849,2,0,P|212:240,2,42.5,8|0|0,0:0|0:0|0:0,0:0:0
300,240,67121,2,0,P|303:282,2,42.5
399,174,67394,2,0,P|396:132,2,42.5,12|0|0,0:0|0:0|0:0,0:0:0
416,276,67667,5,4,0:0:0
308,152,67803,1,0,0:0:0
208,284,67940,1,12,0:0:0
92,256,68076,1,0,0:0:0
92,256,68144,1,0,0:0:0
92,256,68212,1,0,0:0:0
60,140,68349,1,0,0:0:0
60,140,68417,1,0,0:0:0
60,140,68485,2,0,P|136:80,1,85,12|0,0:0|0:0,0:0:0
180,164,68758,6,0,P|252:200|324:152,1,170,4|8,0:0|0:0,0:0:0
372,76,69167,1,0,0:0:0
284,48,69303,2,0,P|244:128,1,85
284,232,69576,2,0,P|324:152,1,85,8|0,0:0|0:0,0:0:0
408,196,69849,5,0,0:0:0
328,316,69985,1,0,0:0:0
184,316,70121,1,8,0:0:0
228,180,70258,1,0,0:0:0
152,56,70394,1,4,0:0:0
152,56,70667,6,0,P|67:56,1,85,8|0,0:0|0:0,0:0:0
40,144,70940,2,0,P|0:196|8:304,1,170,4|8,0:0|0:0,0:0:0
96,288,71349,1,0,0:0:0
172,344,71485,1,4,0:0:0
292,344,71621,1,0,0:0:0
292,224,71758,1,8,0:0:0
172,224,71894,1,0,0:0:0
232,284,72030,6,0,P|292:224,1,85,4|0,0:0|0:0,0:0:0
244,144,72303,2,0,P|304:84,1,85,12|0,0:0|0:0,0:0:0
372,20,72576,1,4,0:0:0
372,20,73121,6,0,P|436:80|436:160,1,170,0|2,0:0|0:0,0:0:0
388,228,73530,1,0,0:0:0
308,260,73667,2,0,P|328:296|368:316,2,85,0|0|2,0:0|0:0|0:0,0:0:0
256,192,74076,6,0,P|224:152|188:144|188:144|152:136|120:96,1,170
140,12,74485,2,0,P|204:72,1,85,2|0,0:0|0:0,0:0:0
240,276,74758,2,0,P|176:216,2,85,0|0|2,0:0|0:0|0:0,0:0:0
240,276,75303,6,0,P|328:284|376:344,1,170,0|2,0:0|0:0,0:0:0
460,368,75712,1,0,0:0:0
456,284,75849,2,0,P|456:196,1,85
456,112,76121,1,2,0:0:0
416,36,76258,6,0,P|384:88|272:92,1,170
228,32,76667,2,0,P|268:16|312:20,1,85,2|0,0:0|0:0,0:0:0
332,168,76940,2,0,P|292:184|244:176,2,85,0|0|2,0:0|0:0|0:0,0:0:0
332,168,77485,6,0,P|252:180|188:116,1,170,0|2,0:0|0:0,0:0:0
136,56,77894,1,0,0:0:0
76,116,78030,2,0,P|32:112|-4:92,2,85,0|0|2,0:0|0:0|0:0,0:0:0
72,200,78440,2,0,P|152:216|184:292,1,170
268,276,78849,2,0,P|96:308,2,170,2|0|2,0:0|0:0|0:0,0:0:0
268,276,79667,6,0,P|312:204|392:176,1,170,0|2,0:0|0:0,0:0:0
476,172,80076,1,0,0:0:0
428,100,80212,2,0,P|336:64,1,85
288,132,80485,2,0,P|196:132,1,85,2|0,0:0|0:0,0:0:0
120,152,80758,1,0,0:0:0
140,236,80894,2,0,P|152:278|153:324,2,85,0|2|0,0:0|0:0|0:0,0:0:0
164,80,81303,5,8,0:0:0
348,304,81576,1,8,0:0:0
432,28,81849,6,0,P|404:108,1,85,4|0,0:0|0:0,0:0:0
456,176,82121,2,0,P|400:244,1,85,8|0,0:0|0:0,0:0:0
348,304,82394,1,0,0:0:0
348,304,82530,2,0,P|304:300|264:316,1,85,0|8,0:0|0:0,0:0:0
184,332,82803,2,0,P|100:336|32:280,1,170
23,119,83212,2,0,P|40:156|36:200,1,85,8|0,0:0|0:0,0:0:0
112,236,83485,2,0,P|156:240|192:224,1,85
224,144,83758,2,0,P|180:140|144:156,1,85,8|0,0:0|0:0,0:0:0
308,164,84030,6,0,P|392:172|448:112,1,170,0|8,0:0|0:0,0:0:0
468,32,84440,1,0,0:0:0
388,56,84576,2,0,P|296:32,2,85,0|0|8,0:0|0:0|0:0,0:0:0
448,116,84985,2,0,P|472:196|436:284,1,170
364,300,85394,2,0,P|280:312,1,85,8|0,0:0|0:0,0:0:0
168,244,85667,2,0,P|252:232,1,85
336,220,85940,5,12,0:0:0
200,324,86212,2,0,P|120:320|80:248,1,170,4|8,0:0|0:0,0:0:0
80,164,86621,1,0,0:0:0
128,92,86758,2,0,P|164:72|184:32,2,85,0|0|8,0:0|0:0|0:0,0:0:0
172,164,87167,2,0,P|260:148|324:88,1,170
372,28,87576,1,8,0:0:0
372,28,87849,6,0,P|408:64|408:104|408:104|408:140|444:176,1,170,0|8,0:0|0:0,0:0:0
496,244,88258,1,0,0:0:0
420,284,88394,5,4,0:0:0
340,308,88530,1,0,0:0:0
224,264,88667,1,8,0:0:0
304,232,88803,1,0,0:0:0
368,124,88940,1,0,0:0:0
288,152,89076,1,0,0:0:0
152,116,89212,1,8,0:0:0
232,88,89349,1,0,0:0:0
312,64,89485,5,0,0:0:0
208,180,89621,1,0,0:0:0
388,212,89758,1,8,0:0:0
260,340,89894,2,0,P|288:372,2,42.5,8|0|8,0:0|0:0|0:0,0:0:0
260,340,90167,2,0,P|160:356,1,85,4|12,0:0|0:0,0:0:0
92,368,90440,1,8,0:0:0
88,300,90576,6,0,P|84:228,1,68,4|0,0:0|0:0,0:0:0
80,164,90849,1,2,0:0:0
100,100,90985,2,0,P|164:88|224:124,1,136
268,176,91394,1,2,0:0:0
332,200,91530,2,0,P|396:216|452:172,1,136
400,128,91940,2,0,P|424:100|428:68,1,68,2|0,0:0|0:0,0:0:0
360,72,92212,2,0,P|292:72,1,68,0|0,0:0|0:0,0:0:0
156,80,92621,6,0,P|160:140|100:192,1,136
40,204,93030,2,0,P|48:276,1,68,2|0,0:0|0:0,0:0:0
72,336,93303,1,0,0:0:0
136,356,93440,1,0,0:0:0
268,328,93712,6,0,P|320:272,1,68
284,216,93985,2,0,P|237:166,1,68,0|2,0:0|0:0,0:0:0
248,100,94258,2,0,P|280:40,1,68
348,36,94530,2,0,P|420:36,2,68,0|2|0,0:0|0:0|0:0,0:0:0
328,120,94940,6,0,P|420:120,1,85,4|0,0:0|0:0,0:0:0
496,120,95212,1,8,0:0:0
448,192,95349,2,0,P|384:220|376:312,1,170,0|0,0:0|0:0,0:0:0
448,356,95758,1,8,0:0:0
444,272,95894,6,0,P|288:188,1,170
288,276,96303,2,0,P|208:232,1,85,8|0,0:0|0:0,0:0:0
136,272,96576,2,0,P|136:188,1,85
140,100,96849,1,8,0:0:0
140,100,96917,1,0,0:0:0
140,100,96985,1,8,0:0:0
140,100,97053,1,0,0:0:0
140,100,97121,5,2,0:0:0
304,56,97394,1,2,0:0:0
352,220,97667,1,2,0:0:0
272,248,97803,1,0,0:0:0
192,276,97940,1,12,0:0:0
212,192,98076,6,0,P|276:244|268:328,1,170
192,276,98485,1,8,0:0:0
180,360,98621,2,0,P|116:308|124:224,1,170,8|0,0:0|0:0,0:0:0
148,144,99030,1,12,0:0:0
212,88,99167,1,0,0:0:0
296,68,99303,6,0,P|388:40,2,85,4|0|8,0:0|0:0|0:0,0:0:0
264,152,99712,2,0,P|220:220|136:228,1,170
64,184,100121,1,8,0:0:0
58,101,100258,2,0,P|70:285,1,170
152,300,100667,2,0,P|144:216,1,85,8|0,0:0|0:0,0:0:0
212,96,100940,2,0,P|220:180,2,85,0|0|12,0:0|0:0|0:0,0:0:0
288,56,101349,6,0,P|300:124|340:180,1,136
368,196,101690,1,0,0:0:0
400,208,101758,1,2,0:0:0
468,220,101894,1,0,0:0:0
484,288,102030,1,0,0:0:0
424,320,102167,2,0,P|356:308|296:348,1,136
268,356,102508,1,2,0:0:0
172,324,102712,2,0,P|136:276|136:200,2,136,0|2|0,0:0|0:0|0:0,0:0:0
268,356,103394,5,4,1:0:0
208,44,103667,2,0,P|292:44,1,85,4|2,0:0|0:0,0:0:0
256,120,104212,2,0,P|172:120,1,85,8|2,0:0|0:0,0:0:0
128,120,104621,1,8,0:0:0
88,136,104758,2,0,P|56:168|48:220,1,85,8|2,0:0|0:0,0:0:0
132,204,105303,2,0,P|128:248|152:284,1,85,8|2,0:0|0:0,0:0:0
312,328,105849,6,0,P|352:308|396:304,2,85,4|0|8,0:0|0:0|0:0,0:0:0
280,248,106258,2,0,P|328:176|416:132,1,170,4|4,0:0|0:0,0:0:0
484,120,106667,1,8,0:0:0
460,40,106803,2,0,P|376:40,1,85,4|0,0:0|0:0,0:0:0
288,40,107076,1,0,0:0:0
260,56,107144,1,0,0:0:0
228,72,107212,1,8,0:0:0
196,88,107280,1,0,0:0:0
168,104,107349,1,0,0:0:0
116,172,107485,6,0,P|196:204,1,85,2|0,0:0|0:0,0:0:0
396,212,107758,2,0,P|316:180,1,85,2|0,0:0|0:0,0:0:0
336,96,108030,6,0,P|316:184|268:252,1,170,4|8,0:0|0:0,0:0:0
192,296,108440,1,0,0:0:0
104,268,108576,2,0,P|68:244|52:204,1,85
64,112,108849,2,0,P|100:136|116:176,1,85,8|0,0:0|0:0,0:0:0
204,200,109121,1,0,0:0:0
348,180,109258,1,0,0:0:0
256,68,109394,1,8,0:0:0
276,212,109530,2,0,P|292:312,1,85
417,228,109803,1,0,0:0:0
417,228,109871,1,0,0:0:0
417,228,109940,2,0,P|348:180,1,85,8|0,0:0|0:0,0:0:0
440,140,110212,5,4,0:0:0
424,132,110280,1,0,0:0:0
408,124,110349,1,0,0:0:0
340,60,110485,1,8,0:0:0
324,60,110553,1,0,0:0:0
308,60,110621,1,0,0:0:0
204,60,110758,1,0,0:0:0
188,60,110826,1,0,0:0:0
172,60,110894,1,0,0:0:0
104,124,111030,1,12,0:0:0
88,132,111099,1,0,0:0:0
72,140,111167,1,0,0:0:0
24,220,111303,6,0,P|88:296,1,85,4|0,0:0|0:0,0:0:0
144,352,111576,1,12,0:0:0
236,336,111712,2,0,P|280:328,2,42.5
252,244,111985,2,0,P|296:236,2,42.5,0|0|12,0:0|0:0|0:0,0:0:0
240,152,112258,1,0,0:0:0
240,152,112394,6,0,P|328:136|372:72,1,170,4|8,0:0|0:0,0:0:0
452,24,112803,1,0,0:0:0
448,116,112940,2,0,P|444:208,1,85
352,212,113212,2,0,P|348:304,1,85,8|0,0:0|0:0,0:0:0
264,336,113485,5,0,0:0:0
180,216,113621,1,0,0:0:0
220,76,113758,1,8,0:0:0
128,68,113894,1,0,0:0:0
104,160,114030,1,0,0:0:0
180,216,114303,6,0,P|256:168,1,85,8|0,0:0|0:0,0:0:0
336,124,114576,2,0,P|360:188|352:248,1,127.5,4|0,0:0|0:0,0:0:0
324,284,114849,2,0,P|280:292|256:332|256:332,1,85,8|0,0:0|0:0,0:0:0
176,124,115121,2,0,P|152:188|160:248,1,127.5,4|0,0:0|0:0,0:0:0
188,284,115394,2,0,P|232:292|256:332|256:332,1,85,8|0,0:0|0:0,0:0:0
340,368,115667,5,4,0:0:0
172,368,115803,1,0,0:0:0
340,368,115940,1,12,0:0:0
172,368,116076,1,0,0:0:0
256,332,116212,2,0,P|256:160,1,170,4|12,0:0|0:0,0:0:0
256,36,116758,6,0,P|196:100|116:112,1,170,4|8,0:0|0:0,0:0:0
28,88,117167,1,0,0:0:0
32,180,117303,1,0,0:0:0
40,272,117440,1,0,0:0:0
132,264,117576,1,8,0:0:0
124,172,117712,1,0,0:0:0
40,272,117849,6,0,P|52:364,1,85
124,172,118121,2,0,P|113:87,1,85,8|0,0:0|0:0,0:0:0
40,32,118394,1,0,0:0:0
113,87,118530,1,0,0:0:0
113,87,118599,1,0,0:0:0
113,87,118667,2,0,P|188:48,1,85,8|0,0:0|0:0,0:0:0
284,44,118940,6,0,P|328:56|360:80,1,85,4|0,0:0|0:0,0:0:0
392,168,119212,2,0,P|400:212,2,42.5,8|0|0,0:0|0:0|0:0,0:0:0
300,188,119485,2,0,P|292:146,2,42.5
212,188,119758,2,0,P|219:146,2,42.5,12|0|0,0:0|0:0|0:0,0:0:0
120,168,120030,6,0,P|104:256,1,85,4|0,0:0|0:0,0:0:0
92,344,120303,1,12,0:0:0
180,316,120440,1,0,0:0:0
212,316,120508,1,0,0:0:0
244,316,120576,1,0,0:0:0
336,316,120712,1,0,0:0:0
368,300,120780,1,0,0:0:0
396,284,120849,2,0,P|476:244,1,85,12|0,0:0|0:0,0:0:0
388,200,121121,6,0,P|468:152|484:76,1,170,4|8,0:0|0:0,0:0:0
416,16,121530,1,0,0:0:0
392,104,121667,2,0,P|348:96|316:68,1,85
292,160,121940,2,0,P|261:134|217:126,1,85,8|0,0:0|0:0,0:0:0
124,140,122212,5,0,0:0:0
124,284,122349,1,0,0:0:0
40,168,122485,1,8,0:0:0
180,212,122621,1,0,0:0:0
40,252,122758,1,4,0:0:0
180,212,123030,6,0,P|268:184,1,85,8|0,0:0|0:0,0:0:0
348,160,123303,2,0,P|444:168|496:216,1,170,4|8,0:0|0:0,0:0:0
500,308,123712,1,0,0:0:0
428,368,123849,1,4,0:0:0
356,312,123985,1,0,0:0:0
380,220,124121,1,8,0:0:0
472,224,124258,1,0,0:0:0
356,312,124394,6,0,P|272:312,1,85,4|0,0:0|0:0,0:0:0
228,228,124667,2,0,P|144:228,1,85,12|0,0:0|0:0,0:0:0
48,228,124940,1,4,0:0:0
48,228,125485,5,4,0:0:0
208,132,125758,1,8,0:0:0
128,180,125894,1,0,0:0:0
140,84,126030,2,0,P|172:56|212:52,1,85
272,180,126303,2,0,P|240:208|200:212,1,85,8|0,0:0|0:0,0:0:0
208,132,126576,6,0,P|296:92,1,85
448,188,126849,2,0,P|370:223,1,85,8|0,0:0|0:0,0:0:0
288,176,127121,2,0,P|376:136,1,85
508,260,127394,1,8,0:0:0
424,300,127530,1,0,0:0:0
332,304,127667,5,4,0:0:0
332,304,127735,1,0,0:0:0
332,304,127803,1,0,0:0:0
188,280,127940,1,8,0:0:0
188,280,128008,1,0,0:0:0
188,280,128076,1,0,0:0:0
288,176,128212,1,0,0:0:0
288,176,128280,1,0,0:0:0
288,176,128349,1,0,0:0:0
204,60,128485,1,12,0:0:0
204,60,128553,1,0,0:0:0
204,60,128621,1,0,0:0:0
148,136,128758,6,0,P|92:216,1,85,4|0,0:0|0:0,0:0:0
52,288,129030,1,12,0:0:0
120,372,129167,2,0,P|144:336,2,42.5,0|0|0,0:0|0:0|0:0,0:0:0
256,304,129440,2,0,P|232:340,2,42.5,0|0|12,0:0|0:0|0:0,0:0:0
300,216,129712,1,0,0:0:0
340,132,129849,6,0,P|396:68|480:52,1,170,4|8,0:0|0:0,0:0:0
492,144,130258,1,0,0:0:0
404,176,130394,2,0,P|392:216|404:260,1,85
312,288,130667,2,0,P|340:324|380:344,1,85,8|0,0:0|0:0,0:0:0
468,340,130940,1,0,0:0:0
374,342,131076,1,0,0:0:0
280,342,131212,2,0,P|192:342,2,85,8|0|0,0:0|0:0|0:0,0:0:0
92,328,131758,6,0,P|160:276,1,85,8|0,0:0|0:0,0:0:0
100,204,132030,2,0,P|136:152|144:88,1,127.5,4|0,0:0|0:0,0:0:0
176,56,132303,2,0,P|220:36|256:36,1,85,8|0,0:0|0:0,0:0:0
412,204,132576,2,0,P|376:152|368:88,1,127.5,4|0,0:0|0:0,0:0:0
336,56,132849,2,0,P|292:36|256:36,1,85,8|0,0:0|0:0,0:0:0
216,120,133121,6,0,P|256:108|300:120,1,85,4|0,0:0|0:0,0:0:0
296,264,133394,2,0,P|256:276|212:264,1,85,12|0,0:0|0:0,0:0:0
256,192,133667,1,4,0:0:0
256,192,133940,1,4,0:0:0
256,192,134212,6,0,P|168:196|128:268,1,170,4|8,0:0|0:0,0:0:0
136,356,134621,1,0,0:0:0
128,259,134758,2,0,P|112:168,1,85
164,28,135030,2,0,P|180:112,1,85,8|0,0:0|0:0,0:0:0
272,104,135303,2,0,P|336:144|328:244,2,170,0|8|0,0:0|0:0|0:0,0:0:0
344,44,135985,1,0,0:0:0
408,112,136121,2,0,P|424:152|424:200,1,85,8|0,0:0|0:0,0:0:0
420,288,136394,6,0,P|404:328,2,42.5,4|0|0,0:0|0:0|0:0,0:0:0
328,288,136667,2,0,P|292:256,2,42.5,8|0|0,0:0|0:0|0:0,0:0:0
215,259,136940,2,0,P|184:288,2,42.5
108,328,137212,2,0,P|92:288,2,42.5,12|0|0,0:0|0:0|0:0,0:0:0
144,224,137485,6,0,P|108:136,1,85,4|0,0:0|0:0,0:0:0
76,56,137758,1,12,0:0:0
168,56,137894,1,0,0:0:0
200,56,137962,1,0,0:0:0
232,56,138030,1,0,0:0:0
336,144,138167,1,0,0:0:0
304,144,138235,1,0,0:0:0
272,144,138303,6,0,P|228:144|180:172,1,85,12|0,0:0|0:0,0:0:0
120,96,138576,2,0,P|92:152|92:260,1,170,4|8,0:0|0:0,0:0:0
132,344,138985,1,0,0:0:0
224,344,139121,1,0,0:0:0
316,344,139258,1,0,0:0:0
316,252,139394,1,8,0:0:0
224,252,139530,1,0,0:0:0
316,252,139667,6,0,P|376:192|388:96,1,170,0|8,0:0|0:0,0:0:0
336,32,140076,1,0,0:0:0
248,60,140212,1,4,0:0:0
248,60,140485,2,0,P|164:60,1,85,8|0,0:0|0:0,0:0:0
76,96,140758,6,0,P|16:148|24:232,1,170,4|8,0:0|0:0,0:0:0
100,180,141167,1,0,0:0:0
180,132,141303,2,0,P|184:216|124:268,1,170,4|8,0:0|0:0,0:0:0
40,312,141712,1,0,0:0:0
124,352,141849,6,0,P|216:352,1,85,4|0,0:0|0:0,0:0:0
252,268,142121,2,0,P|344:268,1,85,12|0,0:0|0:0,0:0:0
432,268,142394,1,4,0:0:0
364,124,147303,6,0,P|292:152|208:112,1,170,0|2,0:0|0:0,0:0:0
160,48,147712,1,0,0:0:0
128,128,147849,2,0,P|132:172|124:212,1,85
48,252,148121,2,0,P|44:208|52:168,1,85,2|0,0:0|0:0,0:0:0
128,128,148394,5,0,0:0:0
212,224,148530,1,0,0:0:0
204,152,148667,1,2,0:0:0
148,264,148803,1,0,0:0:0
276,176,148940,1,0,0:0:0
276,176,149212,6,0,P|348:128,1,85,2|0,0:0|0:0,0:0:0
432,120,149485,2,0,P|428:168|456:240,1,127.5
484,272,149758,2,0,P|424:344,1,85,2|0,0:0|0:0,0:0:0
344,344,150030,2,0,P|284:348|232:304,2,127.5,2|2|2,0:0|0:0|0:0,0:0:0
308,268,150576,1,2,0:0:0
308,268,151121,6,0,P|308:176,1,85,2|0,0:0|0:0,0:0:0
204,116,151394,2,0,P|204:208,1,85,2|0,0:0|0:0,0:0:0
184,284,151667,6,0,P|120:336|24:340,1,170,4|8,0:0|0:0,0:0:0
4,252,152076,1,0,0:0:0
80,200,152212,2,0,P|112:168|120:124,1,85
28,124,152485,2,0,P|44:80|40:36,1,85,8|0,0:0|0:0,0:0:0
136,40,152758,5,0,0:0:0
192,172,152894,1,0,0:0:0
224,28,153030,1,8,0:0:0
116,124,153167,1,0,0:0:0
260,108,153303,1,0,0:0:0
192,172,153440,1,0,0:0:0
192,172,153508,1,0,0:0:0
192,172,153576,6,0,P|192:256,1,85,8|0,0:0|0:0,0:0:0
276,296,153849,1,4,0:0:0
276,296,153917,1,0,0:0:0
276,296,153985,1,0,0:0:0
320,212,154121,1,8,0:0:0
320,212,154190,1,0,0:0:0
320,212,154258,1,0,0:0:0
236,88,154394,1,0,0:0:0
236,88,154462,1,0,0:0:0
236,88,154530,1,0,0:0:0
192,172,154667,1,12,0:0:0
192,172,154735,1,0,0:0:0
192,172,154803,1,0,0:0:0
284,148,154940,6,0,P|364:104,1,85,4|0,0:0|0:0,0:0:0
440,64,155212,1,12,0:0:0
424,156,155349,2,0,P|424:208,2,42.5,0|0|0,0:0|0:0|0:0,0:0:0
500,212,155621,2,0,P|500:264,2,42.5,0|0|12,0:0|0:0|0:0,0:0:0
500,118,155894,1,0,0:0:0
476,28,156030,6,0,P|388:64|312:36,1,170,4|8,0:0|0:0,0:0:0
228,32,156440,1,0,0:0:0
144,76,156576,1,0,0:0:0
124,168,156712,1,0,0:0:0
212,136,156849,1,8,0:0:0
196,228,156985,1,0,0:0:0
124,168,157121,2,0,P|52:112,2,85,0|0|8,0:0|0:0|0:0,0:0:0
212,136,157530,2,0,P|284:192,1,85
432,296,157940,6,0,P|392:280|348:280,1,85,8|0,0:0|0:0,0:0:0
312,364,158212,2,0,P|264:328|256:264,1,127.5,4|0,0:0|0:0,0:0:0
288,228,158485,2,0,P|316:196|316:152,1,85,8|0,0:0|0:0,0:0:0
200,20,158758,2,0,P|248:56|256:120,1,127.5,4|0,0:0|0:0,0:0:0
224,156,159030,2,0,P|196:188|196:232,1,85,8|0,0:0|0:0,0:0:0
288,228,159303,5,4,0:0:0
224,156,159440,1,0,0:0:0
316,156,159576,1,12,0:0:0
196,228,159712,1,0,0:0:0
112,272,159849,2,0,P|88:192|112:112,1,170,4|12,0:0|0:0,0:0:0
400,112,160394,6,0,P|424:192|400:272,1,170,4|8,0:0|0:0,0:0:0
328,332,160803,1,0,0:0:0
236,336,160940,2,0,P|144:336,1,85
184,248,161212,2,0,P|269:248,1,85,8|0,0:0|0:0,0:0:0
324,172,161485,5,0,0:0:0
332,80,161621,1,0,0:0:0
240,104,161758,2,0,P|204:84|184:44,2,85,8|0|0,0:0|0:0|0:0,0:0:0
332,80,162167,1,0,0:0:0
332,80,162235,1,0,0:0:0
332,80,162303,2,0,P|420:80,1,85,8|0,0:0|0:0,0:0:0
408,172,162576,6,0,P|440:204,2,42.5,4|0|0,0:0|0:0|0:0,0:0:0
316,188,162849,1,8,0:0:0
316,204,162917,1,0,0:0:0
316,220,162985,1,0,0:0:0
196,196,163121,1,0,0:0:0
196,180,163190,1,0,0:0:0
196,164,163258,1,0,0:0:0
104,212,163394,2,0,P|73:181,2,42.5,12|0|0,0:0|0:0|0:0,0:0:0
12,224,163667,6,0,P|80:288,1,85,4|0,0:0|0:0,0:0:0
144,344,163940,1,12,0:0:0
236,344,164076,2,0,P|288:344,2,42.5
280,260,164349,2,0,P|228:260,2,42.5,0|0|12,0:0|0:0|0:0,0:0:0
372,260,164621,1,0,0:0:0
464,248,164758,6,0,P|452:200|420:176|384:156|372:104,1,170,4|8,0:0|0:0,0:0:0
464,84,165167,1,0,0:0:0
372,108,165303,1,0,0:0:0
280,132,165440,1,0,0:0:0
256,44,165576,1,8,0:0:0
348,24,165712,1,0,0:0:0
280,132,165849,6,0,P|256:220,1,85
141,314,166121,2,0,P|164:232,1,85,8|0,0:0|0:0,0:0:0
184,140,166394,1,4,0:0:0
184,140,166667,5,8,0:0:0
212,52,166803,1,0,0:0:0
304,44,166940,2,0,P|344:68|364:188,1,170,4|8,0:0|0:0,0:0:0
312,256,167349,1,0,0:0:0
220,252,167485,2,0,P|180:240|136:248,1,85,4|0,0:0|0:0,0:0:0
88,328,167758,2,0,P|52:296|44:256,1,85,8|0,0:0|0:0,0:0:0
56,168,168030,5,4,0:0:0
116,64,168167,1,0,0:0:0
56,168,168303,1,12,0:0:0
116,64,168440,1,0,0:0:0
176,164,168576,1,4,0:0:0
176,164,168849,6,0,P|260:164,1,85,2|0,0:0|0:0,0:0:0
356,164,169121,2,0,P|412:156|480:68,1,170,4|8,0:0|0:0,0:0:0
388,44,169530,1,0,0:0:0
479,71,169667,2,0,P|484:156,1,85,4|0,0:0|0:0,0:0:0
428,232,169940,2,0,P|388:324,1,85,8|0,0:0|0:0,0:0:0
300,308,170212,5,2,0:0:0
212,308,170349,1,2,0:0:0
120,308,170485,1,2,0:0:0
112,308,170553,1,0,0:0:0
104,308,170621,1,2,0:0:0
96,308,170690,1,0,0:0:0
88,308,170758,1,6,0:0:0
88,308,171303,5,4,0:0:0
