osu file format v11

[General]
AudioFilename: IA.mp3
AudioLeadIn: 1500
PreviewTime: 107485
Countdown: 0
SampleSet: Soft
StackLeniency: 0.7
Mode: 0
LetterboxInBreaks: 0

[Editor]
Bookmarks: 96298
DistanceSpacing: 1
BeatDivisor: 4
GridSize: 4

[Metadata]
Title:Heisei Kataku Rhythm
TitleUnicode:ヘイセイカタクリズム
Artist:jippusu
ArtistUnicode:じっぷす
Creator:HelloSCV
Version:Hard
Source:
Tags:vocaloid3 Kaburagi Kotetsu Sanjenin Nagi IA
BeatmapID:205378
BeatmapSetID:71720

[Difficulty]
HPDrainRate:6
CircleSize:4
OverallDifficulty:7
ApproachRate:8
SliderMultiplier:1.5
SliderTickRate:2

[Events]
//Background and Video events
0,0,"IA.png"
//Break Periods
2,142940,146553
//Storyboard Layer 0 (Background)
//Storyboard Layer 1 (Fail)
//Storyboard Layer 2 (Pass)
//Storyboard Layer 3 (Foreground)
//Storyboard Sound Samples
//Background Colour Transformations
3,100,163,162,255

[TimingPoints]
1122,272.727272727273,4,2,1,40,1,0
3303,-100,4,2,1,70,0,1
3372,-100,4,2,1,70,0,0
38212,-125,4,2,1,60,0,0
42576,-100,4,2,1,70,0,0
48985,-125,4,2,1,60,0,0
51303,-200,4,2,1,50,0,0
53485,-100,4,2,1,70,0,0
55667,-100,4,2,1,90,0,1
64326,-100,4,2,1,90,0,0
64394,-100,4,2,1,90,0,1
72576,-100,4,2,1,90,0,0
73122,-100,4,2,1,70,0,0
90576,-125,4,2,1,60,0,0
94940,-100,4,2,1,70,0,0
101349,-125,4,2,1,70,0,0
103667,-200,4,2,1,50,0,0
105849,-100,4,2,1,70,0,0
108031,-100,4,2,1,90,0,1
116690,-100,4,2,1,90,0,0
116758,-100,4,2,1,90,0,1
124940,-100,4,2,1,90,0,0
125485,-100,4,2,1,70,0,1
125553,-100,4,2,1,70,0,0
134212,-100,4,2,1,70,0,1
134281,-100,4,2,1,70,0,0
147303,-100,4,2,1,70,0,0
151667,-100,4,2,1,90,0,1
160326,-100,4,2,1,90,0,0
160394,-100,4,2,1,90,0,1
168576,-100,4,2,1,90,0,0
169122,-100,4,2,1,90,0,1
170758,-100,4,2,1,90,0,0
171303,-100,4,2,1,70,0,1
171372,-100,4,2,1,70,0,0

[Colours]
Combo1 : 0,255,255
Combo2 : 255,0,128
Combo3 : 17,136,255
Combo4 : 255,255,255

[HitObjects]
184,128,1121,2,0,P|152:192|184:260,1,150,2|2,0:0|0:0,0:0:0
332,256,1667,2,0,P|362:189|330:125,1,150,2|2,0:0|0:0,0:0:0
256,192,2212,1,2,0:0:0
256,192,2485,2,0,P|256:272,2,75,2|2|2,0:0|0:0|0:0,0:0:0
424,264,3303,6,0,P|444:192|416:116,1,150,4|8,0:0|0:0,0:0:0
368,68,3712,1,0,0:0:0
296,44,3849,2,0,P|216:44,2,75,0|0|8,0:0|0:0|0:0,0:0:0
300,120,4258,2,0,P|264:192|192:208,1,150
128,204,4667,1,8,0:0:0
8,296,4940,2,0,P|56:368,1,75
116,328,5212,2,0,P|192:352,1,75,8|0,0:0|0:0,0:0:0
264,352,5485,6,0,P|344:348|376:292,1,150,0|8,0:0|0:0,0:0:0
412,228,5894,2,0,P|332:232|300:288,1,150
264,352,6303,2,0,P|236:328|228:280,1,75,8|0,0:0|0:0,0:0:0
188,224,6576,1,0,0:0:0
188,224,6712,2,0,P|128:164|64:152,2,150
260,208,7394,1,12,0:0:0
260,208,7667,6,0,P|332:184|360:116,1,150,4|8,0:0|0:0,0:0:0
368,44,8076,1,0,0:0:0
360,120,8212,2,0,P|401:124|433:140,2,75,0|0|8,0:0|0:0|0:0,0:0:0
288,104,8621,2,0,P|212:96|156:36,1,150
88,36,9030,1,8,0:0:0
12,164,9303,2,0,P|16:248,1,75
92,232,9576,2,0,P|116:308,1,75,8|0,0:0|0:0,0:0:0
188,324,9849,6,0,P|252:364|316:328,1,150,0|8,0:0|0:0,0:0:0
380,300,10258,2,0,P|316:260|255:290,1,150
188,324,10667,1,8,0:0:0
180,248,10803,1,0,0:0:0
216,180,10940,6,0,P|260:120|332:128,1,150,0|8,0:0|0:0,0:0:0
404,132,11349,2,0,P|360:192|288:184,1,150
216,180,11758,2,0,P|164:168,2,37.5,8|0|0,0:0|0:0|0:0,0:0:0
260,252,12030,6,0,P|316:312,1,75,4|0,0:0|0:0,0:0:0
256,360,12303,2,0,P|200:300,1,75,8|0,0:0|0:0,0:0:0
156,248,12576,1,0,0:0:0
156,248,12712,2,0,P|104:184|128:116,1,150
192,96,13121,2,0,P|232:94|272:76,1,75
332,48,13394,1,8,0:0:0
460,124,13667,2,0,P|472:200,1,75
396,200,13940,2,0,P|392:284,1,75,8|0,0:0|0:0,0:0:0
332,320,14212,6,0,P|260:340|184:300,1,150,0|8,0:0|0:0,0:0:0
152,376,14621,2,0,P|104:320|88:244,1,150
84,172,15030,1,8,0:0:0
196,72,15303,2,0,P|276:64,2,75,0|0|8,0:0|0:0|0:0,0:0:0
208,148,15712,2,0,P|368:128,1,150
432,112,16121,1,12,0:0:0
432,112,16394,6,0,P|460:184|444:268,1,150,4|8,0:0|0:0,0:0:0
396,308,16803,1,0,0:0:0
320,300,16940,2,0,P|240:300,1,75
172,300,17212,1,8,0:0:0
147,371,17349,2,0,P|199:223,1,150
220,160,17758,1,8,0:0:0
320,48,18030,2,0,P|396:48,2,75,0|0|12,0:0|0:0|0:0,0:0:0
408,168,18576,5,4,0:0:0
348,216,18712,2,0,P|308:248,2,37.5,8|0|8,0:0|0:0|0:0,0:0:0
296,160,18985,1,8,0:0:0
220,160,19121,1,4,0:0:0
164,216,19258,2,0,P|204:248,2,37.5,8|0|8,0:0|0:0|0:0,0:0:0
104,168,19530,1,8,0:0:0
104,92,19667,6,0,P|168:44,1,75,12|0,0:0|0:0,0:0:0
104,168,19940,2,0,P|44:213,1,75,12|0,0:0|0:0,0:0:0
16,284,20212,1,12,0:0:0
156,340,20485,2,0,P|112:340,2,37.5,0|0|0,1:0|0:0|1:0,0:0:0
232,340,20758,6,0,P|268:336|304:312,1,75
312,240,21030,2,0,P|276:244|240:268,1,75,2|0,0:0|0:0,0:0:0
168,264,21303,1,0,0:0:0
120,208,21440,1,0,0:0:0
140,136,21576,1,2,0:0:0
212,116,21712,6,0,P|280:120|320:44,1,150
388,24,22121,2,0,P|416:104,1,75,2|0,0:0|0:0,0:0:0
440,164,22394,1,0,0:0:0
408,312,22667,1,2,0:0:0
260,284,22940,6,0,P|184:300,1,75
66,255,23212,2,0,P|140:240,1,75,2|0,0:0|0:0,0:0:0
212,220,23485,1,0,0:0:0
260,160,23621,2,0,P|304:92,1,75,0|2,0:0|0:0,0:0:0
344,36,23894,6,0,P|376:64|380:96|380:96|384:132|420:160,1,150
496,164,24303,2,0,P|488:124|464:100,1,75,2|0,0:0|0:0,0:0:0
420,160,24576,1,0,0:0:0
388,228,24712,1,0,0:0:0
356,296,24849,1,2,0:0:0
208,312,25121,6,0,P|136:304|84:248,1,150,0|2,0:0|0:0,0:0:0
72,176,25530,1,0,0:0:0
56,104,25667,2,0,P|52:68|36:32,2,75,0|0|2,0:0|0:0|0:0,0:0:0
72,176,26076,6,0,P|152:168|212:128,1,150
264,80,26485,1,2,0:0:0
412,48,26758,1,0,0:0:0
456,192,27030,1,2,0:0:0
312,236,27303,6,0,P|232:264,1,75
168,284,27576,1,2,0:0:0
156,356,27712,2,0,P|96:300|120:228,1,150
144,176,28121,1,2,0:0:0
256,76,28394,6,0,P|196:128,1,75
256,76,28667,2,0,P|316:128,1,75,2|0,0:0|0:0,0:0:0
368,176,28940,1,0,0:0:0
144,176,29212,1,2,0:0:0
256,276,29485,6,0,P|188:316|104:320,1,150,4|8,0:0|0:0,0:0:0
44,304,29894,1,0,0:0:0
40,228,30030,2,0,P|0:156,2,75,0|0|8,0:0|0:0|0:0,0:0:0
112,244,30440,2,0,P|156:176|144:104,1,150
108,48,30849,1,8,0:0:0
256,28,31121,1,0,0:0:0
404,48,31394,1,8,0:0:0
296,152,31667,6,0,P|380:160|428:120,1,150,0|8,0:0|0:0,0:0:0
484,72,32076,1,0,0:0:0
428,120,32212,2,0,P|460:200,1,75
480,260,32485,1,8,0:0:0
480,336,32621,2,0,P|436:336|416:304|416:304|396:272|352:272,1,150
276,272,33030,1,8,0:0:0
208,304,33167,1,0,0:0:0
132,292,33303,2,0,P|92:288|56:296,1,75
12,352,33576,1,12,0:0:0
12,352,33849,6,0,P|64:280|64:220,1,150,4|8,0:0|0:0,0:0:0
32,152,34258,1,0,0:0:0
92,108,34394,2,0,P|144:80|200:80,1,112.5
232,92,34667,1,8,0:0:0
300,120,34803,2,0,P|336:116|372:92,1,75
436,64,35076,2,0,P|448:100|436:136,1,75,0|8,0:0|0:0,0:0:0
420,284,35485,6,0,P|384:352|304:356,1,150,0|8,0:0|0:0,0:0:0
252,328,35894,1,0,0:0:0
196,280,36030,6,0,P|136:224,1,75,4|0,0:0|0:0,0:0:0
128,112,36303,2,0,P|182:163,1,75,8|0,0:0|0:0,0:0:0
264,232,36576,2,0,P|348:232,1,75
428,160,36849,2,0,P|353:160,1,75,8|0,0:0|0:0,0:0:0
252,108,37121,2,0,P|197:56,1,75
308,36,37394,2,0,P|362:87,1,75,8|0,0:0|0:0,0:0:0
428,160,37667,5,4,0:0:0
420,236,37803,2,0,P|412:312,2,75,0|12|0,0:0|0:0|0:0,0:0:0
428,160,38212,6,0,P|436:96,1,60,4|0,0:0|0:0,0:0:0
324,56,38621,2,0,P|304:184,1,120
296,232,39030,1,2,0:0:0
248,264,39167,2,0,P|192:288|124:284,1,120
80,260,39576,2,0,P|56:240|44:212,1,60,2|0,0:0|0:0,0:0:0
36,156,39849,1,0,0:0:0
36,156,39985,2,0,P|104:136|120:80,1,120
296,56,40667,6,0,P|336:112,1,60,2|0,0:0|0:0,0:0:0
352,160,40940,2,0,P|364:192|360:240,1,60
312,324,41349,2,0,P|280:268,1,60
260,216,41621,2,0,P|280:156,1,60,0|2,0:0|0:0,0:0:0
276,100,41894,2,0,P|234:50|176:48,1,120
128,68,42303,1,2,0:0:0
104,216,42576,6,0,P|84:300,1,75,4|0,0:0|0:0,0:0:0
72,364,42849,1,8,0:0:0
140,336,42985,2,0,P|208:308|284:320,1,150
352,344,43394,1,8,0:0:0
416,308,43530,2,0,P|464:244|472:168,1,150
400,200,43940,2,0,P|400:160|384:120,1,75,8|0,0:0|0:0,0:0:0
320,100,44212,2,0,P|320:140|336:180,1,75
344,248,44485,2,0,P|352:292,2,37.5,8|0|0,0:0|0:0|0:0,0:0:0
272,228,44758,5,0,0:0:0
124,240,45030,1,2,0:0:0
188,104,45303,1,0,0:0:0
200,256,45576,1,12,0:0:0
208,332,45712,6,0,P|280:356,1,75
359,280,45985,2,0,P|284:280,1,75,0|8,0:0|0:0,0:0:0
340,208,46258,2,0,P|412:190,1,75
432,89,46530,2,0,P|368:128,1,75,0|12,0:0|0:0,0:0:0
428,16,46803,1,0,0:0:0
356,32,46940,6,0,P|272:48,1,75,4|0,0:0|0:0,0:0:0
212,68,47212,1,8,0:0:0
212,68,47349,2,0,P|151:109|125:197,1,150
128,256,47758,1,8,0:0:0
188,212,47894,2,0,P|120:180|60:224,1,150
56,292,48303,2,0,P|56:376,1,75,8|0,0:0|0:0,0:0:0
128,340,48576,2,0,P|212:304,1,75
268,280,48849,1,12,0:0:0
340,248,48985,6,0,P|400:212|416:168,1,120
400,108,49394,2,0,P|392:76|396:40,1,60,2|0,0:0|0:0,0:0:0
448,24,49667,1,0,0:0:0
448,24,49803,1,0,0:0:0
328,32,50076,6,0,P|264:36|224:76,1,120,2|0,0:0|0:0,0:0:0
272,184,50621,2,0,P|336:180|376:140,1,120,2|0,0:0|0:0,0:0:0
300,108,51030,1,4,1:0:0
272,184,51303,6,0,P|271:222|244:256,1,75,4|2,0:1|0:0,0:0:0
176,264,51849,2,0,P|176:225|204:192,1,75,8|2,0:0|0:0,0:0:0
212,124,52394,1,2,0:0:0
184,56,52667,1,2,0:0:0
112,40,52940,1,8,0:0:0
52,84,53212,1,6,0:0:0
60,156,53485,6,0,P|76:232,1,75,4|0,0:0|0:0,0:0:0
96,304,53758,1,8,0:0:0
160,340,53894,2,0,P|236:356|304:324,1,150
360,280,54303,1,8,0:0:0
380,208,54440,2,0,P|392:128|448:88,1,150,4|0,0:0|0:0,0:0:0
396,32,54849,1,8,0:0:0
248,44,55121,6,0,P|212:56|184:84,1,75,2|0,0:0|0:0,0:0:0
116,56,55394,2,0,P|116:96|136:136,1,75,2|0,0:0|0:0,0:0:0
168,192,55667,6,0,P|192:272|144:328,1,150,4|8,0:0|0:0,0:0:0
76,348,56076,1,0,0:0:0
156,321,56212,2,0,P|232:348,1,75
268,272,56485,2,0,P|348:268,1,75,8|0,0:0|0:0,0:0:0
424,256,56758,1,0,0:0:0
460,180,56894,1,0,0:0:0
448,100,57030,1,8,0:0:0
372,68,57167,2,0,P|332:64|304:44,1,75
140,44,57576,6,0,P|108:58|85:90,1,75,8|0,0:0|0:0,0:0:0
160,128,57849,2,0,P|160:168,2,37.5,4|0|0,0:0|0:0|0:0,0:0:0
88,168,58121,2,0,P|60:200,2,37.5,8|0|0,0:0|0:0|0:0,0:0:0
120,244,58394,2,0,P|136:278,2,37.5,0|0|0,0:0|0:0|0:0,0:0:0
60,300,58667,2,0,P|52:340,2,37.5,8|0|0,0:0|0:0|0:0,0:0:0
128,348,58940,6,0,P|216:360,1,75
284,360,59212,1,8,0:0:0
352,312,59349,2,0,P|400:236,1,75
320,208,59621,2,0,P|336:132,1,75,0|12,0:0|0:0,0:0:0
356,56,59894,1,0,0:0:0
412,116,60030,6,0,P|344:132|276:84,1,150,4|8,0:0|0:0,0:0:0
240,20,60440,1,0,0:0:0
204,92,60576,2,0,P|196:128|176:160,1,75
80,176,60849,2,0,P|88:140|108:108,1,75,8|0,0:0|0:0,0:0:0
88,260,61121,6,0,P|124:340,1,75
219,353,61394,2,0,P|188:284,2,75,8|0|0,0:0|0:0|0:0,0:0:0
384,368,61940,6,0,P|376:324|392:296,1,75,8|0,0:0|0:0,0:0:0
352,224,62212,2,0,P|356:168|324:120,1,112.5,4|0,0:0|0:0,0:0:0
326,122,62485,2,0,P|288:108|268:80,1,75,8|0,0:0|0:0,0:0:0
160,160,62758,2,0,P|156:216|188:264,1,112.5,4|0,0:0|0:0,0:0:0
185,261,63030,2,0,P|224:276|244:304,1,75,8|0,0:0|0:0,0:0:0
320,332,63303,5,4,0:0:0
392,296,63440,1,0,0:0:0
352,224,63576,1,12,0:0:0
408,164,63712,1,0,0:0:0
460,100,63849,2,0,P|404:44|332:32,1,150,4|12,0:0|0:0,0:0:0
172,48,64394,6,0,P|176:120|108:152,1,150,4|8,0:0|0:0,0:0:0
32,156,64803,1,0,0:0:0
76,228,64940,2,0,P|96:260|100:300,1,75
40,352,65212,2,0,P|72:372|120:372,1,75,8|0,0:0|0:0,0:0:0
192,368,65485,1,0,0:0:0
264,324,65621,1,0,0:0:0
272,244,65758,2,0,P|280:204|308:176,2,75,8|0|0,0:0|0:0|0:0,0:0:0
356,244,66167,1,0,0:0:0
380,164,66303,6,0,P|364:128|332:108,1,75,8|0,0:0|0:0,0:0:0
252,108,66576,2,0,P|212:108,2,37.5,4|0|0,0:0|0:0|0:0,0:0:0
216,32,66849,2,0,P|253:32,2,37.5,8|0|0,0:0|0:0|0:0,0:0:0
140,64,67121,2,0,P|96:28,2,37.5
104,140,67394,2,0,P|76:168,2,37.5,8|0|0,0:0|0:0|0:0,0:0:0
168,192,67667,6,0,P|112:248,1,75,0|0,0:0|0:0,0:0:0
56,304,67940,1,8,0:0:0
132,332,68076,2,0,P|168:324|208:332,1,75
284,348,68349,1,0,0:0:0
360,312,68485,6,0,P|372:276|404:252|404:252,1,75,12|0,0:0|0:0,0:0:0
468,188,68758,2,0,P|492:120|448:40,1,150,4|8,0:0|0:0,0:0:0
376,24,69167,1,0,0:0:0
288,36,69303,2,0,P|252:40|216:64,1,75
280,116,69576,2,0,P|248:138|212:142,1,75,8|0,0:0|0:0,0:0:0
132,136,69849,1,0,0:0:0
68,184,69985,1,0,0:0:0
140,228,70121,2,0,P|144:304,2,75,8|0|4,0:0|0:0|0:0,0:0:0
280,316,70667,6,0,P|276:241,1,75,8|0,0:0|0:0,0:0:0
280,160,70940,2,0,P|304:88|368:48,1,150,4|8,0:0|0:0,0:0:0
448,40,71349,1,0,0:0:0
484,116,71485,1,4,0:0:0
444,188,71621,1,0,0:0:0
364,196,71758,2,0,P|352:232|352:272,1,75,8|0,0:0|0:0,0:0:0
380,348,72030,6,0,P|292:348,1,75,4|0,0:0|0:0,0:0:0
132,348,72303,2,0,P|207:348,1,75,12|0,0:0|0:0,0:0:0
256,280,72576,1,4,0:0:0
64,184,73121,6,0,P|111:237|183:265,1,150,0|2,0:0|0:0,0:0:0
256,280,73530,1,0,0:0:0
324,252,73667,2,0,P|360:236|400:240,2,75,0|0|2,0:0|0:0|0:0,0:0:0
372,312,74076,2,0,P|444:296|472:228,1,150
436,164,74485,2,0,P|388:96,1,75,2|0,0:0|0:0,0:0:0
332,60,74758,1,0,0:0:0
184,60,75030,1,2,0:0:0
60,144,75303,6,0,P|120:192|128:264,1,150,0|2,0:0|0:0,0:0:0
116,336,75712,1,0,0:0:0
192,336,75849,2,0,P|276:332,1,75
340,324,76121,1,2,0:0:0
416,316,76258,2,0,P|412:264|332:248|328:196,1,150
400,176,76667,2,0,P|372:104,1,75,2|0,0:0|0:0,0:0:0
332,44,76940,1,0,0:0:0
260,32,77076,1,0,0:0:0
204,80,77212,1,2,0:0:0
104,192,77485,6,0,P|172:152|244:172,1,150,0|2,0:0|0:0,0:0:0
296,216,77894,1,0,0:0:0
340,276,78030,1,0,0:0:0
340,276,78167,2,0,P|416:296|484:272,1,150
448,128,78712,1,0,0:0:0
468,200,78849,6,0,P|484:276|480:348,2,150,2|0|2,0:0|0:0|0:0,0:0:0
396,184,79530,1,0,0:0:0
356,120,79667,2,0,P|308:60|236:44,1,150,0|2,0:0|0:0,0:0:0
180,88,80076,2,0,P|208:112|248:116,1,75
252,192,80349,2,0,P|224:216|184:220,2,75,0|2|0,0:0|0:0|0:0,0:0:0
324,216,80758,6,0,P|380:260|456:232,1,150,0|2,0:0|0:0,0:0:0
396,184,81167,2,0,P|376:344,1,150
308,360,81576,1,2,0:0:0
160,344,81849,6,0,P|124:336|96:312,1,75,4|0,0:0|0:0,0:0:0
156,268,82121,2,0,P|128:240|120:204,1,75,8|0,0:0|0:0,0:0:0
132,132,82394,1,0,0:0:0
204,160,82530,2,0,P|284:152|320:92,1,150
340,24,82940,1,0,0:0:0
488,40,83212,1,8,0:0:0
468,188,83485,1,0,0:0:0
320,172,83758,1,8,0:0:0
220,284,84030,6,0,P|144:280|80:228,1,150,0|8,0:0|0:0,0:0:0
72,164,84440,1,0,0:0:0
84,92,84576,2,0,P|96:56|92:16,2,75,0|0|8,0:0|0:0|0:0,0:0:0
144,140,84985,2,0,P|220:136|288:88,1,150
336,44,85394,1,8,0:0:0
412,40,85530,1,0,0:0:0
444,108,85667,2,0,P|460:192,1,75,0|0,0:0|0:0,0:0:0
472,256,85940,1,12,0:0:0
472,256,86212,6,0,P|408:304,1,75,4|0,0:0|0:0,0:0:0
372,236,86485,2,0,P|292:260,1,75,8|0,0:0|0:0,0:0:0
224,260,86758,2,0,P|184:260|140:244,2,75,0|0|8,0:0|0:0|0:0,0:0:0
196,188,87167,2,0,P|128:152|104:84,1,150
108,12,87576,1,8,0:0:0
252,56,87849,6,0,P|320:92|344:160,1,150,0|8,0:0|0:0,0:0:0
332,232,88258,1,0,0:0:0
304,300,88394,6,0,P|240:352,1,75,4|0,0:0|0:0,0:0:0
124,348,88667,2,0,P|182:300,1,75,8|0,0:0|0:0,0:0:0
232,204,88940,2,0,P|156:216,1,75
57,155,89212,2,0,P|132:144,1,75,8|0,0:0|0:0,0:0:0
200,68,89485,2,0,P|280:92,1,75,0|0,0:0|0:0,0:0:0
392,48,89758,2,0,P|321:27,1,75,8|0,0:0|0:0,0:0:0
272,88,90030,5,4,0:0:0
296,160,90167,2,0,P|332:248,2,75,0|12|0,0:0|0:0|0:0,0:0:0
236,204,90576,6,0,P|216:144,1,60,4|0,0:0|0:0,0:0:0
136,60,90985,2,0,P|80:56|24:96,1,120
20,148,91394,1,2,0:0:0
40,204,91530,2,0,P|72:260|72:324,1,120
132,328,91940,2,0,P|196:340,1,60,2|0,0:0|0:0,0:0:0
252,344,92212,1,0,0:0:0
252,344,92349,2,0,P|308:316|364:320,1,120
480,180,93030,6,0,P|448:184|416:176,1,60,0|0,0:0|0:0,0:0:0
368,152,93303,2,0,P|336:132|300:124,1,60,2|0,0:0|0:0,0:0:0
196,132,93712,2,0,P|128:172,1,60
144,224,93985,2,0,P|195:254,1,60,0|2,0:0|0:0,0:0:0
252,276,94258,2,0,P|312:292|376:280,1,120,0|0,0:0|0:0,0:0:0
424,260,94667,1,2,0:0:0
392,112,94940,6,0,P|320:64,1,75,4|0,0:0|0:0,0:0:0
260,44,95212,1,8,0:0:0
184,36,95349,2,0,P|108:52|68:112,1,150
68,184,95758,1,8,0:0:0
100,252,95894,2,0,P|168:276|204:348,1,150
264,296,96303,2,0,P|276:336|272:368,1,75,8|0,0:0|0:0,0:0:0
264,296,96576,2,0,P|260:264|272:224,1,75
320,164,96849,1,8,0:0:0
248,144,96985,6,0,P|168:120,1,75
32,80,97394,1,2,0:0:0
176,36,97667,1,0,0:0:0
328,28,97940,1,12,0:0:0
396,56,98076,2,0,P|456:100|452:172,1,150
388,132,98485,1,8,0:0:0
324,92,98621,2,0,P|321:161|381:205,1,150
444,248,99030,1,12,0:0:0
444,248,99303,6,0,P|380:296,1,75,4|0,0:0|0:0,0:0:0
316,324,99576,1,8,0:0:0
240,316,99712,2,0,P|164:292|140:232,1,150
148,156,100121,1,8,0:0:0
208,200,100258,6,0,P|140:228|80:188,1,150
36,128,100667,2,0,P|16:100|12:56,1,75,8|0,0:0|0:0,0:0:0
157,75,100940,2,0,P|120:68|84:72,2,75,0|0|12,0:0|0:0|0:0,0:0:0
224,104,101349,6,0,P|282:116|346:104,1,120,0|0,0:0|0:0,0:0:0
396,80,101758,2,0,P|424:28,2,60,2|0|0,0:0|0:0|0:0,0:0:0
444,116,102167,1,0,0:0:0
420,236,102440,6,0,P|364:212|304:216,1,120,2|0,0:0|0:0,0:0:0
284,332,102985,2,0,P|340:356|400:352,1,120,0|2,0:0|0:0,0:0:0
352,284,103394,1,4,1:0:0
280,260,103667,6,0,P|240:260|200:280,1,75,4|2,0:1|0:0,0:0:0
168,336,104212,2,0,P|140:304|136:268,1,75,8|2,0:0|0:0,0:0:0
124,200,104758,1,2,0:0:0
152,128,105030,1,2,0:0:0
204,184,105303,1,8,0:0:0
236,116,105576,1,2,0:0:0
376,60,105849,6,0,P|306:87,2,75,4|0|8,0:0|0:0|0:0,0:0:0
448,36,106258,2,0,P|460:80|428:116|428:116|440:180,1,150,4|0,0:0|0:0,0:0:0
452,252,106667,1,8,0:0:0
392,296,106803,2,0,P|356:136,1,150,4|0,0:0|0:0,0:0:0
340,76,107212,1,12,0:0:0
192,48,107485,6,0,P|196:88|188:128,1,75,2|0,0:0|0:0,0:0:0
116,112,107758,2,0,P|120:152|144:184,1,75,2|0,0:0|0:0,0:0:0
196,232,108030,6,0,P|252:276|260:352,1,150,4|8,0:0|0:0,0:0:0
180,372,108440,1,0,0:0:0
260,350,108576,2,0,P|336:328,1,75
328,248,108849,2,0,P|388:196,1,75,8|0,0:0|0:0,0:0:0
440,136,109121,1,0,0:0:0
440,136,109258,1,0,0:0:0
376,84,109394,2,0,P|408:60|448:56,2,75,8|0|0,0:0|0:0|0:0,0:0:0
304,124,109803,1,0,0:0:0
224,136,109940,6,0,P|148:144,1,75,8|0,0:0|0:0,0:0:0
112,216,110212,2,0,P|80:256,2,37.5,4|0|0,0:0|0:0|0:0,0:0:0
164,280,110485,2,0,P|184:316,2,37.5,8|0|0,0:0|0:0|0:0,0:0:0
240,252,110758,2,0,P|240:212,2,37.5
320,268,111030,2,0,P|312:308,2,37.5,8|0|0,0:0|0:0|0:0,0:0:0
388,312,111303,6,0,P|404:228,1,75
416,156,111576,1,8,0:0:0
396,76,111712,2,0,P|360:60|336:28,1,75
256,28,111985,1,0,0:0:0
188,76,112121,6,0,P|180:112|160:148,1,75,12|0,0:0|0:0,0:0:0
92,100,112394,2,0,P|88:184|136:224,1,150,4|8,0:0|0:0,0:0:0
216,240,112803,1,0,0:0:0
296,220,112940,2,0,P|328:200|368:200,1,75
420,259,113212,2,0,P|388:279|352:280,1,75,8|0,0:0|0:0,0:0:0
448,180,113485,5,0,0:0:0
388,120,113621,1,0,0:0:0
328,64,113758,2,0,P|364:44|404:40,2,75,8|0|0,0:0|0:0|0:0,0:0:0
328,64,114303,6,0,P|248:64,1,75,8|0,0:0|0:0,0:0:0
184,92,114576,2,0,P|176:144|208:204,1,112.5,4|0,0:0|0:0,0:0:0
200,196,114849,2,0,P|212:228|200:272,1,75,8|0,0:0|0:0,0:0:0
328,292,115121,2,0,P|336:240|304:180,1,112.5,4|0,0:0|0:0,0:0:0
312,188,115394,2,0,P|300:156|312:112,1,75,8|0,0:0|0:0,0:0:0
296,36,115667,5,4,0:0:0
376,12,115803,1,0,0:0:0
432,72,115940,1,12,0:0:0
408,152,116076,1,0,0:0:0
476,200,116212,2,0,P|456:284|504:332,1,150,4|12,0:0|0:0,0:0:0
493,327,116758,6,0,P|340:328,1,150,4|8,0:0|0:0,0:0:0
260,328,117167,1,0,0:0:0
184,292,117303,2,0,P|176:328|184:364,1,75
260,328,117576,2,0,P|268:292|260:256,1,75,8|0,0:0|0:0,0:0:0
232,172,117849,2,0,P|220:132|232:100,1,75
308,136,118121,2,0,P|388:104,2,75,8|0|0,0:0|0:0|0:0,0:0:0
232,172,118530,1,0,0:0:0
148,168,118667,6,0,P|64:168,1,75,8|0,0:0|0:0,0:0:0
132,84,118940,2,0,P|96:68,2,37.5,4|0|0,0:0|0:0|0:0,0:0:0
212,68,119212,2,0,P|200:28,2,37.5,8|0|0,0:0|0:0|0:0,0:0:0
296,72,119485,2,0,P|308:32,2,37.5
380,84,119758,2,0,P|416:68,2,37.5,8|0|0,0:0|0:0|0:0,0:0:0
472,120,120030,6,0,P|403:150,1,75
328,184,120303,1,8,0:0:0
292,260,120440,2,0,P|268:292|264:332,1,75
344,320,120712,1,0,0:0:0
263,325,120849,6,0,P|184:332,1,75,12|0,0:0|0:0,0:0:0
116,372,121121,2,0,P|188:328|204:256,1,150,4|8,0:0|0:0,0:0:0
160,200,121530,1,0,0:0:0
156,116,121667,2,0,P|180:84|212:68,1,75
284,112,121940,2,0,P|260:144|229:159,1,75,8|0,0:0|0:0,0:0:0
160,200,122212,5,0,0:0:0
148,284,122349,1,0,0:0:0
232,280,122485,1,8,0:0:0
268,352,122621,2,0,P|348:352,1,75,0|4,0:0|0:0,0:0:0
460,236,123030,6,0,P|384:220,1,75,8|0,0:0|0:0,0:0:0
308,200,123303,2,0,P|268:212|236:200|236:200|204:188|160:200,1,150,4|8,0:0|0:0,0:0:0
88,236,123712,1,0,0:0:0
164,272,123849,2,0,P|204:264|240:276,1,75,4|0,0:0|0:0,0:0:0
304,132,124121,2,0,P|263:136|228:121,1,75,8|0,0:0|0:0,0:0:0
156,92,124394,6,0,P|120:76|76:76,1,75,4|0,0:0|0:0,0:0:0
88,156,124667,2,0,P|124:172|168:172,1,75,12|0,0:0|0:0,0:0:0
236,204,124940,1,4,0:0:0
236,204,125485,6,0,P|308:232|380:204,1,150,4|8,0:0|0:0,0:0:0
428,148,125894,1,0,0:0:0
344,144,126030,2,0,P|352:180|376:212,1,75
428,272,126303,2,0,P|448:300|456:344,1,75,8|0,0:0|0:0,0:0:0
372,332,126576,1,0,0:0:0
208,332,126849,1,8,0:0:0
284,188,127121,1,0,0:0:0
208,332,127394,6,0,P|132:332,1,75,8|0,0:0|0:0,0:0:0
124,248,127667,2,0,P|84:248,2,37.5,4|0|0,0:0|0:0|0:0,0:0:0
168,180,127940,2,0,P|196:208,2,37.5,8|0|0,0:0|0:0|0:0,0:0:0
152,100,128212,2,0,P|124:72,2,37.5
232,124,128485,2,0,P|264:96,2,37.5,8|0|0,0:0|0:0|0:0,0:0:0
284,188,128758,6,0,P|344:128,1,75,0|0,0:0|0:0,0:0:0
400,80,129030,1,8,0:0:0
428,156,129167,2,0,P|460:140|480:108,1,75
336,136,129440,1,0,0:0:0
364,212,129576,6,0,P|384:284,1,75,12|0,0:0|0:0,0:0:0
468,284,129849,2,0,P|392:284|320:312,1,150,4|8,0:0|0:0,0:0:0
252,348,130258,1,0,0:0:0
172,340,130394,2,0,P|136:336|100:320,1,75
76,240,130667,2,0,P|112:244|148:260,1,75,8|0,0:0|0:0,0:0:0
228,268,130940,5,0,0:0:0
312,124,131212,1,8,0:0:0
144,132,131485,1,0,0:0:0
228,268,131758,6,0,P|308:264,1,75,8|0,0:0|0:0,0:0:0
384,256,132030,2,0,P|456:224|472:156,1,150,4|8,0:0|0:0,0:0:0
392,176,132440,1,0,0:0:0
312,192,132576,2,0,P|328:128|400:96,1,150,4|8,0:0|0:0,0:0:0
484,80,132985,1,0,0:0:0
420,24,133121,2,0,P|380:24|344:32,1,75,4|0,0:0|0:0,0:0:0
276,76,133394,2,0,P|256:104|240:148,1,75,12|0,0:0|0:0,0:0:0
232,228,133667,1,4,0:0:0
232,228,133940,1,4,0:0:0
232,228,134212,6,0,P|192:296|116:308,1,150,4|8,0:0|0:0,0:0:0
48,284,134621,1,0,0:0:0
112,232,134758,2,0,P|132:196|136:160,1,75
52,172,135030,2,0,P|40:136|36:100,1,75,8|0,0:0|0:0,0:0:0
48,16,135303,1,0,0:0:0
204,64,135576,1,8,0:0:0
232,228,135849,1,0,0:0:0
204,64,136121,6,0,P|280:40,1,75,8|0,0:0|0:0,0:0:0
356,40,136394,2,0,P|404:40,2,37.5,4|0|0,0:0|0:0|0:0,0:0:0
316,112,136667,2,0,P|284:144,2,37.5,8|0|0,0:0|0:0|0:0,0:0:0
396,132,136940,2,0,P|432:152,2,37.5
352,200,137212,2,0,P|360:244,2,37.5,8|0|0,0:0|0:0|0:0,0:0:0
268,212,137485,6,0,P|280:292,1,75
288,368,137758,1,8,0:0:0
212,336,137894,2,0,P|176:320|136:316,1,75
60,332,138167,1,0,0:0:0
96,256,138303,6,0,P|67:180,1,75,12|0,0:0|0:0,0:0:0
12,124,138576,2,0,P|88:104|144:152,1,150,4|8,0:0|0:0,0:0:0
180,220,138985,1,0,0:0:0
244,272,139121,2,0,P|280:284|320:284,1,75
292,204,139394,2,0,P|308:168|337:149,1,75,8|0,0:0|0:0,0:0:0
376,220,139667,1,0,0:0:0
256,104,139940,1,8,0:0:0
136,220,140212,1,4,0:0:0
256,104,140485,6,0,P|256:24,1,75,8|0,0:0|0:0,0:0:0
336,52,140758,2,0,P|348:128|408:168,1,150,4|8,0:0|0:0,0:0:0
484,184,141167,1,0,0:0:0
456,260,141303,2,0,P|416:316|340:328,1,150,4|8,0:0|0:0,0:0:0
268,284,141712,1,0,0:0:0
260,204,141849,6,0,P|300:208|328:228,1,75,4|0,0:0|0:0,0:0:0
268,284,142121,2,0,P|228:280|200:260,1,75,12|0,0:0|0:0,0:0:0
156,188,142394,1,4,0:0:0
56,120,147303,6,0,P|136:100|184:140,1,150,0|2,0:0|0:0,0:0:0
208,220,147712,1,0,0:0:0
216,304,147849,2,0,P|228:336|260:360,1,75
340,340,148121,2,0,P|328:308|296:284,1,75,2|0,0:0|0:0,0:0:0
288,204,148394,5,0,0:0:0
336,136,148530,1,0,0:0:0
416,112,148667,2,0,P|456:100|480:76,2,75,2|0|0,0:0|0:0|0:0,0:0:0
416,112,149212,6,0,P|376:100|336:104,1,75,2|0,0:0|0:0,0:0:0
292,156,149485,2,0,P|220:184|148:164,1,150,0|2,0:0|0:0,0:0:0
84,136,149894,1,0,0:0:0
144,92,150030,2,0,P|196:80|224:28,2,112.5,2|2|2,0:0|0:0|0:0,0:0:0
152,16,150576,1,2,0:0:0
152,16,151121,6,0,P|188:28|216:52,1,75,2|0,0:0|0:0,0:0:0
288,40,151394,2,0,P|285:81|263:107,1,75,2|0,0:0|0:0,0:0:0
232,172,151667,6,0,P|228:252|280:308,1,150,4|8,0:0|0:0,0:0:0
344,324,152076,1,0,0:0:0
380,252,152212,2,0,P|404:220|440:204,1,75
440,124,152485,2,0,P|431:88|406:56,1,75,8|0,0:0|0:0,0:0:0
356,124,152758,1,0,0:0:0
276,144,152894,1,0,0:0:0
196,116,153030,2,0,P|164:96|140:60,2,75,8|0|0,0:0|0:0|0:0,0:0:0
196,116,153576,6,0,P|220:192,1,75,8|0,0:0|0:0,0:0:0
220,264,153849,2,0,P|200:300,2,37.5,4|0|0,0:0|0:0|0:0,0:0:0
152,228,154121,2,0,P|136:184,2,37.5,8|0|0,0:0|0:0|0:0,0:0:0
132,300,154394,2,0,P|80:328,2,37.5
72,244,154667,2,0,P|24:232,2,37.5,8|0|0,0:0|0:0|0:0,0:0:0
76,160,154940,6,0,P|-4:132,1,75
4,52,155212,1,8,0:0:0
84,80,155349,2,0,P|124:80|160:68,1,75
236,48,155621,1,0,0:0:0
316,64,155758,6,0,P|392:80,1,75,12|0,0:0|0:0,0:0:0
468,100,156030,2,0,P|424:168|468:248,1,150,4|8,0:0|0:0,0:0:0
504,288,156440,1,0,0:0:0
424,304,156576,2,0,P|384:300|352:280,1,75
274,152,156849,2,0,P|304:168|324:204,1,75,8|0,0:0|0:0,0:0:0
244,228,157121,5,0,0:0:0
168,264,157258,1,0,0:0:0
88,284,157394,2,0,P|52:284|12:296,2,75,8|0|0,0:0|0:0|0:0,0:0:0
88,284,157940,6,0,P|92:244|88:208,1,75,8|0,0:0|0:0,0:0:0
108,128,158212,2,0,P|152:84|224:88,1,112.5,4|0,0:0|0:0,0:0:0
200,80,158485,2,0,P|280:108,1,75,8|0,0:0|0:0,0:0:0
352,80,158758,2,0,P|352:124|312:176,1,112.5,4|0,0:0|0:0,0:0:0
311,176,159030,2,0,P|232:196,1,75,8|0,0:0|0:0,0:0:0
172,244,159303,6,0,P|192:320,1,75,4|0,0:0|0:0,0:0:0
287,356,159576,2,8,P|268:284,1,75,12|0,0:0|0:0,0:0:0
348,264,159849,6,0,P|388:332|452:336,1,150,4|8,0:0|0:0,0:0:0
492,176,160394,2,0,P|452:108|388:104,1,150,4|8,0:0|0:0,0:0:0
304,104,160803,1,0,0:0:0
220,104,160940,2,0,P|228:140|248:172,1,75
332,172,161212,2,0,P|324:136|304:104,1,75,8|0,0:0|0:0,0:0:0
276,32,161485,5,0,0:0:0
192,32,161621,1,0,0:0:0
132,88,161758,2,0,P|100:108|60:116,2,75,8|0|0,0:0|0:0|0:0,0:0:0
52,232,162303,6,0,P|84:212|124:204,1,75,8|0,0:0|0:0,0:0:0
204,196,162576,2,0,P|252:196,2,37.5,4|0|0,0:0|0:0|0:0,0:0:0
232,272,162849,2,0,P|240:320,2,37.5,8|0|0,0:0|0:0|0:0,0:0:0
312,252,163121,2,0,P|356:260,2,37.5
324,172,163394,2,0,P|296:140,2,37.5,8|0|0,0:0|0:0|0:0,0:0:0
356,96,163667,6,0,P|420:160,1,75,0|0,0:0|0:0,0:0:0
468,208,163940,1,8,0:0:0
460,288,164076,2,0,P|452:328|424:352,1,75
344,360,164349,1,0,0:0:0
260,360,164485,6,0,P|220:356|176:364,1,75,12|0,0:0|0:0,0:0:0
104,356,164758,2,0,P|24:316|16:256,1,150,4|8,0:0|0:0,0:0:0
24,180,165167,1,0,0:0:0
28,96,165303,2,0,P|48:64|92:36,1,75
112,120,165576,2,0,P|150:119|183:104,1,75,8|0,0:0|0:0,0:0:0
216,180,165849,5,0,0:0:0
180,268,165985,1,0,0:0:0
216,180,166121,2,0,P|292:180,2,75,8|0|4,0:0|0:0|0:0,0:0:0
216,180,166667,6,0,P|260:252,1,75,8|0,0:0|0:0,0:0:0
260,328,166940,2,0,P|324:292|328:208,1,150,4|8,0:0|0:0,0:0:0
344,140,167349,1,0,0:0:0
412,96,167485,2,0,P|496:96,1,75,4|0,0:0|0:0,0:0:0
444,24,167758,2,0,P|369:24,1,75,8|0,0:0|0:0,0:0:0
288,36,168030,6,0,P|260:60|220:64,1,75,4|0,0:0|0:0,0:0:0
79,116,168303,2,0,P|107:92|144:88,1,75,12|0,0:0|0:0,0:0:0
204,144,168576,1,4,0:0:0
204,144,168849,6,0,P|228:220,1,75,2|0,0:0|0:0,0:0:0
256,292,169121,2,0,P|328:280|404:320,1,150,4|8,0:0|0:0,0:0:0
460,368,169530,1,0,0:0:0
395,311,169667,2,0,P|440:248,1,75,4|0,0:0|0:0,0:0:0
368,204,169940,2,0,P|384:128,1,75,8|0,0:0|0:0,0:0:0
324,76,170212,6,0,P|276:136,1,75,2|2,0:0|0:0,0:0:0
224,200,170485,2,0,P|200:232,4,37.5,2|0|2|0|6,0:0|0:0|0:0|0:0|0:0,0:0:0
224,200,171303,5,4,0:0:0
