osu file format v6

[General]
AudioFilename: jihnsius - Cutting Circles.mp3
AudioLeadIn: 0
PreviewTime: -1
Countdown: 1
SampleSet: Normal
StackLeniency: 0.2
Mode: 0
LetterboxInBreaks: 1

[Editor]
DistanceSpacing: 0.400000005960464
BeatDivisor: 4
GridSize: 16

[Metadata]
Title:Cutting Circles
Artist:jihnsius
Creator:Sousei
Version:Spinner Version
Source:
Tags:

[Difficulty]
HPDrainRate:0
CircleSize:3
OverallDifficulty:4
SliderMultiplier:2.5
SliderTickRate:1

[Events]
//Background and Video events
0,0,"CuttingCircles.png"
//Break Periods
//Storyboard Layer 0 (Background)
//Storyboard Layer 1 (Fail)
//Storyboard Layer 2 (Pass)
//Storyboard Layer 3 (Foreground)
//Storyboard Sound Samples
//Background Colour Transformations
3,100,163,162,255

[TimingPoints]
1174,375,4,1,0,100,1,0
1549.83765525055,-100,4,1,0,100,0,1

[Colours]
Combo1 : 255,255,255
Combo2 : 255,28,21
Combo3 : 190,190,190
Combo4 : 128,255,0

[HitObjects]
256,192,1549,12,4,7549
256,192,7736,12,0,12049
256,192,12236,5,0
256,192,12517,1,0
256,192,12799,1,0
256,192,13080,1,0
256,192,13361,1,0
256,192,13549,5,4
256,192,13736,12,4,15048
256,192,15236,12,4,16549
256,192,16736,12,4,18049
256,192,18236,12,4,19549
256,192,19736,12,4,21049
256,192,21236,12,4,22549
256,192,22736,12,0,24049
256,192,24236,5,0
256,192,24517,1,0
256,192,24799,1,0
256,192,25080,1,0
256,192,25361,1,0
256,192,25549,5,4
256,192,25736,12,4,28549
256,192,28736,12,4,31549
256,192,31736,12,4,34549
256,192,34736,12,0,37549
256,192,37736,5,0
256,192,38017,1,0
256,192,38299,1,0
256,192,38580,1,0
256,192,38861,1,0
256,192,39049,5,4
256,192,39236,12,0,44674
256,192,44861,5,0
256,192,45049,1,0
256,192,45142,12,0,45236
256,192,45330,12,0,45611
256,192,45705,12,0,45986
256,192,46080,12,0,46361
256,192,46455,12,0,46736
256,192,46830,12,0,47111
256,192,47205,12,0,47486
256,192,47580,12,0,47861
256,192,47955,12,0,48236
256,192,48330,12,0,48611
256,192,48705,12,0,48986
256,192,49080,12,0,49361
256,192,49455,12,0,51049
256,192,51236,5,0
256,192,51517,1,0
256,192,51799,1,0
256,192,52080,1,0
256,192,52361,1,0
256,192,52549,5,4
256,192,55455,5,0
256,192,55549,1,4
256,192,58361,5,0
256,192,58549,1,4
256,192,59955,5,0
256,192,60049,1,4
256,192,61361,5,0
256,192,61549,1,4
256,192,62861,5,0
256,192,62955,1,0
256,192,63049,1,0
256,192,63236,5,0
256,192,63517,1,0
256,192,63799,1,0
256,192,64080,1,0
256,192,64361,1,0
256,192,64549,5,0
256,192,64736,12,4,67549
256,192,67736,12,4,70549
256,192,70736,12,4,73549
256,192,73736,12,0,75049
256,192,75236,5,0
256,192,75517,1,0
256,192,75799,1,0
256,192,76080,1,0
256,192,76361,1,0
256,192,76549,5,4
256,192,76736,12,0,77674
256,192,77861,5,0
256,192,78049,1,4
256,192,78236,12,0,79174
256,192,79361,5,0
256,192,79549,1,4
256,192,79736,12,0,80674
256,192,80861,5,0
256,192,81049,1,4
256,192,81236,12,0,82174
256,192,82361,5,0
256,192,82549,1,4
256,192,82736,12,0,85174
256,192,85361,5,0
256,192,85549,1,4
256,192,85736,12,0,87049
256,192,87236,5,0
256,192,87517,1,0
256,192,87799,1,0
256,192,88080,1,0
256,192,88361,1,0
256,192,88549,5,0
256,192,88642,12,0,88924
256,192,89299,5,0
256,192,89486,1,0
256,192,89674,1,0
256,192,89861,1,0
256,192,90049,1,0
256,192,90142,12,0,90424
256,192,90799,5,0
256,192,90986,1,0
256,192,91174,1,0
256,192,91361,1,0
256,192,91549,1,0
256,192,91642,12,0,91924
256,192,92299,5,0
256,192,92486,1,0
256,192,92674,1,0
256,192,92861,1,0
256,192,93049,1,0
256,192,93142,12,0,93424
256,192,93799,5,0
256,192,93986,1,0
256,192,94174,1,0
256,192,94361,1,0
256,192,94549,1,4
256,192,94736,12,0,95674
256,192,95861,5,0
256,192,96049,1,4
256,192,96236,12,0,97174
256,192,97361,5,0
256,192,97549,1,4
256,192,97736,12,0,98674
256,192,98861,5,0
256,192,99049,1,4
256,192,99236,12,0,100549
