osu file format v6

[General]
AudioFilename: jihnsius - Cutting Circles.mp3
AudioLeadIn: 0
PreviewTime: -1
Countdown: 1
SampleSet: Normal
StackLeniency: 0.3
Mode: 0
LetterboxInBreaks: 1

[Editor]
DistanceSpacing: 0.800000011920929
BeatDivisor: 4
GridSize: 16

[Metadata]
Title:Cutting Circles
Artist:jihnsius
Creator:Sousei
Version:Cao Version
Source:
Tags:

[Difficulty]
HPDrainRate:3
CircleSize:4
OverallDifficulty:8
SliderMultiplier:2.6
SliderTickRate:0.5

[Events]
//Background and Video events
0,0,"CuttingCircles.png"
//Break Periods
//Storyboard Layer 0 (Background)
//Storyboard Layer 1 (Fail)
//Storyboard Layer 2 (Pass)
//Storyboard Layer 3 (Foreground)
//Storyboard Sound Samples
//Background Colour Transformations
3,100,163,162,255

[TimingPoints]
1549.83765525055,375,4,1,0,100,1,0
24049,-200,4,1,0,100,0,0
24331,-100,4,1,0,100,0,0
37549,-200,4,1,0,100,0,0
38768,-100,4,1,0,100,0,0
45049,-100,4,2,0,100,0,0
45237,-100,4,1,0,100,0,0
45424,-100,4,2,0,100,0,0
45612,-100,4,1,0,100,0,0
45799,-100,4,2,0,100,0,0
45987,-100,4,1,0,100,0,0
46174,-100,4,2,0,100,0,0
46362,-100,4,1,0,100,0,0
46549,-100,4,2,0,100,0,0
46737,-100,4,1,0,100,0,0
46924,-100,4,2,0,100,0,0
47112,-100,4,1,0,100,0,0
47299,-100,4,2,0,100,0,0
47487,-100,4,1,0,100,0,0
47674,-100,4,2,0,100,0,0
47862,-100,4,1,0,100,0,0
48049,-100,4,2,0,100,0,0
48237,-100,4,1,0,100,0,0
48424,-100,4,2,0,100,0,0
48612,-100,4,1,0,100,0,0
48799,-100,4,2,0,100,0,0
48987,-100,4,1,0,100,0,0
49174,-100,4,2,0,100,0,0
49362,-100,4,1,0,100,0,0
49549,-100,4,2,0,100,0,0
49737,-100,4,1,0,100,0,0
49924,-100,4,2,0,100,0,0
50112,-100,4,1,0,100,0,0
50299,-100,4,2,0,100,0,0
50487,-100,4,1,0,100,0,0
50674,-100,4,2,0,100,0,0
50862,-100,4,1,0,100,0,0
52456,-100,4,2,0,100,0,0
53299,-200,4,2,0,100,0,0
53674,-100,4,2,0,100,0,0
54799,-200,4,2,0,100,0,0
55456,-100,4,1,0,50,0,0
55643,-200,4,2,0,100,0,0
58081,-100,4,2,0,100,0,0
58362,-100,4,1,0,50,0,0
58456,-100,4,2,0,100,0,0
58549,-100,4,1,0,50,0,0
63424,-100,4,1,0,70,0,0
63706,-100,4,1,0,90,0,0
63987,-100,4,1,0,100,0,0
64549,-100,4,1,0,100,0,1
75049,-100,4,1,0,100,0,0
76549,-100,4,1,0,100,0,1
88737,-100,4,1,0,50,0,0
100549,-100,4,1,0,50,0,1

[Colours]
Combo1 : 255,255,255
Combo2 : 255,28,21
Combo3 : 190,190,190
Combo4 : 128,255,0

[HitObjects]
192,80,1549,2,0,C|48:80,1,130
144,176,1924,2,0,C|240:176,1,65,0|0
272,176,2206,2,0,C|352:176,1,65
400,176,2487,2,0,C|480:176,1,65
192,304,2768,1,0
256,304,2956,1,0
320,304,3049,6,0,C|464:304,1,130
368,208,3424,2,0,C|272:208,1,65,0|0
240,208,3706,2,0,C|160:208,1,65
112,208,3987,2,0,C|32:208,1,65
320,80,4268,1,0
256,80,4456,1,0
192,80,4549,6,0,B|124:43|65:86,2,130
69,83,5018,2,0,B|17:148|76:217,1,130
107,252,5299,2,0,B|161:300|226:248,1,130
229,125,5581,2,0,B|266:193|226:248,2,130
227,250,6049,6,0,B|295:287|354:244,2,130
350,247,6518,2,0,B|402:182|343:113,1,130
312,77,6799,2,0,B|258:29|193:81,1,130
190,204,7081,2,0,B|153:136|193:81,2,130
208,288,7549,5,0
256,336,7643,1,0
304,288,7737,1,0
352,240,7924,5,0
400,192,8018,1,0
352,144,8112,1,0
304,96,8299,5,0
256,48,8393,1,0
208,96,8487,1,0
160,144,8674,5,0
112,192,8768,1,0
160,240,8862,1,0
208,288,9049,5,0
256,240,9143,1,0
304,288,9237,1,0
352,240,9424,5,0
304,192,9518,1,0
352,144,9612,1,0
304,96,9799,5,0
256,144,9893,1,0
208,96,9987,1,0
160,144,10174,5,0
208,192,10268,1,0
160,240,10362,1,0
32,192,10549,5,0
48,192,10643,1,0
64,192,10737,1,0
480,192,10924,1,0
464,192,11018,1,0
448,192,11112,1,0
144,192,11299,5,0
160,192,11393,1,0
176,192,11487,1,0
368,192,11674,1,0
352,192,11768,1,0
336,192,11862,1,0
256,192,12049,5,0
256,192,12237,1,0
256,208,12331,12,0,12519
256,208,12613,12,0,12800
256,208,12894,12,0,13081
256,208,13175,12,0,13363
416,96,13549,6,0,B|256:96,1,130
160,96,13924,2,0,B|96:160,1,65,8|0
64,192,14112,1,0
64,192,14299,6,0,B|224:192,1,130
320,192,14674,2,0,B|384:256,1,65,8|0
416,288,14862,1,0
416,288,15049,6,0,L|368:336|288:352,1,130
176,304,15424,1,8
128,256,15518,2,0,L|192:320,1,65
96,96,15799,6,0,L|144:48|224:32,1,130
336,80,16174,1,8
384,128,16268,2,0,L|320:64,1,65
154,267,16549,6,0,L|99:306|154:267,2,130,0|0|8
206,229,17018,1,0
258,190,17112,1,0
361,114,17299,6,0,L|416:74|361:114,2,130,0|0|8
309,152,17768,1,0
257,191,17862,1,0
144,128,18049,5,0
176,256,18237,1,0
144,128,18424,1,8
160,192,18518,1,0
176,256,18612,1,0
336,256,18799,5,0
368,128,18987,1,0
336,256,19174,1,8
352,192,19268,1,0
368,128,19362,1,0
48,64,19549,6,0,L|16:128|64:176,1,130
112,208,19924,2,0,L|144:144|96:96,1,130,8|0
64,160,20299,2,0,L|32:224|80:272,1,130,0|0
208,320,20674,1,8
272,320,20768,1,0
336,320,20862,1,0
400,320,20956,1,0
464,320,21049,6,0,L|496:256|448:208,1,130
400,176,21424,2,0,L|368:240|416:288,1,130,8|0
448,224,21799,2,0,L|480:160|432:112,1,130,0|0
304,64,22174,1,8
240,64,22268,1,0
176,64,22362,1,0
112,64,22456,1,0
48,64,22549,6,0,L|32:128|64:192,1,130
464,320,22924,2,0,L|480:256|448:192,1,130,8|0
256,192,23299,1,0
256,192,23487,1,0
192,224,23674,6,0,L|128:256,1,65,8|0
320,224,23862,2,0,L|384:256,1,65
256,120,24049,2,0,L|256:48,1,65,0|0
256,32,24518,5,0
496,192,24799,5,0
256,352,25081,5,0
16,192,25362,5,0
48,320,25549,5,0
80,336,25737,1,0
96,336,25831,1,0
128,320,26018,1,0
144,320,26112,1,0
176,336,26299,1,0
192,336,26393,1,0
208,336,26487,1,0
240,320,26674,1,0
272,336,26862,1,0
464,64,27049,5,0
432,48,27237,1,0
416,48,27331,1,0
384,64,27518,1,0
368,64,27612,1,0
336,48,27799,1,0
320,48,27893,1,0
304,48,27987,1,0
272,64,28174,1,0
240,48,28362,1,0
144,176,28549,5,0
176,176,28737,1,0
208,176,28924,1,0
240,176,29112,1,0
256,176,29206,1,0
288,176,29393,1,0
304,176,29487,1,0
336,176,29674,1,0
352,176,29768,1,0
368,176,29862,1,0
376,208,30049,5,0
344,208,30237,1,0
328,208,30331,1,0
296,208,30518,1,0
280,208,30612,1,0
248,208,30799,1,0
232,208,30893,1,0
200,208,31081,1,0
184,208,31174,1,0
168,208,31268,1,0
152,208,31362,1,0
136,208,31456,1,0
120,208,31549,5,0
392,208,31831,1,0
48,80,32112,1,0
464,80,32393,1,0
256,352,32674,2,0,L|256:192,1,130
392,176,33049,5,0
120,176,33331,1,0
464,304,33612,1,0
48,304,33893,1,0
256,32,34174,2,0,L|256:192,1,130
256,352,34549,5,0
32,80,34831,1,0
256,352,35112,1,0
480,80,35393,1,0
256,352,35674,1,0
256,352,35862,1,0
256,14,36049,6,0,B|201:83|327:151|247:207,1,195
259,194,36612,2,0,B|195:147|310:77|252:14,1,195
200,280,37174,5,0
224,344,37268,1,0
288,344,37362,1,0
312,280,37456,1,0
256,240,37549,1,0
80,336,37737,5,0
432,336,38018,1,0
432,336,38299,1,0
80,336,38581,1,0
256,32,38815,2,0,B|256:96,4,32.5,0|0|0|0|0
256,96,39049,6,0,B|168:216|0:144,2,260,4|8|0
434,58,39987,1,0
294,173,40174,1,8
472,134,40362,1,0
256,288,40549,6,0,B|344:168|512:240,2,260,0|8|0
77,325,41487,1,0
217,210,41674,1,8
39,249,41862,1,0
32,45,42049,5,0
160,64,42237,1,0
230,172,42424,1,8
480,339,42799,1,0
352,320,42987,1,0
282,212,43174,1,8
479,42,43549,5,0
390,137,43737,1,0
342,257,43924,1,8
258,356,44112,1,0
258,356,44299,1,0
170,257,44487,1,0
122,137,44675,1,8
33,42,44862,1,0
256,192,45049,5,0
256,128,45237,5,0
256,192,45424,5,0
192,192,45612,5,0
256,192,45799,5,0
256,256,45987,5,0
256,192,46174,5,0
320,192,46362,5,0
256,192,46549,5,0
192,128,46737,5,0
256,192,46924,5,0
192,256,47112,5,0
256,192,47299,5,0
320,256,47487,5,0
256,192,47674,5,0
320,128,47862,5,0
256,192,48049,5,0
128,192,48237,5,0
256,192,48424,5,0
256,320,48612,5,0
256,192,48799,5,0
384,192,48987,5,0
256,192,49174,5,0
256,64,49362,5,0
256,192,49549,5,0
128,320,49737,5,0
256,192,49924,5,0
384,320,50112,5,0
256,192,50299,5,0
384,64,50487,5,0
256,192,50674,5,0
128,64,50862,5,0
256,32,51237,5,0
256,112,51518,1,0
256,144,51612,1,0
256,192,51799,1,0
256,272,52081,1,0
256,296,52175,1,0
256,344,52362,1,0
416,336,52549,6,0,B|464:288,1,65
400,304,52737,2,0,B|352:256,1,65
416,256,52924,2,0,B|464:208,1,65
400,224,53112,2,0,B|352:176,1,65
416,192,53299,2,0,B|464:144,1,65
256,80,53674,5,2
256,304,53862,1,0
96,48,54049,6,0,B|48:96,1,65
112,80,54237,2,0,B|160:128,1,65
96,128,54424,2,0,B|48:176,1,65
112,160,54612,2,0,B|160:208,1,65
96,192,54799,2,0,B|48:240,1,65
256,304,55174,5,2
256,80,55362,1,0
256,112,55456,1,0
256,144,55549,5,0
256,176,55643,1,0
272,208,55737,1,0
304,224,55831,1,0
336,232,55925,1,0
368,224,56018,1,0
400,208,56112,1,0
416,176,56206,1,0
416,144,56299,2,0,B|416:64,1,65
256,16,56674,2,0,B|256:97,1,65,2|0
256,240,57049,5,0
256,208,57143,1,0
240,176,57237,1,0
208,160,57331,1,0
176,152,57425,1,0
144,160,57518,1,0
112,176,57612,1,0
96,208,57706,1,0
96,240,57799,2,0,B|96:320,1,65,0|0
256,368,58174,2,0,B|256:287,3,65
256,240,58549,5,0
256,176,59956,1,0
256,176,60049,1,0
256,112,61362,1,0
256,112,61549,1,0
256,48,62862,1,0
256,48,62956,1,0
256,48,63049,1,0
160,192,63237,5,0
256,336,63518,1,0
352,192,63799,1,0
256,48,64081,1,0
224,120,64174,1,0
256,192,64268,1,0
288,264,64362,1,0
256,336,64456,1,0
256,336,64549,6,0,B|176:352|112:304,1,130,4|0
207,210,64924,1,8
130,315,65112,2,0,B|70:262|82:175,1,130
207,210,65487,1,0
80,199,65674,2,0,B|81:124|178:77,1,130,8|0
256,48,66049,6,0,B|336:32|400:80,1,130
304,173,66424,1,8
381,68,66612,2,0,B|442:122|430:209,1,130
304,173,66987,1,0
431,184,67174,2,0,B|431:260|334:307,1,130,8|0
183,354,67549,6,0,B|120:298|149:203,1,130
257,297,67924,1,8
326,233,68112,2,0,B|389:177|360:82,1,130
252,176,68487,1,0
172,119,68674,2,0,B|109:63|138:-30,1,130,8|0
352,48,69049,5,0
384,96,69143,1,0
416,144,69237,1,0
153,316,69424,2,0,B|63:185,1,130,8|0
80,209,69799,2,0,B|153:316,1,130,0|0
416,144,70174,1,8
384,96,70268,1,0
352,48,70362,1,0
384,96,70456,1,0
416,144,70549,5,4
478,258,70737,1,0
364,321,70924,1,8
295,209,71112,1,0
295,209,71206,1,0
295,209,71299,1,0
364,321,71487,1,0
478,258,71674,1,8
416,144,71862,1,0
96,240,72049,5,0
34,126,72237,1,0
148,63,72424,1,8
217,175,72612,1,0
217,175,72706,1,0
217,175,72799,1,0
148,63,72987,1,0
34,126,73174,1,8
96,240,73362,1,0
336,256,73549,6,0,B|192:256,1,130
192,264,73924,2,0,B|336:264,1,130,8|0
336,272,74299,2,0,B|176:272,1,130
192,280,74674,2,0,B|336:280,1,130,8|0
80,48,75237,5,0
160,48,75518,2,0,B|240:48,1,65,0|0
432,336,75799,1,0
352,336,76080,2,0,B|272:336,1,65,0|0
320,272,76268,2,0,B|224:272,1,65
240,272,76456,1,0
224,272,76549,6,0,B|80:272,1,130,4|0
32,128,76924,1,8
32,128,77018,2,0,B|57:174|122:175|149:108,1,130
297,186,77299,2,0,B|272:232|207:233|180:166,1,130,0|0
160,336,77674,1,8
352,336,77862,1,0
288,112,78049,6,0,B|432:112,1,130,0|0
480,256,78424,1,8
480,256,78518,2,0,B|455:210|390:209|363:276,1,130
214,197,78799,2,0,B|239:151|304:150|331:217,1,130,0|0
352,48,79174,1,8
160,48,79362,1,0
432,112,79549,5,0
352,128,79737,2,0,L|288:160|288:240|288:240,1,130,0|8
400,272,80018,2,0,L|464:240|464:160|464:160,1,130
376,202,80299,1,0
195,332,80487,2,0,L|255:352|328:332,1,130,0|8
136,202,80862,1,0
80,272,81049,5,0
160,256,81237,2,0,L|224:224|224:144|224:144,1,130,0|8
112,112,81518,2,0,L|48:144|48:224|48:224,1,130
136,182,81799,1,0
316,51,81987,2,0,L|256:31|183:51,1,130,0|8
376,182,82362,1,0
416,336,82549,5,0
256,288,82737,1,0
96,336,82924,2,0,L|32:352,1,65,8|0
416,224,83206,2,0,L|480:208,1,65,0|0
256,288,83487,1,0
176,144,83674,1,8
336,144,83862,1,0
96,48,84049,5,0
256,96,84237,1,0
416,48,84424,2,0,L|480:32,1,65,8|0
96,160,84706,2,0,L|32:176,1,65,0|0
256,96,84987,1,0
336,240,85174,1,8
176,240,85362,1,0
336,80,85549,5,0
176,112,85737,1,0
336,144,85924,1,8
416,144,86018,1,0
176,176,86206,1,0
96,176,86300,1,0
336,208,86487,1,0
176,240,86674,1,8
336,272,86862,1,0
256,208,87049,12,0,87237
256,208,87331,12,0,87518
256,208,87612,12,0,87799
256,208,87893,12,0,88081
256,192,88174,5,0
256,192,88268,1,0
256,192,88362,1,0
256,192,88456,1,0
256,192,88549,5,4
432,80,88924,1,8
224,32,89299,1,0
120,44,89487,1,0
40,111,89674,1,8
19,213,89862,1,0
256,192,90049,5,0
80,304,90424,1,8
288,352,90799,1,0
391,339,90987,1,0
471,272,91174,1,8
492,170,91362,1,0
455,73,91549,5,0
318,229,91924,1,8
455,73,92299,1,0
351,58,92487,1,0
250,83,92674,1,8
197,173,92862,1,0
57,311,93049,5,0
194,155,93424,1,8
57,311,93799,1,0
161,326,93987,1,0
261,300,94174,1,8
314,210,94362,1,0
124,135,94549,6,0,B|45:117|-13:152|17:302|152:234,1,260,0|8
192,16,95299,5,0
320,16,95487,1,0
192,16,95674,1,8
320,16,95862,1,0
291,179,96049,6,0,B|233:102|183:199|231:297|295:197|295:197|347:265,1,260,0|8
320,368,96799,5,0
192,368,96987,1,0
320,368,97174,1,8
192,368,97362,1,0
479,192,97549,6,0,B|452:98|352:144|357:252|460:275|490:175,1,260,0|8
256,192,98299,5,0
256,192,98487,1,0
256,192,98674,1,8
256,192,98862,1,0
48,192,99237,5,0
256,128,99518,1,0
256,80,99612,1,0
464,192,99799,1,0
256,256,100081,1,0
256,272,100174,1,0
256,288,100268,1,0
256,304,100362,1,0
256,320,100455,1,0
256,336,100549,1,4
