osu file format v13

[General]
AudioFilename: colckkcloc.mp3
AudioLeadIn: 0
PreviewTime: 83923
Countdown: 1
SampleSet: Soft
StackLeniency: 0.7
Mode: 0
LetterboxInBreaks: 1
WidescreenStoryboard: 0

[Editor]
DistanceSpacing: 0.5
BeatDivisor: 4
GridSize: 4
TimelineZoom: 2.7

[Metadata]
Title:clockkcolc
TitleUnicode:反方向的钟
Artist:jaychou
ArtistUnicode:周杰伦
Creator:jimpky
Version:
Source:
Tags:
BeatmapID:474916
BeatmapSetID:200367

[Difficulty]
HPDrainRate:6
CircleSize:4
OverallDifficulty:7
ApproachRate:8
SliderMultiplier:1.6
SliderTickRate:2

[Events]
//Background and Video events
//Break Periods
2,4190,5144
2,21315,24489
2,32655,33688
2,42886,44474
//Storyboard Layer 0 (Background)
//Storyboard Layer 1 (Fail)
//Storyboard Layer 2 (Pass)
//Storyboard Layer 3 (Foreground)
//Storyboard Sound Samples
//Background Colour Transformations
3,100,163,162,255

[TimingPoints]
498,317.460317460317,3,2,0,100,1,0

[HitObjects]
272,144,498,5,0,0:0:0:0:
364,140,815,1,0,0:0:0:0:
304,80,1132,1,0,0:0:0:0:
336,200,1450,1,0,0:0:0:0:
272,184,2085,1,0,0:0:0:0:
260,152,2402,1,0,0:0:0:0:
140,196,3037,1,0,0:0:0:0:
176,148,3355,1,0,0:0:0:0:
192,256,3672,1,0,0:0:0:0:
248,236,3990,1,0,0:0:0:0:
376,100,5894,5,0,0:0:0:0:
408,136,6212,1,0,0:0:0:0:
376,100,6529,1,0,0:0:0:0:
412,136,6847,1,0,0:0:0:0:
340,212,7482,1,0,0:0:0:0:
397,217,7799,1,0,0:0:0:0:
432,264,8117,1,0,0:0:0:0:
360,280,8751,1,0,0:0:0:0:
392,324,9069,1,0,0:0:0:0:
288,260,9386,1,0,0:0:0:0:
272,176,10012,1,0,0:0:0:0:
156,228,11281,1,0,0:0:0:0:
236,212,11598,1,0,0:0:0:0:
256,288,11915,1,0,0:0:0:0:
332,264,12232,1,0,0:0:0:0:
152,96,13184,1,0,0:0:0:0:
72,120,13501,1,0,0:0:0:0:
152,96,13821,1,0,0:0:0:0:
180,308,14455,1,0,0:0:0:0:
80,200,14773,1,0,0:0:0:0:
224,200,15090,1,0,0:0:0:0:
88,288,15722,1,0,0:0:0:0:
260,304,16991,1,0,0:0:0:0:
112,192,17308,1,0,0:0:0:0:
288,204,17625,1,0,0:0:0:0:
228,132,17942,1,0,0:0:0:0:
192,252,18577,1,0,0:0:0:0:
288,288,18894,1,0,0:0:0:0:
104,292,19211,1,0,0:0:0:0:
132,160,19529,1,0,0:0:0:0:
304,208,19846,1,0,0:0:0:0:
404,308,20163,1,0,0:0:0:0:
404,308,20480,1,0,0:0:0:0:
464,48,21115,1,0,0:0:0:0:
400,24,25239,6,0,P|292:60|240:132,1,200
224,164,25873,1,0,0:0:0:0:
244,232,26190,1,0,0:0:0:0:
380,164,27142,1,0,0:0:0:0:
320,128,27459,1,0,0:0:0:0:
256,112,27776,2,0,P|180:112|80:136,1,160,0|0,0:0|0:0,0:0:0:0:
176,124,28728,2,0,L|224:124,4,40,0|0|0|0|0,0:0|0:0|0:0|0:0|0:0,0:0:0:0:
120,168,29362,1,0,0:0:0:0:
184,192,29997,1,0,0:0:0:0:
216,240,30314,1,0,0:0:0:0:
264,256,30631,1,0,0:0:0:0:
348,196,30949,1,0,0:0:0:0:
320,140,31266,1,0,0:0:0:0:
272,148,32217,2,0,L|236:176,3,40,0|0|0|0,0:0|0:0|0:0|0:0,0:0:0:0:
124,160,34438,6,0,L|168:124,8,40,0|0|0|0|0|0|0|0|0,0:0|0:0|0:0|0:0|0:0|0:0|0:0|0:0|0:0,0:0:0:0:
120,228,35390,1,0,0:0:0:0:
248,264,35707,1,0,0:0:0:0:
120,312,36024,1,0,0:0:0:0:
200,192,36341,1,0,0:0:0:0:
176,268,37293,1,0,0:0:0:0:
228,324,37610,1,0,0:0:0:0:
248,256,38245,2,0,P|328:216|408:244,1,160
440,288,38879,1,0,0:0:0:0:
384,336,39514,1,0,0:0:0:0:
312,332,40148,1,0,0:0:0:0:
272,312,40465,1,0,0:0:0:0:
240,288,40783,1,0,0:0:0:0:
136,312,41100,1,0,0:0:0:0:
356,256,41417,1,0,0:0:0:0:
168,240,42051,2,0,L|236:224,3,40,0|0|0|0,0:0|0:0|0:0|0:0,0:0:0:0:
272,220,42686,1,0,0:0:0:0:
124,136,45224,5,0,0:0:0:0:
108,120,45541,1,0,0:0:0:0:
100,112,45858,1,0,0:0:0:0:
92,104,46017,1,0,0:0:0:0:
392,88,46493,1,0,0:0:0:0:
408,100,46810,1,0,0:0:0:0:
424,112,47127,1,0,0:0:0:0:
432,120,47286,1,0,0:0:0:0:
248,192,47762,1,0,0:0:0:0:
196,144,48079,1,0,0:0:0:0:
240,64,48396,1,0,0:0:0:0:
272,72,48555,1,0,0:0:0:0:
324,140,49030,1,0,0:0:0:0:
264,168,49348,1,0,0:0:0:0:
164,264,49665,1,0,0:0:0:0:
200,288,49823,1,0,0:0:0:0:
332,228,50299,1,0,0:0:0:0:
348,168,50616,1,0,0:0:0:0:
168,164,50933,1,0,0:0:0:0:
180,200,51092,1,0,0:0:0:0:
220,252,51568,1,0,0:0:0:0:
256,196,51885,1,0,0:0:0:0:
424,248,52203,1,0,0:0:0:0:
452,212,52361,1,0,0:0:0:0:
456,124,52837,1,0,0:0:0:0:
420,80,53154,1,0,0:0:0:0:
304,64,53472,1,0,0:0:0:0:
252,84,53630,1,0,0:0:0:0:
96,52,54106,1,0,0:0:0:0:
168,68,54423,1,0,0:0:0:0:
240,128,54740,1,0,0:0:0:0:
188,148,54899,1,0,0:0:0:0:
120,196,55375,2,0,P|140:264|236:296,1,160
304,280,56009,1,0,0:0:0:0:
364,244,56168,1,0,0:0:0:0:
416,192,56644,2,0,P|392:104|304:72,1,160
264,64,57278,1,0,0:0:0:0:
192,68,57437,1,0,0:0:0:0:
84,136,57915,1,0,0:0:0:0:
120,256,58233,1,0,0:0:0:0:
56,188,58550,1,0,0:0:0:0:
104,192,58708,1,0,0:0:0:0:
192,192,59184,2,0,L|232:208,3,40,0|0|0|0,0:0|0:0|0:0|0:0,0:0:0:0:
176,120,59819,1,0,0:0:0:0:
248,88,60136,1,0,0:0:0:0:
344,100,60453,2,0,P|316:184|284:268,1,160
256,324,61722,2,0,L|144:192,1,160
216,68,62991,1,0,0:0:0:0:
304,48,63308,1,0,0:0:0:0:
464,128,64260,1,0,0:0:0:0:
464,128,64418,1,0,0:0:0:0:
464,128,64577,1,0,0:0:0:0:
436,208,64894,1,0,0:0:0:0:
392,176,65211,1,0,0:0:0:0:
328,132,65846,2,0,B|280:112|224:116|180:136|140:152,1,160
112,176,66480,1,0,0:0:0:0:
164,216,66798,2,0,B|232:240|276:240|328:228|352:212,1,160
396,192,67432,1,0,0:0:0:0:
318,106,67749,1,0,0:0:0:0:
420,45,68066,1,0,0:0:0:0:
492,140,68384,1,0,0:0:0:0:
406,122,68701,1,0,0:0:0:0:
263,175,69018,1,0,0:0:0:0:
185,100,69335,2,0,L|146:110,8,40,0|0|0|0|0|0|0|0|0,0:0|0:0|0:0|0:0|0:0|0:0|0:0|0:0|0:0,0:0:0:0:
286,54,70128,1,0,0:0:0:0:
172,106,70922,1,0,0:0:0:0:
257,146,71239,1,0,0:0:0:0:
346,190,71556,1,0,0:0:0:0:
334,93,71873,1,0,0:0:0:0:
257,146,72190,1,0,0:0:0:0:
194,202,72508,1,0,0:0:0:0:
119,140,72825,1,0,0:0:0:0:
177,89,73142,1,0,0:0:0:0:
200,73,73301,1,0,0:0:0:0:
261,44,73459,1,0,0:0:0:0:
310,115,74094,1,0,0:0:0:0:
361,153,74411,2,0,B|317:189|284:213|287:212,1,80
26,99,75997,1,0,0:0:0:0:
128,45,76314,1,0,0:0:0:0:
264,37,76631,1,0,0:0:0:0:
374,112,76948,1,0,0:0:0:0:
447,211,77901,1,0,0:0:0:0:
393,328,78218,1,0,0:0:0:0:
257,331,78535,1,0,0:0:0:0:
159,247,78852,1,0,0:0:0:0:
165,138,79169,1,0,0:0:0:0:
273,92,79487,1,0,0:0:0:0:
364,162,79804,1,0,0:0:0:0:
319,253,80121,1,0,0:0:0:0:
214,218,80438,1,0,0:0:0:0:
256,140,80756,1,0,0:0:0:0:
256,192,81073,12,0,83990,0:0:0:0:
312,188,86148,5,0,0:0:0:0:
240,124,86466,1,0,0:0:0:0:
160,184,86783,1,0,0:0:0:0:
216,264,87100,1,0,0:0:0:0:
328,272,88052,1,0,0:0:0:0:
408,184,88369,1,0,0:0:0:0:
352,88,89003,1,0,0:0:0:0:
236,56,89638,1,0,0:0:0:0:
124,120,90272,1,0,0:0:0:0:
124,240,91224,1,0,0:0:0:0:
236,308,91541,1,0,0:0:0:0:
380,304,91858,1,0,0:0:0:0:
472,200,92176,1,0,0:0:0:0:
448,92,93127,1,0,0:0:0:0:
392,56,93445,1,0,0:0:0:0:
272,44,94396,1,0,0:0:0:0:
80,108,94713,1,0,0:0:0:0:
352,224,96300,1,0,0:0:0:0:
160,224,96617,1,0,0:0:0:0:
232,312,96934,1,0,0:0:0:0:
264,164,97251,1,0,0:0:0:0:
164,160,98203,1,0,0:0:0:0:
272,208,98520,1,0,0:0:0:0:
292,148,99155,1,0,0:0:0:0:
152,216,99789,1,0,0:0:0:0:
260,240,100423,1,0,0:0:0:0:
116,192,101375,1,0,0:0:0:0:
216,224,101692,1,0,0:0:0:0:
256,164,102010,1,0,0:0:0:0:
304,112,102327,1,0,0:0:0:0:
344,256,103279,1,0,0:0:0:0:
348,188,103596,1,0,0:0:0:0:
236,180,104230,1,0,0:0:0:0:
272,264,104865,1,0,0:0:0:0:
312,236,105182,1,0,0:0:0:0:
288,180,105499,1,0,0:0:0:0:
208,240,105816,1,0,0:0:0:0:
300,152,106134,1,0,0:0:0:0:
