osu file format v9

[General]
AudioFilename: 02.mp3
AudioLeadIn: 0
PreviewTime: 48464
Countdown: 0
SampleSet: Normal
StackLeniency: 0.7
Mode: 0
LetterboxInBreaks: 1

[Editor]
Bookmarks: 22589
DistanceSpacing: 0.5
BeatDivisor: 4
GridSize: 4

[Metadata]
Title:Emukko Kyun Kyun
Artist:iyuna
Creator:cRyo[iceeicee]
Version:Insane
Source:Mkko Sisters
Tags:lost rarities M3-28 Apricot Cherry game eroge hentai KayeSara

[Difficulty]
HPDrainRate:7
CircleSize:4
OverallDifficulty:7
ApproachRate:8
SliderMultiplier:1.6
SliderTickRate:2

[Events]
//Background and Video events
0,0,"Bg.jpg"
//Break Periods
2,76987,82237
//Storyboard Layer 0 (Background)
//Storyboard Layer 1 (Fail)
//Storyboard Layer 2 (Pass)
//Storyboard Layer 3 (Foreground)
//Storyboard Sound Samples
//Background Colour Transformations
3,100,163,162,255

[TimingPoints]
487,375,4,1,0,65,1,0
14080,-100,4,2,1,65,0,0
19705,-100,4,1,1,45,0,0
20080,-100,4,2,1,65,0,0
25705,-100,4,1,1,45,0,0
26080,-100,4,2,1,65,0,0
30768,-100,4,2,2,55,0,0
30955,-100,4,2,1,65,0,0
31705,-100,4,1,1,55,0,0
32080,-100,4,2,1,65,0,0
37705,-100,4,1,1,45,0,0
38080,-100,4,2,1,65,0,0
43518,-100,4,1,1,55,0,0
44174,-100,4,1,1,65,0,0
49424,-100,4,1,1,65,0,0
73893,-100,4,2,1,5,0,0
74080,-100,4,1,1,65,0,0
89080,-100,4,2,1,65,0,0
94705,-100,4,1,1,45,0,0
95080,-100,4,2,1,65,0,0
100330,-100,4,1,1,55,0,0
101080,-100,4,2,1,65,0,0
106705,-100,4,1,1,55,0,0
107080,-100,4,2,1,65,0,0
112705,-100,4,1,1,55,0,0
113080,-100,4,2,1,65,0,0
118518,-100,4,1,1,55,0,0
119080,-100,4,1,1,65,0,0
148893,-100,4,1,1,5,0,0

[Colours]
Combo1 : 147,0,0
Combo2 : 0,255,255
Combo3 : 255,36,255
Combo4 : 0,128,192

[HitObjects]
180,72,1987,2,2,B|256:28|332:72,1,160,2|8
376,148,2549,1,0
300,192,2737,1,0
212,192,2924,1,0
212,192,3018,1,0
212,192,3112,1,8
136,236,3299,1,0
180,312,3487,6,2,B|256:356|332:312,1,160,2|8
416,280,4049,2,0,B|414:236|443:204,1,80
376,148,4424,1,0
376,148,4518,1,0
376,148,4612,1,8
300,192,4799,1,0
228,116,4987,6,2,B|184:192|228:268,1,160,2|8
320,312,5549,1,0
416,280,5737,1,0
472,192,5924,2,0,B|496:140,2,40,0|0|8
376,148,6299,1,0
300,192,6487,6,2,B|215:214|153:152,1,160,2|8
76,52,7049,2,0,B|119:47|152:72,1,80
240,76,7424,1,2
300,144,7612,1,10
308,164,7705,1,0
312,184,7799,1,0
312,204,7893,1,0
312,223,7987,6,2,B|306:266|330:299,2,80,6|0|8
228,324,8549,1,0
124,300,8737,2,0,B|99:267|104:224,1,80
168,124,9112,1,8
256,44,9299,1,0
168,124,9487,6,2,B|193:157|188:200,2,80,2|0|8
256,256,10049,1,0
325,199,10237,2,0,B|320:156|344:123,1,80,0|0
448,168,10612,1,8
464,56,10799,1,0
352,64,10987,6,2,B|309:58|276:82,2,80,2|0|8
336,160,11549,1,0
320,256,11737,2,0,B|362:261|395:236,2,80,0|0|8
248,320,12299,1,0
155,292,12487,6,2,B|117:302|78:282,2,80,2|0|8
120,192,13049,2,0,B|115:149|83:123,1,80,2|0
184,92,13424,1,2
256,168,13612,1,2
264,188,13705,1,0
276,204,13799,1,0
292,216,13893,1,0
308,228,13987,6,0,B|393:250|455:188,1,160,4|8
416,76,14549,2,0,B|331:54|269:116,1,160,2|0
216,188,15112,1,8
120,176,15299,2,0,B|125:120|182:102|182:102|195:34,1,160,2|0
216,188,15862,6,0,B|172:263|84:264,1,160,8|2
120,176,16424,1,0
176,272,16612,1,8
284,243,16799,2,0,B|316:306|368:222|430:283,1,160,2|0
472,188,17362,6,0,B|410:126|325:148,1,160,8|2
248,108,17924,1,0
216,188,18112,1,8
144,240,18299,6,0,B|119:273|124:316,1,80,4|0
284,244,18674,2,0,B|309:211|304:168,1,80,2|8
400,48,19049,2,0,B|375:81|380:124,1,80,0|0
248,108,19424,2,0,B|215:83|172:88,1,80,2|8
136,204,19799,5,0
136,204,19893,1,0
136,204,19987,2,0,B|198:266|283:244,1,160,4|8
352,192,20549,2,0,B|394:187|427:212,1,80,2|0
364,276,20924,1,0
364,276,21018,1,0
364,276,21112,1,8
484,160,21299,2,0,B|422:98|337:120,1,160,2|0
252,60,21862,5,8
204,152,22049,2,0,B|266:214|351:192,1,160,2|0
431,232,22612,2,0,B|427:274|452:307,1,80,8|2
484,160,22987,2,0,B|488:117|463:84,1,80,0|0
384,44,23362,1,8
336,120,23549,1,0
336,120,23643,1,0
336,120,23737,1,2
283,192,23924,6,2,B|279:234|304:267,1,80,0|8
204,151,24299,2,2,B|208:109|183:76,1,80,4|0
207,239,24674,2,0,B|165:235|132:260,1,80,2|8
280,104,25049,2,0,B|322:108|355:83,2,80,0|0|2
204,152,25612,1,8
208,240,25799,5,0
208,240,25893,1,0
208,240,25987,2,0,B|270:302|355:280,1,160,4|8
308,184,26549,2,0,B|341:158|383:162,1,80,2|0
364,76,26924,1,0
280,104,27112,1,8
204,152,27299,6,0,B|170:177|128:173,1,80,2|0
236,235,27674,2,0,B|261:269|257:311,1,80,2|8
308,184,28049,1,0
280,104,28237,2,0,B|218:42|133:64,1,160,2|10
88,196,28799,1,0
88,196,28893,1,0
88,196,28987,2,0,B|150:258|235:236,1,160,4|8
316,172,29549,5,0
384,248,29737,1,2
304,316,29924,1,0
304,316,30018,1,0
304,316,30112,1,8
236,236,30299,2,0,B|174:174|89:196,2,160,6|0|0
316,172,31237,5,2
260,84,31424,1,0
352,36,31612,1,8
408,124,31799,1,0
408,124,31893,1,0
408,124,31987,6,0,B|429:209|365:271,1,160,4|8
288,308,32549,1,0
236,236,32737,2,0,B|174:174|89:195,1,160,2|8
28,132,33299,1,0
68,52,33487,6,0,B|109:55|143:30,1,80,2|0
243,119,33862,2,0,B|277:95|319:98,1,80,8|0
244,256,34237,2,0,B|210:281|168:277,1,80,2|0
48,208,34612,2,0,B|23:174|27:132,1,80,8|0
68,52,34987,5,4
180,112,35174,1,0
164,232,35362,1,2
48,208,35549,1,0
84,324,35737,1,2
164,232,35924,1,2
164,232,36018,1,2
164,232,36112,1,2
180,112,36299,2,0,B|116:144|88:96|20:116,2,160,4|2|0
260,152,37237,5,2
352,200,37424,1,0
316,300,37612,1,2
224,248,37799,1,0
224,248,37893,1,0
224,248,37987,6,0,B|140:269|78:207,1,160,4|8
172,160,38549,1,0
128,64,38737,2,0,B|212:42|274:104,1,160,2|8
304,196,39299,2,0,B|338:221|379:217,1,80,2|0
172,160,39674,2,0,B|138:135|96:139,2,80,0|10|0
272,104,40237,5,2
384,116,40424,1,0
380,228,40612,1,8
268,216,40799,1,0
268,216,40893,1,0
268,216,40987,6,0,B|231:236|218:276,1,80,6|0
172,160,41362,2,0,B|138:135|96:139,1,80,8|0
168,44,41737,1,2
272,104,41924,1,0
272,104,42018,1,0
272,104,42112,1,8
389,125,42299,6,0,B|353:206|268:216,1,160,6|0
168,284,42862,1,8
52,252,43049,2,0,B|87:171|173:160,1,160,2|0
272,104,43612,1,0
356,156,43799,5,0
356,156,43893,1,0
356,156,43987,2,0,B|381:190|377:231,1,80,4|0
312,312,44362,2,0,B|287:278|291:237,1,80,8|0
220,147,44737,2,0,B|225:106|200:72,1,80
135,152,45112,2,0,B|131:194|156:228,2,80,8|0|0
96,56,45674,5,0
96,56,45768,1,0
96,56,45862,1,8
200,72,46049,2,0,B|284:51|346:113,1,160
448,100,46612,1,8
468,204,46799,1,0
376,248,46987,6,2,B|334:252|300:227,1,80,2|0
211,172,47362,2,0,B|177:147|136:152,2,80,8|0|0
160,264,47924,1,0
160,264,48018,1,0
160,264,48112,1,8
256,296,48299,1,2
412,120,48674,5,2
288,84,48862,1,0
256,208,49049,1,2
380,244,49237,1,2
120,168,49612,5,0
120,168,49705,1,0
120,168,49799,1,0
120,168,49893,1,0
120,168,49987,6,0,B|124:210|99:244,1,80,6|0
256,296,50362,2,0,B|252:254|277:220,1,80,8|0
120,168,50737,2,0,B|124:126|99:92,1,80,2|0
256,40,51112,2,0,B|252:82|277:116,1,80,8|0
432,160,51487,2,0,B|428:202|453:236,2,80,2|0|8
388,343,52049,2,0,B|392:301|368:268,1,80,2|0
256,192,52424,1,2
256,192,52518,1,0
256,192,52612,2,0,B|252:234|277:268,1,80,8|0
180,296,52987,6,0,B|138:300|104:275,1,80,6|0
180,124,53362,2,0,B|222:120|256:145,1,80,8|0
396,224,53737,2,0,B|438:228|472:203,1,80,2|0
396,52,54112,2,0,B|354:48|320:73,1,80,8|0
256,192,54487,2,0,B|222:216|180:212,2,80,2|0|8
396,224,55049,2,0,B|392:266|417:300,1,80,2|0
480,236,55424,1,2
452,152,55612,1,8
364,144,55799,5,0
364,144,55893,1,0
364,144,55987,2,0,B|330:167|288:164,1,80,6|0
220,312,56362,2,0,B|253:288|295:291,1,80,8|0
171,192,56737,2,0,B|130:195|96:171,1,80,2|0
224,72,57112,2,0,B|257:48|299:51,1,80,8|0
440,124,57487,2,0,B|406:147|364:144,1,80,2|0
324,232,57862,5,8
324,232,58049,2,0,B|282:228|248:252,1,80,2|0
172,192,58424,1,0
172,192,58518,1,0
172,192,58612,1,8
252,140,58799,1,0
348,144,58987,6,2,B|369:228|307:290,1,160,2|8
164,240,59549,2,0,B|143:156|205:94,1,160,2|0
300,52,60112,1,8
404,56,60299,5,0
404,56,60393,1,0
404,56,60487,2,0,B|446:60|480:36,2,80,2|0|8
348,144,61049,2,0,B|371:177|367:219,1,80,2|0
308,304,61424,1,2
204,288,61612,1,2
196,268,61705,1,0
184,252,61799,1,0
172,236,61893,1,0
156,224,61987,6,0,B|114:220|80:243,1,80,6|0
52,160,62362,1,8
92,80,62549,1,0
180,72,62737,2,0,B|221:75|255:52,1,80,2|0
344,56,63112,1,8
416,104,63299,1,0
412,192,63487,2,0,B|435:225|431:267,2,80,2|0|8
344,248,64049,5,2
308,328,64237,1,0
220,312,64424,1,2
220,312,64518,1,0
220,312,64612,2,0,B|178:315|144:292,1,80,8|0
88,212,64987,5,6
136,128,65174,1,0
68,60,65362,1,8
136,128,65549,5,0
208,64,65737,1,2
256,148,65924,1,0
304,64,66112,1,8
376,128,66299,1,0
444,60,66487,5,2
376,128,66674,1,0
424,212,66862,1,8
392,304,67049,6,0,B|350:300|316:323,1,80,2|0
256,248,67424,1,2
196,324,67612,1,8
116,272,67799,1,0
116,272,67893,1,0
116,272,67987,6,0,B|119:230|96:196,1,80,6|0
186,47,68362,2,0,B|184:90|207:123,1,80,8|0
292,226,68737,2,0,B|315:261|309:303,1,80,2|0
424,212,69112,2,0,B|400:178|404:136,1,80,8|0
392,48,69487,1,2
316,88,69674,1,0
308,176,69862,1,8
256,248,70049,6,2,B|172:269|110:207,1,160,2|0
116,120,70612,1,8
192,76,70799,1,0
192,76,70893,1,0
192,76,70987,2,0,B|233:72|267:95,1,80,2|0
308,176,71362,1,8
256,248,71549,2,0,B|315:312|400:294,1,160,2|0
408,196,72112,5,8
404,188,72205,1,0
400,180,72299,1,2
396,172,72393,1,0
392,164,72487,1,6
328,52,72674,5,0
464,52,72862,1,0
328,52,73049,6,0,B|260:56|248:104|176:100,1,160,2|2
176,228,73612,2,0,B|246:224|258:272|326:276,1,160,2|0
48,216,82987,6,2,B|110:278|194:257,1,160,2|8
256,192,83549,2,0,B|297:188|331:211,1,80
412,276,83924,1,0
412,276,84018,1,0
412,276,84112,2,0,B|435:242|431:200,1,80,8|0
374,96,84487,6,2,B|289:110|255:191,1,160,2|8
160,156,85049,2,0,B|183:122|179:80,1,80
280,52,85424,2,0,B|312:16,2,40,0|0|8
374,96,85799,1,0
480,108,85987,6,2,B|446:189|361:203,1,160,2|8
288,264,86549,1,0
196,244,86737,1,0
160,156,86924,1,0
160,156,87018,1,0
160,155,87112,2,0,B|126:132|84:136,1,80,8|0
176,52,87487,6,0,B|236:32|276:80|332:52,2,160,2|8|0
160,156,88424,1,2
188,256,88612,1,2
200,272,88705,1,0
216,284,88799,1,0
236,292,88893,1,0
256,296,88987,6,0,B|341:282|374:200,1,160,4|8
492,212,89549,2,0,B|452:184|452:184|428:116|344:124,1,160,2|0
280,68,90112,1,8
192,128,90299,2,0,B|274:191|180:235|271:298,1,200,2|0
288,312,90862,6,0,B|329:308|363:331,1,80,8|0
396,216,91237,2,0,B|354:219|320:196,1,80,2|0
344,120,91612,1,8
280,68,91799,2,0,B|194:81|161:163,1,160,2|0
220,228,92362,5,8
184,324,92549,1,0
184,324,92643,1,0
184,324,92737,1,2
288,312,92924,1,0
328,216,93112,1,8
288,312,93299,6,0,B|373:322|428:253,1,160,4|0
464,152,93862,2,0,B|422:155|388:132,1,80,8|0
328,216,94237,2,0,B|286:212|252:235,1,80,2|0
128,244,94612,1,8
72,140,94799,5,0
72,140,94893,1,0
72,140,94987,2,0,B|126:70|212:81,1,160,4|8
300,132,95549,2,0,B|340:128|370:100,1,80,2|0
448,160,95924,1,0
464,48,96112,1,8
448,160,96299,6,0,B|398:233|312:228,1,160,2|0
224,284,96862,1,8
164,200,97049,2,0,B|213:126|299:131,1,160,2|0
388,172,97612,2,0,B|429:175|463:152,1,80,8|2
460,256,97987,1,0
360,280,98174,1,0
360,280,98268,1,0
360,280,98362,1,10
272,200,98549,5,0
304,92,98737,1,2
388,172,98924,1,0
360,280,99112,1,8
272,200,99299,6,0,B|230:196|196:219,1,80,4|0
304,92,99674,2,0,B|345:95|379:72,1,80,2|8
360,280,100049,2,0,B|318:276|284:299,1,80,2|0
272,200,100424,1,0
404,116,100612,1,0
304,92,100799,5,0
304,92,100893,1,0
304,92,100987,2,0,B|219:70|157:132,1,160,4|8
148,236,101549,1,0
244,280,101737,2,0,B|285:283|319:260,1,80,2|0
424,268,102112,1,8
388,172,102299,2,0,B|303:194|241:132,1,160,2|0
256,36,102862,6,0,B|214:32|180:55,1,80,8|0
132,148,103237,2,0,B|98:171|56:167,1,80,2|0
228,192,103612,2,0,B|261:168|303:172,1,80,8|0
372,272,103987,6,0,B|310:333|225:311,1,160,4|8
120,324,104549,1,0
152,224,104737,2,0,B|155:182|132:148,2,80,2|0|8
272,236,105299,2,0,B|293:151|232:89,1,160,4|0
136,48,105862,5,8
44,92,106049,1,2
52,196,106237,1,0
152,224,106424,2,0,B|193:227|227:204,1,80,0|8
256,104,106799,1,0
256,104,106893,1,0
256,104,106987,6,0,B|317:42|402:64,1,160,4|8
440,136,107549,1,0
488,200,107737,1,2
332,328,108112,6,0,B|298:350|255:347,1,80,8|0
328,200,108487,2,0,B|361:176|403:180,1,80,2|0
176,240,108862,2,0,B|142:262|99:259,1,80,8|0
172,112,109237,2,0,B|205:88|247:92,1,80,2|0
340,136,109612,1,8
396,224,109799,1,0
396,224,109893,1,0
396,224,109987,2,0,B|437:227|471:204,2,80,4|0|8
356,328,110549,5,2
260,272,110737,1,0
300,168,110924,1,2
396,224,111112,1,8
416,112,111299,2,0,B|364:116|368:60|268:60,1,160,4|0
184,132,111862,5,2
152,236,112049,1,0
260,272,112237,1,2
300,168,112424,1,0
268,60,112612,1,8
184,132,112799,5,0
184,132,112893,1,0
184,132,112987,2,0,B|260:272,1,160,4|8
376,308,113549,1,0
376,308,113737,2,0,B|299:167,1,160,2|8
356,80,114299,1,2
256,56,114487,1,0
184,132,114674,2,0,B|142:135|108:112,2,80,2|8|0
120,216,115237,5,2
164,308,115424,1,0
164,308,115518,1,0
164,308,115612,1,8
260,272,115799,1,0
323,191,115987,2,0,B|357:168|399:172,1,80,4|0
256,112,116362,2,0,B|222:135|180:131,1,80,8|0
260,272,116737,2,0,B|301:268|335:291,2,80,2|0|8
164,308,117299,5,4
164,308,117393,1,0
164,308,117487,1,0
96,228,117674,1,0
128,128,117862,2,0,B|211:107|273:169,1,160,8|0
260,272,118424,1,0
348,324,118612,1,0
416,244,118799,5,0
416,244,118893,1,0
416,244,118987,2,0,B|412:202|435:168,1,80,4|0
380,80,119362,2,0,B|338:83|304:60,1,80,8|0
220,124,119737,2,0,B|223:165|200:199,1,80
256,287,120112,2,0,B|297:284|331:307,2,80,8|0|0
304,196,120674,5,0
304,196,120768,1,0
304,196,120862,1,8
200,200,121049,2,0,B|158:203|124:180,1,80
72,260,121424,1,0
160,300,121612,1,8
256,288,121799,1,0
304,196,121987,6,0,B|345:199|379:176,1,80,6|0
296,68,122362,2,0,B|254:64|220:87,1,80,8|0
168,176,122737,1,0
256,208,122924,2,0,B|256:288,2,80,0|8|2
100,120,123674,5,0
224,84,123862,1,2
256,208,124049,1,0
132,244,124237,1,2
352,252,124612,5,0
352,252,124705,1,0
352,252,124799,1,0
352,252,124893,1,0
352,252,124987,6,0,B|394:256|428:233,1,80,6|0
388,96,125362,2,0,B|346:92|312:115,1,80,8|0
192,196,125737,2,0,B|150:200|116:177,1,80,2|0
156,40,126112,2,0,B|198:36|232:59,1,80,8|0
336,160,126487,2,0,B|370:136|412:140,1,80,2|0
452,277,126862,2,0,B|417:300|375:296,1,80,8|2
280,336,127237,1,0
192,280,127424,1,2
192,280,127518,1,0
192,280,127612,2,0,B|168:245|172:203,1,80,8|0
176,84,127987,5,6
260,112,128174,1,0
296,192,128362,2,0,B|337:195|372:172,1,80,8|0
456,188,128737,1,2
452,276,128924,1,0
372,308,129112,2,0,B|337:284|295:288,1,80,8|0
200,328,129487,5,2
196,224,129674,1,0
296,192,129862,1,8
312,96,130049,2,0,B|270:92|235:115,1,80,2|0
280,284,130424,2,0,B|322:287|356:264,1,80,2|8
296,192,130799,5,0
296,192,130893,1,0
296,192,130987,2,0,B|200:192,1,80,6|0
64,116,131362,2,0,B|144:116,1,80,8|0
224,52,131737,5,2
320,92,131924,1,0
296,192,132112,1,8
200,152,132299,1,0
132,232,132487,2,0,B|108:268|56:288,2,80,2|0|8
180,324,133049,6,0,B|232:344|280:304|340:324,1,160,2|0
350,238,133612,1,8
460,292,133799,1,0
350,238,133987,6,2,B|373:153|312:92,1,160,2|8
161,145,134549,2,0,B|139:231|200:292,1,160,2|0
256,192,135112,1,8
228,92,135299,5,2
228,92,135393,1,0
228,92,135487,2,0,B|200:61|158:56,2,80,0|0|8
256,192,136049,1,2
308,284,136237,1,0
204,284,136424,1,2
140,204,136612,1,2
140,184,136705,1,0
140,164,136799,1,0
140,144,136893,1,0
140,124,136987,6,0,B|125:84|138:45,1,80,6|0
257,113,137362,2,0,B|270:152|256:192,1,80,8|0
367,255,137737,2,0,B|353:295|366:334,1,80,2|0
476,188,138112,2,0,B|490:148|477:109,1,80,8|0
364,36,138487,2,0,B|350:74|365:114,1,80,2|0
316,188,138862,1,8
316,188,139049,2,0,B|281:212|240:209,1,80,2|0
212,92,139424,1,2
212,92,139518,1,0
212,92,139612,2,0,B|246:67|287:70,1,80,8|0
384,112,139987,5,6
316,188,140174,1,0
420,208,140362,1,8
344,280,140549,1,0
256,340,140737,1,2
168,280,140924,5,0
196,188,141112,1,8
128,112,141299,1,0
92,208,141487,1,2
256,112,141674,1,0
256,252,141862,1,8
332,152,142049,2,0,B|346:112|333:73,1,80,2|0
180,72,142424,2,0,B|167:111|182:151,1,80,2|8
256,252,142799,5,0
256,252,142893,1,0
256,252,142987,2,0,B|297:248|332:271,1,80,6|0
420,212,143362,1,8
332,152,143549,5,0
332,152,143643,1,0
332,152,143737,2,0,B|297:129|255:132,1,80,2|0
152,152,144112,1,8
180,52,144299,5,0
180,52,144393,1,0
180,52,144487,2,0,B|214:29|256:32,1,80,2|0
360,52,144862,1,8
332,152,145049,2,0,B|270:213|184:190,1,160,2|0
88,232,145612,1,8
112,332,145799,1,0
204,284,145987,6,2,B|289:306|351:245,1,160,2|8
308,100,146549,2,0,B|220:81|162:145,1,160,2|0
256,192,147112,5,0
260,200,147205,1,0
264,208,147299,1,2
268,216,147393,1,0
272,224,147487,1,6
324,344,147674,5,0
408,236,147862,1,0
324,344,148049,6,0,B|264:368|224:320|164:344,1,160,2|2
68,304,148612,2,0,B|83:238|137:218|200:252,1,160,2|0
