osu file format v9

[General]
AudioFilename: 02.mp3
AudioLeadIn: 0
PreviewTime: 48464
Countdown: 0
SampleSet: Normal
StackLeniency: 0.7
Mode: 0
LetterboxInBreaks: 1

[Editor]
Bookmarks: 101714
DistanceSpacing: 1.2
BeatDivisor: 4
GridSize: 4

[Metadata]
Title:Emukko Kyun Kyun
Artist:iyuna
Creator:cRyo[iceeicee]
Version:Hard
Source:Mkko Sisters
Tags:lost rarities M3-28 Apricot Cherry game eroge hentai KayeSara

[Difficulty]
HPDrainRate:6
CircleSize:4
OverallDifficulty:6
ApproachRate:7
SliderMultiplier:1.4
SliderTickRate:2

[Events]
//Background and Video events
0,0,"Bg.jpg"
//Break Periods
2,76987,82087
//Storyboard Layer 0 (Background)
//Storyboard Layer 1 (Fail)
//Storyboard Layer 2 (Pass)
//Storyboard Layer 3 (Foreground)
//Storyboard Sound Samples
//Background Colour Transformations
3,100,163,162,255

[TimingPoints]
487,375,4,1,0,65,1,0
14080,-100,4,2,1,65,0,0
18768,-100,4,2,2,45,0,0
18955,-100,4,2,1,65,0,0
19705,-100,4,1,1,45,0,0
20080,-100,4,2,1,65,0,0
25705,-100,4,1,1,45,0,0
26080,-100,4,2,1,65,0,0
30768,-100,4,2,2,45,0,0
30955,-100,4,2,1,65,0,0
31705,-100,4,1,1,45,0,0
32080,-100,4,2,1,65,0,0
37705,-100,4,1,1,45,0,0
38080,-100,4,2,1,65,0,0
43518,-100,4,1,1,55,0,0
44080,-100,4,1,1,65,0,0
49424,-100,4,1,1,65,0,0
89080,-100,4,2,1,65,0,0
94705,-100,4,1,1,45,0,0
95080,-100,4,2,1,65,0,0
99768,-100,4,2,2,55,0,0
99955,-100,4,2,1,65,0,0
100330,-100,4,1,1,55,0,0
100917,-100,4,1,1,45,0,0
101058,-100,4,2,1,65,0,0
102768,-100,4,2,2,45,0,0
102955,-100,4,2,1,65,0,0
105768,-100,4,2,2,45,0,0
105955,-100,4,2,1,65,0,0
106518,-100,4,1,1,55,0,0
106987,-100,4,1,1,45,0,0
107058,-100,4,2,1,65,0,0
111768,-100,4,2,2,55,0,0
111955,-100,4,2,1,65,0,0
112612,-100,4,1,1,55,0,0
112987,-100,4,1,1,45,0,0
113080,-100,4,2,1,65,0,0
118518,-100,4,1,1,55,0,0
119080,-100,4,1,1,65,0,0

[Colours]
Combo1 : 147,0,0
Combo2 : 0,255,255
Combo3 : 255,36,255
Combo4 : 0,128,192

[HitObjects]
72,220,1987,2,2,B|130:264|203:255,1,140,2|8
260,192,2549,1,0
344,172,2737,1,0
408,228,2924,2,0,B|436:280,2,35,0|0|8
344,172,3299,1,0
428,112,3487,6,2,B|369:67|296:76,1,140,2|8
220,112,4049,1,0
136,132,4237,1,0
72,76,4424,2,0,B|44:24,2,35,0|0|8
136,132,4799,1,0
48,192,4987,6,2,B|106:236|179:227,1,140,2|8
256,192,5549,2,0,B|294:185|321:209,1,70
256,276,5924,2,0,B|240:336,2,35,0|0|8
180,228,6299,1,0
92,168,6487,6,2,B|150:123|223:132,1,140,2|8
308,168,7049,2,0,B|334:191|373:185,1,70
344,264,7424,1,2
256,276,7612,1,8
168,264,7799,5,0
168,264,7893,1,0
168,264,7987,2,2,B|123:205|132:132,1,140,6|8
204,92,8549,2,0,B|227:65|220:26,1,70
308,116,8924,2,0,B|285:142|291:181,2,70,0|8|0
412,108,9487,6,2,B|420:180|375:239,1,140,2|8
308,292,10049,2,0,B|284:318|291:357,1,70
204,268,10424,2,0,B|227:242|221:203,2,70,0|8|0
100,276,10987,6,2,B|91:203|136:144,1,140,2|8
220,80,11549,2,0,B|291:79,1,70
336,148,11924,1,0
256,176,12112,1,8
176,148,12299,1,0
188,252,12487,6,2,B|256:280|324:252,1,140,2|8
416,240,13049,2,0,B|416:168,1,70
336,124,13424,1,2
256,100,13612,1,2
176,124,13799,5,0
176,124,13893,1,0
176,124,13987,2,0,B|147:192|175:260,1,140,4|8
256,192,14549,2,0,B|308:180|344:208|396:192,1,140,2|0
456,248,15112,1,8
396,308,15299,2,0,B|345:323|309:295|257:307,1,140,2|0
152,304,15862,6,0,B|184:272|188:244|188:244|184:216|144:172,2,140,8|2|8
48,324,16799,2,0,B|20:256|48:187,1,140,2|0
104,124,17362,1,8
104,124,17737,5,2
172,184,17924,1,0
256,220,18112,1,8
256,220,18299,2,0,B|256:372,2,140,4|0|0
256,220,19237,1,2
340,184,19424,1,0
408,124,19612,1,8
324,64,19799,5,0
324,64,19893,1,0
324,64,19987,2,0,B|255:36|188:64,1,140,4|8
256,144,20549,2,0,B|256:216,1,70,2|0
256,300,20924,1,0
184,340,21112,1,8
100,332,21299,2,0,B|72:264|100:195,1,140,2|0
88,104,21862,5,8
160,48,22049,2,0,B|227:76|255:144,1,140,2|0
296,232,22612,2,0,B|364:247,1,70,8|2
216,232,22987,2,0,B|148:240,1,70
172,320,23362,5,8
256,336,23549,1,0
256,336,23643,1,0
256,336,23737,1,2
340,320,23924,1,0
256,256,24112,1,8
200,168,24299,6,0,B|183:131|199:100,1,70,4|0
312,100,24674,2,0,B|328:136|312:167,1,70,2|8
256,256,25049,1,0
187,335,25237,2,0,B|255:363|324:335,1,140,2|8
256,256,25799,5,0
256,256,25893,1,0
256,255,25987,2,0,B|189:228|120:256,1,140,4|8
56,192,26549,1,0
119,127,26737,2,0,B|189:156|256:128,2,140,2|8|0
56,192,27674,5,2
124,244,27862,1,8
188,192,28049,1,0
188,192,28237,2,0,B|240:180|276:204|328:192,1,140,2|8
412,200,28799,5,0
392,284,28987,2,0,B|324:311|255:283,1,140,4|8
164,276,29549,1,0
204,192,29737,2,0,B|231:124|203:55,1,140,2|8
308,56,30299,2,0,B|280:125|308:193,2,140,4|0|0
388,36,31237,5,2
464,72,31424,1,0
472,156,31612,1,8
396,192,31799,1,0
396,192,31893,1,0
396,192,31987,2,0,B|344:203|308:179|256:191,1,140,4|8
168,192,32549,1,0
88,124,32737,6,0,B|59:193|87:260,1,140,2|8
188,340,33487,2,0,B|255:367|324:339,1,140,2|8
424,260,34237,2,0,B|452:193|424:124,1,140,2|8
216,232,34987,6,0,B|152:300,1,70,4|0
296,232,35362,2,0,B|360:300,1,70,8|0
336,148,35737,1,2
256,120,35924,1,2
176,148,36112,1,0
187,43,36299,2,0,B|255:16|324:44,2,140,4|0|0
176,148,37237,5,2
256,176,37424,1,0
336,148,37612,1,8
324,252,37799,1,0
324,252,37893,1,0
324,252,37987,2,0,B|254:279|187:252,1,140,4|8
128,192,38549,5,0
48,124,38737,2,0,B|20:193|47:260,1,140,2|8
119,300,39299,2,0,B|169:349,2,70,2|0|0
128,192,39862,2,0,B|178:242,1,70,8|0
256,296,40237,5,2
335,241,40424,1,0
256,212,40612,1,8
177,241,40799,1,0
188,136,40987,2,0,B|255:108|324:136,2,140,4|8|0
256,212,41924,1,2
256,212,42299,6,0,B|228:281|255:348,1,140,4|0
352,264,42862,2,0,B|379:194|352:127,1,140,8|0
84,116,43612,5,0
124,192,43799,1,0
124,192,43893,1,0
124,192,43987,2,0,B|112:228|124:268,1,70,4|0
208,272,44362,2,0,B|191:303|207:339,1,70,8|0
312,340,44737,2,0,B|328:308|312:272,1,70
256,192,45112,2,0,B|256:116,2,70,8|0|0
336,216,45674,5,0
388,284,45862,1,8
324,340,46049,2,0,B|257:366|187:339,1,140,0|0
124,284,46612,1,8
176,216,46799,1,0
256,192,46987,2,0,B|256:48,2,140,6|8|0
172,264,47924,5,0
256,284,48112,1,8
340,264,48299,1,2
138,192,48674,5,2
214,160,48862,1,0
298,160,49049,1,2
374,192,49237,1,0
256,68,49612,5,0
256,68,49705,1,0
256,68,49799,1,0
256,68,49893,1,0
256,68,49987,6,0,B|256:152,1,70,6|0
331,195,50362,2,0,B|340:228|331:264,1,70,8|0
292,348,50737,2,0,B|256:356|224:347,1,70,2|0
180,264,51112,2,0,B|172:228|180:196,1,70,8|0
256,140,51487,2,0,B|256:64,2,70,2|0|8
324,220,52049,2,0,B|257:246|188:220,1,140,2|2
156,128,52612,1,8
224,56,52799,5,0
224,56,52893,1,0
224,56,52987,2,0,B|258:41|292:57,1,70,6|0
380,112,53362,2,0,B|364:145|379:179,1,70,8|0
288,232,53737,2,0,B|253:248|220:232,1,70,2|0
132,179,54112,2,0,B|147:145|132:112,1,70,8|0
256,140,54487,2,0,B|289:124|323:140,2,70,2|0|8
288,232,55049,2,0,B|357:258|424:232,1,140,2|2
476,308,55612,1,8
388,336,55799,5,0
388,336,55893,1,0
388,336,55987,2,0,B|353:351|320:336,2,70,6|0|8
424,232,56549,1,0
316,232,56737,2,0,B|331:197|316:164,2,70,2|0|8
256,300,57299,1,0
196,232,57487,2,0,B|180:197|195:164,2,70,2|0|8
184,336,58049,6,2,B|253:362|320:336,1,140,2|0
392,288,58612,1,8
384,204,58799,1,0
308,164,58987,2,2,B|281:97|308:27,1,140,2|8
203,27,59549,2,0,B|229:96|203:163,1,140,2|0
256,220,60112,1,8
256,296,60299,5,0
256,296,60393,1,0
256,296,60487,2,0,B|256:366,2,70,2|0|8
324,196,61049,2,0,B|257:169|187:196,1,140,2|2
120,256,61612,2,0,B|100:288,3,35,2|0|0|0
120,256,61987,6,0,B|84:196,1,70,6|0
152,132,62362,2,0,B|123:68,1,70,8|0
220,192,62737,2,0,B|316:192,1,70,2|0
360,132,63112,2,0,B|388:68,1,70,8|0
428,195,63487,6,0,B|392:256,2,70,2|0|8
324,192,64049,2,0,B|272:203|236:179|184:191,1,140,2|2
116,140,64612,1,8
147,60,64799,5,0
147,60,64893,1,0
147,60,64987,2,0,B|179:75|214:59,1,70,6|0
297,60,65362,1,8
356,120,65549,1,0
324,192,65737,2,0,B|308:224|324:259,1,70,2|0
299,341,66112,5,8
215,341,66299,1,0
187,259,66487,2,0,B|203:224|188:192,1,70,2|0
136,124,66862,1,8
187,59,67049,2,0,B|257:33|324:60,1,140,2|2
376,124,67612,1,8
328,192,67799,5,0
328,192,67893,1,0
328,192,67987,2,0,B|256:192,1,70,6|0
196,132,68362,2,0,B|158:138|130:114,1,70,8|0
96,192,68737,2,0,B|26:192,1,70,2|0
130,269,69112,2,0,B|158:245|195:251,1,70,8|0
256,192,69487,2,0,B|356:192,2,70,2|0|8
180,120,70049,6,2,B|153:189|180:256,1,140,2|0
180,256,70612,1,8
256,292,70799,1,0
331,256,70987,2,2,B|358:189|332:120,1,140,2|8
324,36,71549,2,0,B|254:9|187:36,1,140,2|0
132,128,72112,5,8
214,153,72299,1,2
214,153,72393,1,0
214,153,72487,1,2
298,153,72674,1,0
380,128,72862,1,0
364,212,73049,5,2
148,212,73424,1,2
148,212,73612,1,2
256,52,82987,6,2,B|256:192,1,140,2|8
176,220,83549,1,0
214,296,83737,1,0
298,296,83924,2,0,B|336:344,2,35,0|0|8
336,220,84299,1,0
324,128,84487,6,2,B|254:101|187:128,1,140,2|8
108,96,85049,1,0
44,150,85237,1,0
44,234,85424,2,0,B|0:234,2,35,0|0|8
108,288,85799,1,0
196,260,85987,6,2,B|169:193|195:123,1,140,2|8
276,96,86549,1,0
340,150,86737,1,0
340,234,86924,2,0,B|375:234,2,35,0|0|8
276,288,87299,1,0
196,260,87487,6,2,B|222:193|196:123,1,140,2|8
292,104,88049,2,0,B|285:65|308:38,1,70
388,64,88424,1,2
428,160,88612,1,2
428,160,88705,1,0
428,160,88799,1,0
428,160,88893,1,0
428,160,88987,6,0,B|453:230|427:297,1,140,4|8
323,296,89549,2,0,B|298:226|324:160,1,140,2|0
256,112,90112,1,8
188,159,90299,2,0,B|213:226|188:296,1,140,2|0
256,348,90862,1,8
256,348,91237,5,2
324,296,91424,1,0
256,248,91612,1,8
189,296,91799,2,0,B|119:321|52:295,1,140,2|0
52,192,92362,2,0,B|121:166|188:192,1,140,8|2
256,140,92924,5,0
328,184,93112,1,8
300,260,93299,2,0,B|312:292|356:324,2,70,4|0|0
212,260,93862,2,0,B|186:190|212:123,1,140,8|0
300,123,94424,2,0,B|312:92|343:69,1,70,2|8
348,192,94799,5,0
348,192,94893,1,0
348,192,94987,2,0,B|399:180|435:204|487:193,2,140,4|8|2
324,112,95924,1,0
256,64,96112,1,8
188,112,96299,2,0,B|162:178|187:248,1,140,2|0
256,300,96862,5,8
324,248,97049,2,0,B|349:178|324:112,1,140,2|0
256,64,97612,1,8
256,64,97799,2,0,B|186:38|119:64,1,140,2|0
184,136,98362,1,8
184,136,98737,5,2
256,177,98924,1,0
256,263,99112,1,8
180,220,99299,2,0,B|128:208|92:232|40:221,2,140,4|0|0
256,264,100237,5,2
332,220,100424,1,0
348,136,100612,1,0
324,56,100799,1,0
324,56,100893,1,0
324,56,100987,6,0,B|254:30|187:56,1,140,4|8
164,136,101549,1,0
176,220,101737,2,0,B|144:236|116:280,2,70,2|0|8
256,192,102299,2,0,B|308:204|344:180|396:191,2,140,2|2|0
188,244,103237,2,0,B|121:269|51:243,1,140,2|8
52,140,103799,5,0
52,140,103893,1,0
52,140,103987,2,0,B|118:114|188:140,1,140,4|8
256,192,104549,1,0
336,124,104737,2,0,B|361:193|336:260,1,140,2|8
256,192,105299,2,0,B|186:217|119:192,2,140,4|0|0
256,192,106237,1,2
392,192,106612,5,0
312,124,106799,1,0
312,124,106893,1,0
312,124,106987,2,0,B|286:193|311:260,1,140,4|8
256,324,107549,1,0
200,260,107737,2,0,B|225:193|200:124,1,140,2|8
328,68,108487,6,0,B|333:152|418:158,1,140,2|8
183,315,109237,2,0,B|178:231|96:225,1,140,2|8
216,152,109987,6,0,B|152:84,1,70,4|0
296,152,110362,2,0,B|360:84,1,70,8|0
336,236,110737,1,2
256,264,110924,1,0
176,236,111112,1,8
187,341,111299,2,0,B|255:368|324:340,2,140,4|2|0
176,236,112237,5,2
256,264,112424,1,0
336,236,112612,1,0
324,132,112799,1,0
324,132,112893,1,0
324,132,112987,2,0,B|257:106|187:132,1,140,4|8
128,192,113549,5,0
187,251,113737,2,0,B|257:277|324:252,1,140,2|8
428,252,114299,2,0,B|482:190|426:126,1,140,2|0
426,126,114862,1,8
332,232,115237,5,2
305,328,115424,1,0
207,328,115612,1,8
180,232,115799,1,0
256,172,115987,2,0,B|268:120|244:84|255:32,2,140,4|8|0
256,172,116924,1,2
204,344,117299,6,0,B|178:274|203:207,1,140,4|0
307,207,117862,2,0,B|333:277|308:344,1,140,8|0
203,208,118612,5,0
124,164,118799,1,0
124,164,118893,1,0
123,164,118987,2,0,B|85:153|70:120,1,70,4|0
194,120,119362,2,0,B|187:81|210:54,1,70,8|0
302,55,119737,2,0,B|324:81|317:120,1,70
388,164,120112,2,0,B|427:153|441:120,2,70,8|0|0
304,192,120674,5,0
372,252,120862,2,0,B|410:262|424:294,2,70,8|0|0
308,320,121424,2,0,B|269:309|255:277,1,70,0|8
176,236,121799,1,0
256,192,121987,2,0,B|268:140|244:104|255:52,2,140,6|8|0
336,236,122924,5,0
256,284,123112,1,0
176,236,123299,1,2
138,88,123674,5,0
214,56,123862,1,2
298,56,124049,1,0
374,88,124237,1,2
256,192,124612,6,0,B|256:244,3,35
256,192,124987,6,0,B|256:124,1,70,6|0
192,68,125362,2,0,B|177:36|139:25,1,70,8|0
112,108,125737,2,0,B|126:139|164:150,1,70,2|0
164,233,126112,2,0,B|126:244|111:275,1,70,8|0
139,358,126487,2,0,B|177:347|192:316,1,70,2|0
256,260,126862,1,8
336,328,127049,2,0,B|360:261|334:191,1,140,2|2
256,160,127612,1,8
192,104,127799,5,0
192,104,127893,1,0
192,104,127987,2,0,B|165:81|126:88,2,70,6|0|8
256,48,128549,1,0
320,104,128737,2,0,B|347:81|386:88,2,70,2|0|8
256,160,129299,1,0
256,244,129487,2,0,B|256:316,2,70,2|0|8
324,164,130049,2,0,B|257:139|187:165,1,140,2|2
164,244,130612,1,8
220,304,130799,5,0
220,304,130893,1,0
220,304,130987,2,0,B|255:321|289:304,1,70,6|0
372,308,131362,1,8
416,234,131549,1,0
416,150,131737,2,0,B|441:120|433:83,1,70,2|0
352,96,132112,1,8
296,160,132299,1,0
256,84,132487,2,0,B|256:-4,2,70,2|0|8
160,124,133049,6,2,B|135:190|161:260,1,140,2|0
256,234,133612,1,8
256,148,133799,1,0
328,192,133987,2,0,B|380:204|416:180|468:191,2,140,2|8|0
184,192,135112,5,8
256,148,135299,1,0
256,148,135393,1,0
256,148,135487,2,0,B|256:64,2,70,2|0|8
324,240,136049,2,0,B|254:265|187:241,1,140,2|2
144,168,136612,1,2
136,156,136705,1,0
128,144,136799,1,0
124,132,136893,1,0
121,120,136987,6,0,B|82:109|68:77,1,70,6|0
157,52,137362,2,0,B|195:62|209:94,1,70,8|0
302,94,137737,2,0,B|316:62|354:51,1,70,2|0
442,76,138112,2,0,B|428:108|390:119,1,70,8|0
332,192,138487,2,0,B|342:230|374:244,2,70,2|0|8
324,100,139049,2,0,B|254:74|187:98,1,140,2|2
180,192,139612,1,8
256,240,139799,5,0
256,240,139893,1,0
256,240,139987,2,0,B|256:312,1,70,6|0
168,332,140362,1,8
116,256,140549,1,0
180,192,140737,2,0,B|163:159|180:124,1,70,2|0
256,68,141112,5,8
256,68,141299,1,0
331,124,141487,2,0,B|348:159|332:192,2,70,2|0|8
436,124,142049,2,0,B|411:190|437:260,1,140,2|2
348,244,142612,1,8
300,320,142799,5,0
300,320,142893,1,0
300,320,142987,2,0,B|327:344|365:336,2,70,6|0|8
256,240,143549,1,0
212,320,143737,2,0,B|184:344|146:336,2,70,2|0|8
164,244,144299,1,0
173,155,144487,2,0,B|135:147|108:172,2,70,2|0|8
256,192,145049,6,2,B|308:204|344:180|396:191,1,140,2|0
460,256,145612,1,8
412,332,145799,1,0
322,336,145987,2,2,B|255:360|186:335,1,140,2|8
187,230,146549,2,0,B|254:206|324:232,1,140,2|0
380,144,147112,5,8
298,119,147299,1,2
298,119,147393,1,0
298,119,147487,1,2
214,119,147674,1,0
132,144,147862,1,0
187,230,148049,6,2,B|256:206|325:230,1,140,2|0
256,312,148612,1,2
