osu file format v9

[General]
AudioFilename: 02.mp3
AudioLeadIn: 0
PreviewTime: 48464
Countdown: 0
SampleSet: Normal
StackLeniency: 0.7
Mode: 0
LetterboxInBreaks: 1

[Editor]
DistanceSpacing: 1.2
BeatDivisor: 4
GridSize: 4

[Metadata]
Title:Emukko Kyun Kyun
Artist:iyuna
Creator:cRyo[iceeicee]
Version:Easy
Source:Mkko Sisters
Tags:lost rarities M3-28 Apricot Cherry game eroge hentai KayeSara

[Difficulty]
HPDrainRate:1
CircleSize:3
OverallDifficulty:1
ApproachRate:3
SliderMultiplier:0.7
SliderTickRate:1

[Events]
//Background and Video events
0,0,"Bg.jpg"
//Break Periods
2,76987,81547
//Storyboard Layer 0 (Background)
//Storyboard Layer 1 (Fail)
//Storyboard Layer 2 (Pass)
//Storyboard Layer 3 (Foreground)
//Storyboard Sound Samples
//Background Colour Transformations
3,100,163,162,255

[TimingPoints]
487,375,4,1,0,65,1,0
14058,-100,4,2,1,65,0,0
19893,-100,4,1,1,35,0,0
20080,-100,4,2,1,65,0,0
25893,-100,4,1,1,45,0,0
26080,-100,4,2,1,65,0,0
31893,-100,4,1,1,45,0,0
32080,-100,4,2,1,65,0,0
37893,-100,4,1,1,45,0,0
38080,-100,4,2,1,65,0,0
43893,-100,4,1,1,55,0,0
44080,-100,4,1,1,65,0,0
49424,-100,4,1,1,65,0,0
88893,-100,4,1,1,45,0,0
89080,-100,4,2,1,65,0,0
94893,-100,4,1,1,45,0,0
95080,-100,4,2,1,65,0,0
100893,-100,4,1,1,45,0,0
101080,-100,4,2,1,65,0,0
106893,-100,4,1,1,45,0,0
107080,-100,4,2,1,65,0,0
112893,-100,4,1,1,45,0,0
113080,-100,4,2,1,65,0,0
118518,-100,4,1,1,65,0,0

[Colours]
Combo1 : 147,0,0
Combo2 : 0,255,255
Combo3 : 255,36,255
Combo4 : 0,128,192

[HitObjects]
156,148,1987,2,0,B|220:136|256:116|256:116|292:136|356:148,1,210,6|8
356,236,3487,2,0,B|292:248|256:268|256:268|220:248|156:236,1,210,2|8
88,184,4987,6,0,B|128:128|128:128|192:136|216:24,1,210,2|8
300,32,6487,2,0,B|321:134|385:126|385:126|425:182,1,210,2|8
392,260,7987,6,0,B|392:332,2,70,2|0|0
340,192,9112,1,8
256,176,9487,6,0,B|256:92,2,70,2|0|0
172,192,10612,1,8
88,192,10987,6,0,B|16:192,2,70,2|0|0
128,120,12112,1,8
188,60,12487,6,0,B|258:60,2,70,2|0|0
128,120,13612,1,2
128,204,13987,6,0,B|212:220|256:260|256:260|300:220|384:204,1,280,4|2
328,76,16237,1,0
184,76,16987,1,2
256,196,17737,2,0,B|256:340,2,140,0|4|2
324,76,19987,6,0,B|256:40|188:76,1,140,4|2
188,216,21487,2,0,B|254:251|322:215,1,140,0|2
456,256,22987,2,0,B|492:188|456:120,1,140,0|2
324,80,24487,1,4
188,80,25237,1,2
188,220,25987,6,0,B|256:256|324:220,1,140,4|2
256,100,27487,2,0,B|322:64|390:100,1,140,0|2
256,100,28987,6,0,B|188:64|120:100,1,140,4|2
188,220,30487,2,0,B|256:256|324:220,1,140,0|2
384,96,31987,5,4
256,152,32737,1,2
128,96,33487,1,0
256,40,34237,1,2
256,180,34987,6,0,B|256:252,3,70,4|0|2|0
256,320,36487,1,4
384,260,37237,1,2
324,132,37987,6,0,B|256:96|188:132,1,140,4|2
256,260,39487,2,0,B|324:296|392:260,1,140,0|2
376,120,40987,5,4
256,192,41737,1,2
136,120,42487,1,4
256,48,43237,1,2
256,192,43987,6,0,B|256:340,2,140,4|8|0
256,52,46237,1,8
256,192,46987,2,0,B|96:192,2,140,2|8|0
396,192,49237,1,2
320,312,49987,6,0,B|253:347|185:311,1,140,6|0
256,192,51487,2,0,B|152:192,1,105,2|2
44,192,52612,1,2
44,124,52987,6,0,B|98:69|171:83,1,140,6|0
256,192,54487,2,0,B|388:192,1,105,2|2
468,192,55612,1,2
460,124,55987,6,0,B|406:67|333:78,1,140,6|0
256,192,57487,1,2
336,256,58049,6,0,B|256:296|256:296|176:256,1,175,2|2
256,140,59737,1,0
124,192,60487,2,0,B|0:192,2,105,2|2|2
192,192,61987,6,0,B|240:172|280:208|332:192,1,140,6|0
460,244,63487,2,0,B|487:192|459:144,1,105,2|2
368,192,64612,1,2
300,192,64987,6,0,B|249:207|209:171|161:191,1,140,6|0
204,324,66487,2,0,B|255:351|303:323,1,105,2|2
256,232,67612,1,2
316,192,67987,6,0,B|400:228|436:132,1,140,6|0
308,88,69487,2,0,B|256:60|208:88,1,105,2|2
184,192,70612,2,0,B|44:192,2,140
256,192,72487,5,2
324,192,72862,2,0,B|468:192,1,140,2|0
160,151,82987,6,0,B|224:111|256:147|256:147|288:111|352:151,1,210,2|8
351,233,84487,6,0,B|288:273|256:237|256:237|224:273|160:233,1,210,2|8
96,178,85987,6,0,B|64:112|149:28|214:59,1,210,2|8
298,59,87487,6,0,B|363:27|448:111|416:177,1,210,2|8
356,228,88987,6,0,B|358:337,2,105,4|0|0
308,176,90487,1,2
256,44,91237,1,0
204,176,91987,1,2
256,308,92737,6,0,B|188:348|124:308,1,140,0|4
44,192,94237,1,2
123,76,94987,6,0,B|188:36|256:76,1,140,4|2
188,200,96487,2,0,B|252:240|320:200,1,140,0|2
256,76,97987,2,0,B|320:35|388:75,1,140,0|2
328,204,99487,1,4
184,204,100237,1,2
192,64,100987,6,0,B|256:23|324:63,1,140,4|2
320,204,102487,2,0,B|255:244|187:204,1,140,0|2
164,344,103987,2,0,B|224:304|224:304|256:312|256:312|288:304|288:304|348:344,2,210,4|2|0
256,236,106987,5,4
144,152,107737,1,2
256,68,108487,1,0
368,152,109237,1,2
332,288,109987,2,0,B|268:280|268:280|256:300|256:300|240:280|240:280|180:288,2,175,4|2|0
322,148,112612,5,0
322,78,112987,2,0,B|256:39|190:79,1,140,4|2
190,218,114487,2,0,B|257:257|323:218,1,140,4|2
256,96,115987,5,4
190,218,116737,1,2
256,344,117487,1,4
322,218,118237,1,2
320,80,118987,6,0,B|251:39|187:80,1,140,4|8
256,204,120487,2,0,B|191:244|123:204,1,140,0|8
184,332,121987,5,6
328,332,122737,1,8
256,212,123487,1,0
116,192,124237,2,0,B|68:192,2,35,2|0|0
188,192,124987,6,0,B|236:180|276:208|328:192,1,140,6|0
456,244,126487,2,0,B|483:192|455:144,1,105,2|2
364,192,127612,1,2
296,192,127987,6,0,B|152:192,1,140,6|0
24,144,129487,2,0,B|-3:195|24:243,1,105,2|2
116,192,130612,1,2
184,192,130987,6,0,B|328:192,2,140,6|0|2
48,224,133237,1,0
160,304,133987,2,0,B|225:319|257:339|257:339|289:319|357:303,1,210,2|0
380,236,135487,2,0,B|496:236,2,105,2|2|2
324,192,136987,6,0,B|180:192,1,140,6|0
52,140,138487,2,0,B|25:191|52:239,1,105,2|2
152,272,139612,1,2
188,332,139987,6,0,B|332:332,1,140,6|0
432,240,141487,2,0,B|459:190|432:139,1,105,2|2
340,192,142612,1,2
272,192,142987,6,0,B|132:192,1,140,6|0
32,192,144487,1,2
32,88,145049,6,0,B|89:83|124:127,1,105,2|0
156,192,145987,2,0,B|240:180|240:180|256:200|272:180|272:180|356:192,1,210,6|0
356,264,147487,5,2
256,300,148049,1,0
156,264,148612,1,2
