osu file format v14

[General]
AudioFilename: Tenko cut.mp3
AudioLeadIn: 0
PreviewTime: 64389
Countdown: 0
SampleSet: Soft
StackLeniency: 0.7
Mode: 0
LetterboxInBreaks: 0
WidescreenStoryboard: 0

[Editor]
DistanceSpacing: 1
BeatDivisor: 4
GridSize: 4
TimelineZoom: 1

[Metadata]
Title:Tenko
TitleUnicode:天狐
Artist:iru1919
ArtistUnicode:iru1919
Creator:Bearizm
Version:Advanced
Source:
Tags:Oriental Drum and Bass DnB Sakura Recordz sakuramodki さくらもどき
BeatmapID:932618
BeatmapSetID:432490

[Difficulty]
HPDrainRate:4
CircleSize:3.8
OverallDifficulty:4
ApproachRate:5
SliderMultiplier:1.1
SliderTickRate:1

[Events]
//Background and Video events
0,0,"Tenko.jpg",0,0
//Break Periods
//Storyboard Layer 0 (Background)
//Storyboard Layer 1 (Fail)
//Storyboard Layer 2 (Pass)
//Storyboard Layer 3 (Foreground)
//Storyboard Sound Samples

[TimingPoints]
390,333.333333333333,4,2,1,30,1,0
21723,-100,4,2,1,40,0,0
43056,-100,4,2,1,50,0,0
48389,-100,4,2,1,55,0,0
51056,-100,4,2,1,60,0,0
53723,-100,4,2,1,62,0,0
55056,-100,4,2,1,64,0,0
56389,-100,4,2,1,66,0,0
57723,-100,4,2,1,68,0,0
59056,-100,4,2,1,70,0,0
64389,-100,4,2,1,70,0,1
85639,-100,4,2,1,70,0,0
85723,-100,4,2,1,70,0,1
107056,-100,4,2,1,70,0,0

[Colours]
Combo1 : 255,78,78
Combo2 : 192,192,192
Combo3 : 128,128,128
Combo4 : 100,178,255
Combo5 : 0,128,255
Combo6 : 255,128,128

[HitObjects]
52,164,11056,38,0,P|32:216|48:272,2,110,8|0|2,0:1|0:0|0:0,0:0:0:0:
144,100,12056,1,0,0:0:0:0:
144,100,12223,2,0,P|152:128|168:152,1,55,2|8,0:0|0:1,0:0:0:0:
216,176,12556,2,0,B|324:160|324:160|376:184,1,165,2|2,0:0|0:0,0:0:0:0:
472,236,13389,1,2,0:0:0:0:
424,336,13723,70,0,B|368:328|368:328|316:344|316:344|260:336,1,165,8|2,0:1|0:0,0:0:0:0:
208,324,14389,2,0,P|176:332|156:344,2,55,2|0|0,0:0|0:0|0:0,0:0:0:0:
220,272,14889,1,2,0:0:0:0:
220,272,15056,2,0,P|224:212|208:160,1,110,8|0,0:1|0:0,0:0:0:0:
120,100,15723,2,0,L|64:108,2,55,0|0|2,0:0|0:0|0:0,0:0:0:0:
256,192,16389,12,8,20389,0:1:0:0:
168,128,21723,6,0,P|144:76|156:24,2,110,0|0|8,3:0|3:0|0:3,0:0:0:0:
276,100,22723,2,0,B|300:152|300:152|268:312,1,220,0|0,3:0|3:0,0:0:0:0:
168,356,23723,2,0,P|112:360|64:336,1,110,8|0,0:3|3:0,0:0:0:0:
48,228,24389,6,0,L|36:116,2,110,0|0|8,3:0|3:0|0:3,0:0:0:0:
148,272,25389,2,0,L|123:51,1,220,0|0,3:0|3:0,0:0:0:0:
220,104,26389,2,0,P|276:88|300:44,1,110,8|0,0:3|3:0,0:0:0:0:
408,76,27056,70,0,P|464:72|508:108,2,110,0|0|8,3:0|3:0|0:3,0:0:0:0:
336,160,28056,2,0,B|344:216|344:216|312:320|312:320|320:376,1,220,0|0,3:0|3:0,0:0:0:0:
208,368,29056,2,0,B|200:312|200:312|220:260,1,110,8|0,0:3|3:0,0:0:0:0:
180,160,29723,6,0,P|128:144|52:212,1,165,0|0,3:0|3:0,0:0:0:0:
48,264,30389,1,8,0:3:0:0:
124,344,30723,2,0,B|172:360|208:336|208:336|252:352|252:352|288:328|336:348,1,220,0|0,3:0|3:0,0:0:0:0:
388,364,31556,1,0,3:0:0:0:
388,364,31723,2,0,L|380:252,1,110,8|0,0:3|3:0,0:0:0:0:
448,168,32389,70,0,L|456:56,2,110,0|0|8,3:0|3:0|0:3,0:0:0:0:
380,254,33389,1,0,3:0:0:0:
380,254,33556,2,0,B|324:266|324:266|272:250,1,110,0|0,0:0|0:0,0:0:0:0:
236,212,34056,2,0,L|224:324,2,110,0|8|0,3:0|0:3|3:0,0:0:0:0:
172,124,35056,5,0,3:0:0:0:
256,52,35389,1,0,3:0:0:0:
152,16,35723,1,8,0:3:0:0:
69,88,36056,2,0,B|80:144|80:144|48:248|48:248|56:304,1,220,0|0,3:0|3:0,0:0:0:0:
144,368,37056,2,0,P|200:372|244:344,1,110,8|0,0:3|3:0,0:0:0:0:
356,348,37723,70,0,P|408:332|460:348,2,110,0|0|8,3:0|3:0|0:3,0:0:0:0:
272,276,38723,2,0,B|284:112,1,165,0|0,3:0|0:0,0:0:0:0:
296,56,39389,2,0,P|342:83|395:75,2,110,0|8|0,3:0|0:3|3:0,0:0:0:0:
192,24,40389,6,0,P|132:24|92:112,1,165,0|0,3:0|3:0,0:0:0:0:
112,160,41056,2,0,B|128:212|128:212|108:268,1,110,8|0,0:3|3:0,0:0:0:0:
44,352,41723,2,0,L|156:344,1,110,8|0,0:3|3:0,0:0:0:0:
208,340,42223,1,8,0:3:0:0:
296,276,42556,1,0,3:0:0:0:
296,276,42723,1,10,0:3:0:0:
392,328,43056,70,0,P|445:315|483:270,2,110,4|0|8,3:0|3:0|0:3,0:0:0:0:
296,276,44056,1,0,3:0:0:0:
192,304,44389,2,0,L|196:360,2,55,0|0|0,0:0|0:0|3:0,0:0:0:0:
156,260,44889,1,0,0:0:0:0:
156,260,45056,2,0,P|104:240|52:256,1,110,8|0,0:3|3:0,0:0:0:0:
12,292,45556,1,0,0:0:0:0:
12,292,45723,6,0,L|8:180,1,110,0|0,3:0|3:0,0:0:0:0:
80,100,46389,2,0,P|132:76|184:92,1,110,8|0,0:3|3:0,0:0:0:0:
224,124,46889,1,0,0:0:0:0:
224,124,47056,2,0,P|276:140|328:124,1,110,0|0,0:0|3:0,0:0:0:0:
424,72,47723,2,0,B|440:124|440:124|424:180,1,110,8|0,0:3|3:0,0:0:0:0:
368,272,48389,70,0,P|352:324|368:376,2,110,0|0|8,3:0|3:0|0:3,0:0:0:0:
336,164,49389,2,0,L|332:108,2,55,0|0|0,3:0|0:0|0:0,0:0:0:0:
300,208,49889,1,0,0:0:0:0:
300,208,50056,2,0,P|244:216|200:188,2,110,0|8|0,3:0|0:3|3:0,0:0:0:0:
408,224,51056,6,0,P|480:216|488:308,1,165,0|0,3:0|3:0,0:0:0:0:
468,336,51723,2,0,B|384:324|384:324|360:332,1,110,8|0,0:3|3:0,0:0:0:0:
256,372,52389,1,0,0:0:0:0:
176,296,52723,2,0,L|120:304,2,55,0|0|8,3:0|3:0|0:3,0:0:0:0:
236,204,53389,1,2,3:0:0:0:
140,152,53723,70,0,P|117:102|130:50,1,110,0|0,3:0|3:0,0:0:0:0:
232,8,54389,1,8,0:3:0:0:
332,52,54723,2,0,L|388:44,1,55,8|0,0:3|3:0,0:0:0:0:
440,64,55056,2,0,P|460:116|444:168,1,110,0|0,3:0|3:0,0:0:0:0:
356,232,55723,1,8,0:3:0:0:
260,180,56056,2,0,P|234:185|204:184,1,55,8|0,0:3|3:0,0:0:0:0:
156,160,56389,6,0,B|156:276,1,110,0|0,3:0|3:0,0:0:0:0:
108,368,57056,1,8,0:3:0:0:
212,332,57389,2,0,L|268:336,1,55,8|0,0:3|3:0,0:0:0:0:
308,300,57723,2,0,L|420:292,1,110,0|0,3:0|3:0,0:0:0:0:
488,208,58389,1,8,0:3:0:0:
404,140,58723,2,0,P|400:112|404:84,1,55,10|0,0:3|3:0,0:0:0:0:
436,40,59056,70,0,L|324:28,1,110,0|8,3:0|3:3,0:0:0:0:
240,96,59723,2,0,L|128:84,1,110,0|8,3:0|3:3,0:0:0:0:
28,128,60389,2,0,P|8:180|24:232,1,110,0|8,3:0|3:3,0:0:0:0:
124,276,61056,1,0,3:0:0:0:
208,208,61389,1,8,3:3:0:0:
304,264,61723,6,0,P|324:316|308:368,2,110,0|8|0,3:0|0:3|3:0,0:0:0:0:
208,208,62723,1,8,0:3:0:0:
264,116,63056,2,0,L|256:60,2,55,8|0|0,0:3|3:0|3:0,0:0:0:0:
312,144,63556,2,0,P|340:148|368:144,1,55,8|0,0:3|3:0,0:0:0:0:
420,128,63889,1,0,3:0:0:0:
420,128,64056,1,10,0:3:0:0:
500,204,64389,5,4,3:2:0:0:
428,288,64723,2,0,L|264:272,1,165,8|0,0:3|3:2,0:0:0:0:
208,264,65389,1,8,0:3:0:0:
112,320,65723,1,0,3:2:0:0:
28,252,66056,2,0,B|20:196|20:196|36:144|36:144|28:88,1,165,8|0,0:3|3:2,0:0:0:0:
16,36,66723,1,8,0:3:0:0:
116,80,67056,6,0,P|172:88|216:60,1,110,0|8,3:2|0:3,0:0:0:0:
324,84,67723,2,0,P|352:76|380:76,2,55,0|0|8,0:0|3:2|0:3,0:0:0:0:
260,172,68389,1,0,3:2:0:0:
360,216,68723,2,0,P|380:268|368:320,1,110,8|0,0:3|0:0,0:0:0:0:
336,364,69223,1,0,3:2:0:0:
336,364,69389,1,8,0:3:0:0:
240,312,69723,38,0,L|128:324,2,110,0|8|0,3:0|0:3|0:0,0:0:0:0:
276,272,70556,1,0,3:0:0:0:
276,272,70723,2,0,L|332:276,1,55,8|0,0:3|0:0,0:0:0:0:
384,256,71056,2,0,B|392:284|392:284|380:364,2,110,0|8|0,3:0|0:3|0:0,0:0:0:0:
364,204,71889,1,0,3:0:0:0:
364,204,72056,2,0,P|360:176|368:148,1,55,8|0,0:3|0:0,0:0:0:0:
404,112,72389,6,0,P|344:112|312:76,2,110,0|8|0,3:0|0:3|0:0,0:0:0:0:
504,64,73389,1,8,0:3:0:0:
492,172,73723,2,0,L|480:288,1,110,0|8,3:0|0:3,0:0:0:0:
376,308,74389,2,0,L|368:364,2,55,0|0|10,3:0|3:0|0:3,0:0:0:0:
316,216,75056,5,0,3:2:0:0:
224,280,75389,2,0,B|168:272|168:272|116:284|116:284|60:276,1,165,8|0,0:3|3:2,0:0:0:0:
8,268,76056,1,8,0:3:0:0:
80,184,76389,2,0,P|92:128|68:84,1,110,0|8,3:2|0:3,0:0:0:0:
152,12,77056,2,0,P|194:50|244:51,1,110,0|8,0:0|0:3,0:0:0:0:
348,16,77723,5,0,3:0:0:0:
416,100,78056,2,0,B|444:148|444:148|420:256,1,165,8|0,0:3|3:2,0:0:0:0:
404,308,78723,1,8,0:3:0:0:
308,252,79056,2,0,P|248:244|208:272,1,110,0|8,3:2|0:3,0:0:0:0:
116,212,79723,2,0,P|63:221|17:193,1,110,0|8,3:2|0:3,0:0:0:0:
4,84,80389,37,0,3:0:0:0:
100,28,80723,2,0,L|264:44,1,165,8|0,0:3|3:0,0:0:0:0:
320,48,81389,1,8,0:3:0:0:
404,120,81723,2,0,P|420:172|400:224,1,110,0|8,3:0|0:3,0:0:0:0:
308,284,82389,2,0,P|300:312|304:344,2,55,0|0|8,0:0|3:0|0:3,0:0:0:0:
272,240,82889,1,0,0:0:0:0:
272,240,83056,6,0,B|284:184|284:184|272:132,2,110,0|8|0,3:0|0:3|0:0,0:0:0:0:
220,256,83889,1,0,3:0:0:0:
220,256,84056,1,8,0:3:0:0:
112,228,84389,2,0,L|104:172,2,55,8|0|0,0:3|3:0|3:0,0:0:0:0:
64,256,84889,2,0,L|56:312,1,55,8|0,0:3|3:0,0:0:0:0:
88,356,85223,1,0,3:0:0:0:
88,356,85389,1,10,0:3:0:0:
196,336,85723,6,0,L|308:352,2,110,4|8|0,3:2|0:3|0:0,0:0:0:0:
164,292,86556,1,0,3:0:0:0:
164,292,86723,1,8,0:3:0:0:
196,188,87056,1,0,3:0:0:0:
300,220,87389,2,0,B|328:172|328:172|304:64,1,165,8|0,0:3|3:0,0:0:0:0:
288,12,88056,1,8,0:3:0:0:
196,72,88389,6,0,P|140:80|92:56,1,110,0|8,3:0|0:3,0:0:0:0:
40,60,88889,2,0,P|8:108|16:164,1,110,0|0,0:0|3:0,0:0:0:0:
44,204,89389,1,8,0:3:0:0:
148,240,89723,2,0,L|260:228,2,110,0|8|0,3:0|0:3|3:0,0:0:0:0:
116,284,90556,1,0,3:0:0:0:
116,284,90723,1,10,0:3:0:0:
188,368,91056,37,0,3:0:0:0:
284,316,91389,2,0,B|340:320|340:320|376:272|352:216,1,165,8|0,0:3|3:0,0:0:0:0:
332,168,92056,1,8,0:3:0:0:
240,112,92389,2,0,L|128:124,2,110,0|8|0,3:0|0:3|0:0,0:0:0:0:
272,68,93223,1,0,3:0:0:0:
272,68,93389,2,0,L|328:72,1,55,8|0,0:3|0:0,0:0:0:0:
384,76,93723,5,0,3:0:0:0:
480,128,94056,2,0,B|468:180|468:180|476:236|476:236|460:288,1,165,8|0,0:3|3:0,0:0:0:0:
440,340,94723,1,8,0:3:0:0:
356,268,95056,2,0,P|304:252|248:272,1,110,0|8,3:0|0:3,0:0:0:0:
204,296,95556,2,0,P|152:312|100:296,1,110,0|0,3:0|3:0,0:0:0:0:
56,264,96056,1,10,0:3:0:0:
48,156,96389,6,0,L|40:44,2,110,4|8|0,3:2|0:3|0:0,0:0:0:0:
96,184,97223,1,0,3:0:0:0:
96,184,97389,1,8,0:3:0:0:
176,108,97723,1,0,3:0:0:0:
276,148,98056,2,0,B|288:204|288:204|272:256|272:256|284:308,1,165,8|0,0:3|3:0,0:0:0:0:
300,360,98723,1,8,0:3:0:0:
364,268,99056,6,0,P|420:260|464:288,1,110,0|8,3:0|0:3,0:0:0:0:
504,324,99556,2,0,L|512:212,1,110,0|0,0:0|3:0,0:0:0:0:
484,168,100056,1,8,0:3:0:0:
384,120,100389,2,0,P|404:68|388:16,2,110,0|8|0,3:0|0:3|3:0,0:0:0:0:
328,132,101223,1,0,3:0:0:0:
328,132,101389,1,10,0:3:0:0:
224,92,101723,37,0,3:0:0:0:
120,132,102056,2,0,B|92:240|92:240|112:292,1,165,8|0,0:3|3:0,0:0:0:0:
132,340,102723,1,8,0:3:0:0:
216,264,103056,2,0,P|244:316|240:368,2,110,0|8|0,3:0|0:3|0:0,0:0:0:0:
240,216,103889,1,0,3:0:0:0:
240,216,104056,2,0,P|228:188|228:160,1,55,8|0,0:3|0:0,0:0:0:0:
236,108,104389,37,0,3:0:0:0:
312,32,104723,2,0,P|368:24|424:104,1,165,8|0,0:3|3:0,0:0:0:0:
412,160,105389,1,8,0:3:0:0:
328,232,105723,2,0,L|272:228,1,55,0|0,3:0|3:0,0:0:0:0:
220,224,106056,1,8,0:3:0:0:
220,116,106389,2,0,P|244:100|272:96,1,55,0|0,3:0|3:0,0:0:0:0:
320,72,106723,2,0,P|344:84|376:88,1,55,8|0,0:3|3:0,0:0:0:0:
428,88,107056,5,4,3:2:0:0:
