osu file format v9

[General]
AudioFilename: MAD 10.mp3
AudioLeadIn: 2000
PreviewTime: 66074
Countdown: 0
SampleSet: Soft
StackLeniency: 0.7
Mode: 0
LetterboxInBreaks: 0

[Editor]
DistanceSpacing: 0.9
BeatDivisor: 4
GridSize: 4

[Metadata]
Title:Connect (TV Size)
Artist:irony
Creator:Guy
Version:Normal
Source:Puella Magi Madoka Magica
Tags:claris niconicodouga mami homura madoka sayaka kyoko

[Difficulty]
HPDrainRate:3
CircleSize:3
OverallDifficulty:2
ApproachRate:3
SliderMultiplier:1
SliderTickRate:2

[Events]
//Background and Video events
0,0,"BG.jpg"
Video,0,"madoka - magika.avi"
//Break Periods
//Storyboard Layer 0 (Background)
//Storyboard Layer 1 (Fail)
//Storyboard Layer 2 (Pass)
//Storyboard Layer 3 (Foreground)
//Storyboard Sound Samples
//Background Colour Transformations
3,100,163,162,255

[TimingPoints]
589,342.857142857143,4,2,0,40,1,0
1274,342.857142857143,4,2,0,40,1,0
11902,342.857142857143,4,2,0,40,1,0
33759,-100,4,2,0,50,0,0
33930,-100,4,2,0,40,0,0
66759,-100,4,2,0,60,0,1
88702,-100,4,2,0,40,0,0

[Colours]
Combo1 : 255,150,0
Combo2 : 5,240,5
Combo3 : 5,5,240
Combo4 : 240,5,5
Combo5 : 128,255,255

[HitObjects]
296,56,589,2,0,B|184:56,1,100
108,64,1274,2,0,B|76:120|124:168,1,100,2|0
200,188,1960,1,0
292,188,2303,1,0
292,96,2646,2,0,B|396:96,1,100,2|0
392,188,3331,2,0,B|456:188,2,50,0|0|0
408,276,4017,6,0,B|352:308|296:260,1,100,2|0
256,204,4702,1,0
256,112,5045,1,0
348,112,5388,2,0,B|452:112,1,100,2|0
440,200,6073,6,0,B|392:232|344:200,2,100,0|0|2
392,120,7102,1,0
328,56,7445,1,0
256,104,7788,1,0
320,168,8131,2,0,B|296:208|240:224,2,100,2|0|0
256,192,9502,12,4,11902
392,160,12587,6,0,B|368:272|256:288,1,200,2|0
176,248,13616,1,0
104,192,13959,1,2
176,136,14302,1,0
104,80,14644,5,2
280,40,15330,1,0
396,108,15844,2,0,B|464:172|412:240,1,150,2|0
344,304,16702,2,0,B|244:304,1,100
200,224,17387,6,0,B|88:220|44:112,1,200,2|0
180,92,18587,2,0,B|256:64|328:92,1,150
300,176,19444,1,2
208,176,19787,1,0
256,192,20130,12,0,22187
360,64,23216,6,0,B|256:64,1,100,0|0
168,64,23902,1,0
104,128,24245,2,0,B|56:200|112:272,1,150,2|0
200,272,25102,2,0,B|352:272,1,150,0|0
416,216,25959,1,0
416,128,26302,2,0,B|296:128,1,100,2|0
224,128,26988,2,0,B|224:240,2,100,0|0|0
328,216,28359,5,2
328,304,28702,1,0
240,304,29045,1,0
280,128,29730,2,0,B|264:184|208:208,1,100,0|8
128,200,30416,2,0,B|128:96,1,100,0|8
216,104,31102,6,0,B|432:104,1,200,2|8
416,284,32473,2,0,B|304:284,1,100,0|8
224,280,33159,2,0,B|176:232|240:176,1,100,0|8
264,112,33844,5,4
352,120,34187,1,0
416,184,34530,1,0
424,272,34873,1,0
332,272,35216,2,0,B|228:272,1,100,0|8
140,272,35902,2,0,B|112:224|140:176,1,100,0|8
200,108,36588,5,0
200,108,36929,1,0
292,108,37272,1,0
292,108,37615,1,2
372,72,37958,2,0,B|404:120|372:164,1,100,0|8
324,240,38644,6,0,B|372:272|420:240,1,100,0|8
396,152,39329,1,0
340,84,39672,1,0
256,56,40015,1,0
172,84,40358,1,2
112,152,40701,2,0,B|112:264,1,100,0|8
196,284,41387,2,0,B|196:172,1,100
256,192,42072,12,4,44129
200,48,44816,6,0,B|200:152,1,100,0|0
128,208,45502,2,0,B|144:264|200:272,1,100,2|0
288,296,46188,2,0,B|388:296,1,100,0|0
380,208,46873,2,0,B|396:152|348:120,1,100,2|0
272,168,47559,6,0,B|268:224|216:248,1,100,0|0
152,184,48244,1,0
172,96,48587,2,0,B|252:112|308:48,2,150
352,112,50302,5,0
416,176,50644,1,0
416,268,50987,1,0
352,332,51330,1,2
288,268,51673,2,0,B|184:268,1,100,0|0
164,180,52359,2,0,B|276:180,1,100,0|0
320,112,53044,5,0
320,112,53387,1,2
232,96,53730,2,0,B|128:96,1,100,0|0
136,184,54416,1,0
136,184,54759,1,2
224,200,55102,2,0,B|328:200,1,100,0|0
352,112,55788,6,0,B|296:136|256:96,1,100,6|0
180,56,56473,2,0,B|124:64|119:126,1,100,0|0
124,216,57159,1,0
204,260,57502,1,0
288,296,57844,2,0,B|288:240,2,50,2|0|0
372,264,58530,6,0,B|404:216|372:172,1,100,0|0
288,136,59216,2,0,B|184:136,1,100,0|0
184,48,59902,1,0
184,48,60244,1,0
272,48,60587,1,0
272,48,60930,1,0
360,48,61272,6,2,B|432:144|360:232,1,200,6|0
336,264,62129,1,0
248,264,62472,2,0,B|160:232|144:144,1,150
144,112,63158,2,0,B|264:112,2,100,2|0|0
256,192,64187,12,4,65387
352,56,66758,6,0,B|352:128|288:136,1,100,4|8
220,164,67443,1,0
220,164,67786,1,8
132,176,68129,2,0,B|116:240|180:272,1,100,0|8
236,320,68815,2,0,B|356:320,1,100,0|8
420,288,69501,6,0,B|348:216,1,100,2|8
392,144,70187,2,0,B|344:112|296:144,1,100,0|8
264,224,70872,1,0
200,160,71215,1,2
200,160,71387,1,0
200,24,71902,5,2
112,56,72244,2,0,B|72:112|136:160,1,100,4|8
184,208,72929,2,0,B|232:160|288:224,1,100,0|8
360,240,73615,1,0
424,176,73958,1,2
360,112,74302,1,0
296,176,74644,6,0,B|256:248|176:248|136:176,1,200,2|0
164,92,75673,2,0,B|268:92,1,100,0|8
348,120,76359,2,0,B|400:208,1,100,0|8
340,276,77045,6,0,B|236:276,1,100,0|8
160,236,77730,1,4
112,160,78073,1,2
200,156,78416,1,0
200,64,78759,1,2
292,64,79102,2,0,B|356:64,2,50,0|0|8
328,148,79788,2,0,B|400:148,2,50,0|0|8
256,200,80473,5,0
256,108,80816,1,2
180,152,81159,1,0
92,152,81501,1,2
136,72,81845,2,0,B|164:24|220:28,1,100,0|8
256,108,82530,2,0,B|288:152|344:132,1,100,0|10
372,220,83216,1,0
372,220,83559,1,2
308,284,83902,6,0,B|228:224,1,100,0|8
168,156,84588,2,0,B|128:108|168:60,1,100,0|8
248,100,85273,2,0,B|352:100,1,100,0|8
392,180,85959,5,0
304,180,86301,1,2
212,180,86644,1,0
120,180,86987,1,2
256,192,87330,12,4,88701
