osu file format v9

[General]
AudioFilename: MAD 10.mp3
AudioLeadIn: 2000
PreviewTime: 66074
Countdown: 0
SampleSet: Soft
StackLeniency: 0.7
Mode: 0
LetterboxInBreaks: 0

[Editor]
Bookmarks: 15502,18073,18595
DistanceSpacing: 1.2
BeatDivisor: 4
GridSize: 4

[Metadata]
Title:Connect (TV Size)
Artist:irony
Creator:Guy
Version:Insane
Source:Puella Magi Madoka Magica
Tags:claris niconicodouga mami homura madoka sayaka kyoko

[Difficulty]
HPDrainRate:7
CircleSize:4
OverallDifficulty:7
ApproachRate:8
SliderMultiplier:1.5
SliderTickRate:2

[Events]
//Background and Video events
0,0,"BG.jpg"
Video,0,"madoka - magika.avi"
//Break Periods
//Storyboard Layer 0 (Background)
//Storyboard Layer 1 (Fail)
//Storyboard Layer 2 (Pass)
//Storyboard Layer 3 (Foreground)
//Storyboard Sound Samples
//Background Colour Transformations
3,100,163,162,255

[TimingPoints]
589,342.857142857143,4,2,0,40,1,0
1274,342.857142857143,4,2,0,40,1,0
11902,342.857142857143,4,2,0,40,1,0
22787,-100,4,2,0,50,0,0
22959,-100,4,2,0,40,0,0
33759,-100,4,2,0,50,0,0
33930,-100,4,2,0,40,0,0
66759,-100,4,2,0,60,0,1
88702,-100,4,2,0,40,0,0

[Colours]
Combo1 : 255,150,0
Combo2 : 5,240,5
Combo3 : 5,5,240
Combo4 : 240,5,5
Combo5 : 128,255,255

[HitObjects]
128,80,589,2,0,B|128:124|172:136,1,75
256,104,932,2,0,B|256:28,1,75
384,80,1274,2,0,B|384:164|304:196,1,150,2|2
372,256,1788,1,0
296,304,1959,2,0,B|220:304,2,75,0|0|0
372,256,2474,5,0
372,168,2645,1,0
296,116,2816,2,0,B|224:116|144:116,1,150
56,272,3502,2,0,B|124:320|196:273,1,150,2|0
212,184,4016,6,0,B|197:101|270:55,1,150,0|2
312,136,4532,1,0
360,212,4702,2,0,B|436:212,2,75,0|0|2
388,124,5217,5,0
312,56,5389,1,2
236,124,5560,1,0
268,212,5732,1,2
360,212,5903,1,0
484,340,6246,5,0
432,268,6417,1,0
432,268,6589,1,0
364,324,6759,2,0,B|280:331|241:254,1,150,2|0
64,192,7275,5,0
92,108,7445,1,0
180,136,7617,2,0,B|256:136,1,75,2|0
256,48,7959,1,0
256,48,8131,1,0
344,136,8302,2,0,B|427:128|466:205,2,150,2|0|0
256,164,9159,2,0,B|256:240,1,75,2|0
256,192,9503,12,4,11903
448,64,12244,6,0,B|416:92|332:40|300:72,1,150
256,148,12759,1,0
184,92,12930,1,0
112,36,13102,2,0,B|28:52|16:136,1,150,2|0
88,288,13616,6,0,B|176:288,1,75
256,264,13959,1,2
304,188,14130,1,0
256,112,14302,1,2
20,48,14644,6,0,B|17:131|95:166,1,150,2|0
184,144,15159,1,0
256,84,15331,1,2
336,128,15502,2,0,B|419:125|454:203,1,150,0|0
40,328,16187,6,0,B|119:302|125:216,1,150,2|0
60,152,16702,1,2
80,64,16873,1,0
164,36,17044,1,2
336,64,17387,6,0,B|432:64,1,75,2|0
476,128,17731,2,0,B|476:184,2,37.5
396,192,18073,2,0,B|327:240|255:193,1,150,2|0
256,104,18587,2,0,B|187:55|115:102,1,150,0|0
100,256,19102,5,2
168,316,19273,1,0
244,268,19444,1,2
224,184,19616,1,0
132,168,19787,1,2
256,36,20130,6,0,B|304:36,2,37.5
256,128,20474,2,0,B|256:168,2,37.5
168,132,20816,2,0,B|85:146|67:230,1,150,0|0
144,280,21331,1,0
212,224,21502,1,0
328,284,21673,5,0
368,296,21760,1,0
408,280,21844,2,0,B|408:192,1,75
400,116,22187,2,0,B|372:80|280:136|252:104,1,150
255,107,22873,5,0
160,260,23216,2,0,B|124:183|38:188,1,150,0|0
84,108,23730,1,0
172,120,23902,1,0
240,60,24073,1,0
328,84,24244,2,0,B|308:164|232:192,1,150,2|2
172,120,24759,5,0
96,252,24930,1,0
232,191,25102,1,0
88,160,25274,1,2
188,272,25445,1,0
308,312,25616,6,0,B|397:317|410:223,1,150,0|0
420,108,26131,1,0
312,48,26302,2,0,B|225:13|175:76,1,150,2|2
92,176,26817,1,0
200,232,26988,2,0,B|264:164|336:200,1,150,2|2
288,288,27503,2,0,B|248:368|160:332,1,150,0|0
88,280,28017,5,0
120,196,28187,1,0
48,140,28359,2,0,B|83:63|169:68,1,150,0|0
216,144,28873,2,0,B|304:144,2,75,0|2|0
256,224,29387,1,0
256,316,29559,6,0,B|340:320|388:252,1,150,2|0
416,168,30073,2,0,B|368:108,1,75,0|0
292,60,30416,2,0,B|212:60,1,75,2|0
128,76,30759,1,0
52,124,30930,1,0
68,212,31102,6,0,B|144:252|144:184|216:224,1,150,2|0
296,248,31617,1,0
368,196,31787,2,0,B|408:196,2,37.5,0|0|0
348,108,32131,2,0,B|284:64,1,75,2|0
160,156,32473,6,0,B|76:160|48:241,1,150,2|0
172,288,32988,1,0
256,324,33160,2,0,B|332:324,1,75,2|0
416,288,33503,1,2
184,64,33844,6,0,B|136:64|136:172|88:172,1,150,4|0
124,256,34359,1,0
208,224,34530,1,0
304,224,34702,1,0
324,264,34787,1,0
348,304,34874,2,0,B|392:308|412:272,1,75,2|0
408,184,35216,6,0,B|420:137|316:109|328:63,1,150,2|0
256,124,35731,1,0
188,64,35903,1,0
88,44,36074,5,0
64,80,36160,1,0
68,124,36244,2,0,B|80:168|48:196,1,75,2|0
56,284,36587,2,0,B|118:340|195:302,1,150,0|0
256,236,37102,1,0
316,168,37273,1,0
376,236,37444,1,0
496,188,37616,5,2
432,252,37787,1,0
368,188,37959,2,0,B|336:268|248:256,1,150,2|2
320,116,38473,2,0,B|352:36|440:48,1,150,2|2
472,132,38987,5,0
508,216,39159,1,0
440,276,39330,2,0,B|376:332|304:280,1,150,2|2
372,220,39844,2,0,B|372:140,2,75,0|0|0
284,192,40359,2,0,B|204:192,2,75,2|0|2
144,44,40873,5,0
208,112,41044,1,0
272,44,41216,1,0
208,112,41387,2,0,B|256:184|200:256,1,150,2|2
284,292,41902,1,0
360,240,42073,2,0,B|432:144|312:104|376:16,2,225,0|0|0
192,184,43444,5,2
192,184,43616,1,0
116,228,43787,2,0,B|68:228,2,37.5,2|0|0
228,324,44130,1,2
408,324,44473,5,0
464,256,44644,1,0
440,168,44816,2,0,B|368:116|300:168,1,150,6|2
236,228,45331,1,0
148,212,45503,1,0
132,172,45587,1,0
148,128,45674,1,0
236,108,45844,1,0
236,108,46016,1,0
176,44,46187,2,0,B|88:36|56:116,1,150
148,128,46702,6,0,B|200:196,1,75
96,208,47044,1,0
193,187,47216,1,0
160,276,47387,1,0
252,284,47559,2,0,B|328:328|388:268,1,150,2|2
440,192,48073,2,0,B|484:124,2,75,0|0|0
356,168,48587,2,0,B|280:124|220:184,1,150,2|2
144,136,49103,5,0
184,56,49274,1,2
268,84,49444,1,0
268,84,49616,1,0
368,128,49787,5,0
368,128,49874,1,0
368,128,49959,1,0
436,188,50130,1,0
412,280,50303,2,0,B|316:280,1,75,2|0
248,296,50644,1,0
172,248,50815,2,0,B|112:180|172:112,1,150
232,180,51329,2,0,B|312:180,2,75,0|0|0
424,116,51845,6,0,B|424:204,1,75,2|0
412,280,52188,1,0
328,320,52359,1,0
328,232,52530,1,0
240,232,52702,2,0,B|172:176,1,75
296,104,53045,6,0,B|344:40,2,75,2|0|2
216,60,53559,1,0
136,16,53730,2,0,B|48:24|32:108,1,150,2|0
60,192,54245,1,0
120,260,54416,2,0,B|184:200,1,75,2|0
392,124,54759,2,0,B|328:184,1,75,2|0
340,320,55102,1,2
408,264,55273,1,0
408,220,55359,1,0
408,176,55445,5,0
316,188,55616,1,0
260,260,55787,2,0,B|180:296|116:236,1,150,6|0
148,156,56302,1,0
148,156,56388,1,0
148,156,56473,1,0
216,96,56645,2,0,B|272:160,1,75,0|0
348,116,56988,2,0,B|408:180|348:252,1,150,2|0
264,232,57502,2,0,B|208:296,1,75,2|0
216,288,57759,1,0
216,288,57845,1,2
308,308,58016,5,0
396,284,58188,1,0
440,204,58359,1,0
396,124,58530,2,0,B|244:124,1,150,2|0
244,216,59044,2,0,B|188:280|108:240,1,150,2|0
100,148,59559,1,0
168,88,59730,1,0
248,124,59902,2,0,B|304:188|248:260,1,150
156,272,60416,1,0
216,340,60588,5,0
312,340,60759,1,0
356,332,60845,1,0
392,308,60930,1,0
440,228,61102,1,0
440,228,61273,6,0,B|361:248|296:202,1,150,2|0
236,136,61787,2,0,B|157:115|92:161,1,150,2|0
68,248,62302,1,0
144,296,62473,1,0
220,248,62644,6,0,B|292:192|284:120,1,150,6|0
236,44,63159,2,0,B|140:44|92:116,1,150,2|0
176,152,63673,1,0
256,192,63845,1,0
256,192,63930,1,0
256,192,64016,1,2
256,192,64188,12,4,65388
368,104,66073,6,0,B|308:156,1,75,0|0
232,176,66416,1,2
176,112,66588,1,0
116,44,66759,6,0,B|56:96,1,75,0|0
64,184,67101,1,10
108,264,67273,1,0
196,288,67444,2,0,B|272:308,1,75,0|0
348,268,67787,1,10
280,208,67959,1,0
220,144,68130,2,0,B|236:64|324:48,1,150,0|10
324,140,68644,2,0,B|456:244,1,150
464,320,69159,1,10
384,276,69330,5,0
308,320,69501,2,0,B|160:320,1,150,0|10
80,264,70016,1,0
52,180,70187,1,0
60,56,70359,1,0
104,56,70445,1,0
152,56,70530,2,0,B|196:120,1,75,10|0
240,196,70873,2,0,B|280:196,2,37.5,0|0|0
304,268,71216,2,0,B|376:324|440:264,1,150,10|0
436,172,71730,5,0
464,84,71902,1,10
376,60,72073,1,0
288,60,72245,2,0,B|200:40|152:116,1,150,0|10
104,180,72759,5,0
104,180,72845,1,0
104,180,72931,1,0
172,248,73102,2,0,B|232:204|232:204,1,75,0|10
396,164,73444,2,0,B|328:164,2,37.5,0|0|0
232,44,73787,2,0,B|232:120,1,75,0|10
144,132,74130,2,0,B|104:212|16:196,2,150
224,260,74987,5,0
316,248,75159,2,0,B|368:304,1,75,0|8
372,188,75502,2,0,B|444:204,1,75,0|2
364,104,75845,2,0,B|440:76,1,75,0|8
268,128,76188,2,0,B|120:128,1,150,4|0
196,16,76702,1,10
118,128,76873,1,0
196,244,77045,6,0,B|272:244,2,75,2|0|10
196,244,77559,1,0
336,312,77730,2,0,B|460:220,1,150,4|10
384,128,78245,1,0
308,176,78416,1,0
232,224,78587,2,0,B|152:266|86:205,1,150,0|0
84,128,79102,1,0
164,88,79273,1,0
384,256,79617,6,0,B|436:192|388:112,2,150,4|4|4
296,268,80474,2,0,B|208:268,1,75,0|0
64,212,80817,2,0,B|152:212,1,75,10|0
224,180,81160,2,0,B|277:126,1,75,0|0
368,124,81502,1,10
428,192,81673,1,0
368,260,81844,2,0,B|314:313,2,75,0|0|10
308,192,82359,6,0,B|220:168|180:248,1,150
268,276,82873,1,10
360,276,83045,2,0,B|448:300|488:220,1,150
468,120,83559,1,10
396,64,83730,1,0
324,120,83902,5,0
256,64,84073,1,0
396,64,84245,1,10
256,64,84416,1,0
180,116,84588,2,0,B|120:180|180:252,1,150,0|10
256,204,85102,2,0,B|284:243|372:181|400:220,1,150,0|0
412,128,85617,1,10
412,128,85788,1,0
344,72,85959,5,0
344,72,86130,1,0
256,80,86302,2,0,B|196:136|112:104,1,150,10|0
88,192,86816,1,0
88,192,86902,1,0
88,192,86987,1,10
256,192,87330,12,4,88701
