osu file format v9

[General]
AudioFilename: MAD 10.mp3
AudioLeadIn: 2000
PreviewTime: 66074
Countdown: 0
SampleSet: Soft
StackLeniency: 0.7
Mode: 0
LetterboxInBreaks: 0

[Editor]
Bookmarks: 72930,85102
DistanceSpacing: 1.2
BeatDivisor: 4
GridSize: 4

[Metadata]
Title:Connect (TV Size)
Artist:irony
Creator:Guy
Version:Hard
Source:Puella Magi Madoka Magica
Tags:claris niconicodouga mami homura madoka sayaka kyoko

[Difficulty]
HPDrainRate:6
CircleSize:4
OverallDifficulty:5
ApproachRate:7
SliderMultiplier:1.4
SliderTickRate:2

[Events]
//Background and Video events
0,0,"BG.jpg"
Video,0,"madoka - magika.avi"
//Break Periods
//Storyboard Layer 0 (Background)
//Storyboard Layer 1 (Fail)
//Storyboard Layer 2 (Pass)
//Storyboard Layer 3 (Foreground)
//Storyboard Sound Samples
//Background Colour Transformations
3,100,163,162,255

[TimingPoints]
589,342.857142857143,4,2,0,40,1,0
1274,342.857142857143,4,2,0,40,1,0
11902,342.857142857143,4,2,0,40,1,0
33759,-100,4,2,0,50,0,0
33930,-100,4,2,0,40,0,0
44730,-100,4,2,0,50,0,0
44902,-100,4,2,0,40,0,0
66759,-100,4,2,0,60,0,1
88702,-100,4,2,0,40,0,0

[Colours]
Combo1 : 255,150,0
Combo2 : 5,240,5
Combo3 : 5,5,240
Combo4 : 240,5,5
Combo5 : 128,255,255

[HitObjects]
52,64,589,1,0
112,124,760,1,0
44,172,931,1,0
88,244,1103,1,0
164,280,1274,2,0,B|172:208|228:144,1,140,2|0
276,220,1789,2,0,B|316:284,2,70,2|0|2
440,240,2474,5,0
480,168,2646,1,0
400,136,2817,1,2
312,280,3160,2,0,B|373:218|318:155,1,140,0|0
228,296,3846,6,0,B|180:208|40:240,1,210,2|0
48,104,4531,1,2
104,40,4703,1,0
184,56,4874,2,0,B|199:133|263:165,1,140,2|0
336,120,5389,1,0
416,96,5560,2,0,B|464:40,2,70,2|0|2
368,256,6246,5,0
288,288,6417,1,0
288,200,6589,1,0
280,120,6760,2,0,B|208:72|136:120,1,140,2|0
88,168,7274,2,0,B|88:240,2,70,0|0|2
216,280,7960,5,0
288,320,8131,1,0
368,288,8303,2,0,B|412:224|368:144,1,140,2|0
256,36,8989,1,2
104,36,9331,6,0,B|52:96|104:180,2,140
192,180,10360,1,2
188,264,10531,1,0
264,296,10703,1,0
256,192,10874,12,4,11903
124,76,12244,6,0,B|72:128|64:204,1,140
148,188,12759,2,0,B|152:260|200:316,1,140,2|0
340,220,13444,2,0,B|336:148|288:92,1,140,2|0
224,40,13959,2,0,B|156:72,2,70,2|0|2
384,84,14644,5,0
464,232,14987,1,0
328,328,15330,2,0,B|260:304|204:252,1,140,2|0
156,192,15844,1,0
320,160,16187,6,0,B|380:124,2,70,2|0|0
384,216,16702,2,0,B|348:284|264:268,1,140,2|0
192,228,17216,2,0,B|156:228,2,35
316,116,17730,6,0,B|244:88|204:28,1,140
148,92,18244,1,2
80,144,18416,1,0
108,224,18587,1,2
256,308,18930,6,0,B|256:232,5,70,0|0|0|2|0|2
256,192,20131,12,4,22874
320,104,23217,5,0
392,192,23560,1,0
392,192,23731,2,0,B|312:224|256:224,1,140,2|0
248,144,24244,2,0,B|168:112|112:112,1,140,0|0
72,216,24758,2,0,B|48:256|80:288,2,70,2|2|0
152,240,25272,1,0
224,192,25444,1,0
288,248,25615,6,0,B|376:248|424:208,1,140,2|0
360,144,26129,1,0
280,88,26301,2,0,B|240:64|208:96,2,70,2|0|0
280,176,26815,1,0
280,264,26987,2,0,B|208:288|136:288,1,140,2|0
160,200,27501,2,0,B|160:128,1,70,2|2
80,88,27844,5,0
80,88,28015,1,0
64,176,28187,1,0
64,176,28358,2,0,B|144:224|224:224,1,140,6|0
256,288,28872,1,0
336,320,29044,1,2
416,288,29215,1,0
448,208,29387,1,0
360,208,29558,6,0,B|296:128,1,70,0|2
392,112,29901,2,0,B|472:112,2,70,0|0|0
320,64,30415,1,0
320,64,30587,1,0
192,64,30758,1,0
192,64,30929,1,2
88,104,31101,6,0,B|128:160|224:160,1,140,2|0
424,104,31787,2,0,B|384:160|288:160,1,140,2|0
312,288,32472,2,0,B|384:288,2,70,0|2|2
208,320,32987,1,0
120,256,33158,1,0
144,152,33329,1,2
240,120,33501,1,2
416,104,33844,1,4
424,264,34187,5,0
424,264,34358,1,0
344,296,34529,2,0,B|272:256|192:256,1,140,2|0
210,256,35044,1,2
210,256,35215,1,0
280,96,35558,2,0,B|120:96,2,140,2|0|2
360,112,36415,5,0
416,176,36587,1,0
248,256,36929,2,0,B|272:308|224:356|168:328,1,140
160,244,37444,1,2
216,180,37615,1,0
248,256,37787,1,0
328,224,37958,6,0,B|408:224,2,70,4|0|0
272,160,38472,1,0
216,96,38644,2,0,B|120:96,2,70,0|0|0
304,96,39158,1,0
304,184,39329,6,0,B|472:184,2,140
216,184,40187,1,0
128,184,40358,2,0,B|56:152|72:64,1,140,2|0
152,72,40872,2,0,B|248:72,1,70
224,156,41215,2,0,B|224:228,1,70,0|0
408,88,41729,6,0,B|408:232,2,140
320,88,42587,2,0,B|256:88|168:88,1,140,2|0
256,192,43101,1,2
352,328,43444,2,0,B|304:272,1,70,0|2
440,192,43787,2,0,B|360:192,1,70,0|0
352,56,44129,2,0,B|304:112,1,70
216,48,44472,1,2
128,48,44644,1,2
40,48,44815,6,0,B|40:136|128:136,1,140,4|0
128,224,45329,2,0,B|208:224|208:128,1,140,0|2
288,112,45844,1,0
288,200,46015,1,0
372,200,46187,2,0,B|384:284|300:304,1,140,0|0
216,304,46701,2,0,B|144:304,2,70,2|0|2
216,216,47215,2,0,B|216:136,1,70,0|0
128,144,47558,6,0,B|96:216|144:304,1,140,0|0
200,232,48072,2,0,B|252:288,1,70,2|0
272,204,48415,2,0,B|344:204,1,70,2|0
452,332,48929,2,0,B|376:332|324:280,1,140,0|0
344,176,49444,2,0,B|424:176|472:228,1,140,2|0
376,264,49958,5,2
304,312,50129,1,2
248,248,50301,2,0,B|200:176|200:104,1,140
272,80,50815,2,0,B|352:80,2,70,2|2|0
304,160,51329,2,0,B|304:280|232:280,1,140,2|0
168,272,51844,2,0,B|168:192,2,70,2|2|0
248,304,52358,1,0
248,304,52529,1,2
328,272,52701,1,0
328,272,52872,1,0
328,272,53044,2,0,B|416:272,1,70,2|0
424,144,53387,6,0,B|360:96,1,70
352,176,53729,2,0,B|272:168,1,70,2|0
320,240,54072,2,0,B|264:288,1,70
208,228,54415,2,0,B|164:232|124:176|136:128,1,140
224,136,54929,2,0,B|224:64,2,70,2|2|0
308,136,55444,5,2
308,136,55615,1,0
384,176,55787,2,0,B|344:224|256:224,1,140,6|0
180,260,56302,2,0,B|136:200,1,70,2|0
208,156,56644,1,0
257,223,56816,1,0
312,288,56987,1,2
260,352,57158,2,0,B|184:360|128:312,1,140,2|0
248,144,57844,6,0,B|320:176|392:176,1,140,2|0
464,192,58358,1,2
432,272,58529,2,0,B|360:304|288:304,1,140,2|0
248,224,59044,2,0,B|216:240|180:224,1,70,2|0
248,152,59387,2,0,B|280:136|316:152,1,70,0|0
384,104,59729,6,0,B|344:36|261:44,1,140
266,44,60244,1,0
120,36,60587,1,2
36,144,60929,1,2
112,272,61272,6,0,B|192:320|272:320,1,140,6|0
244,232,61787,2,0,B|300:192,1,70,0|0
328,272,62129,2,0,B|384:232,1,70,2|0
468,192,62472,2,0,B|444:224|472:260,2,70,2|2|0
388,160,62987,2,0,B|412:124|380:92,2,70,2|2|0
296,192,63501,2,0,B|228:192,1,70,2|0
56,176,64015,5,0
256,328,64358,1,2
456,176,64701,1,0
256,56,65044,1,2
256,176,65387,2,0,B|256:264,2,70,0|0|4
160,40,66072,5,0
96,96,66244,1,0
160,152,66415,1,0
100,212,66587,1,0
100,212,66758,6,0,B|156:256|232:260,1,140,4|8
232,176,67272,2,0,B|312:176,1,70,2|2
312,260,67615,1,0
396,276,67787,1,8
432,200,67958,1,0
500,152,68129,6,0,B|492:56|388:72,1,140,2|8
376,148,68644,2,0,B|292:196|246:102,1,140,2|8
172,108,69158,1,8
128,180,69329,1,2
172,252,69502,2,0,B|219:335|307:277,1,140,2|8
308,208,70015,1,0
352,136,70187,1,0
404,200,70358,2,0,B|436:272|388:336,1,140,0|0
312,308,70872,2,0,B|240:268,1,70,8|0
180,320,71215,2,0,B|152:356|108:344,1,70,10|2
124,264,71558,1,0
116,180,71729,5,0
196,152,71901,1,8
240,224,72072,1,0
324,240,72244,2,0,B|420:224|428:136,1,140,6|10
344,136,72758,1,0
384,60,72930,2,0,B|292:25|241:98,1,140,0|10
172,104,73444,2,0,B|144:136|176:168,2,70,2|2|2
64,232,74129,2,0,B|88:312|184:328,1,140,2|2
212,256,74644,1,8
296,256,74815,1,0
408,168,74987,6,0,B|468:128,1,70,4|0
352,120,75329,2,0,B|380:52,1,70,8|0
288,92,75672,2,0,B|260:24,1,70,0|0
216,100,76015,2,0,B|160:60,1,70,8|4
128,136,76358,2,0,B|80:200|-8:168,1,140,0|8
112,296,77044,5,2
168,232,77215,1,0
224,296,77387,1,8
280,232,77558,1,0
336,296,77729,2,0,B|304:208|376:160,1,140,4|8
376,88,78244,1,0
296,104,78415,2,0,B|240:160|168:152,1,140,2|8
148,236,78929,6,0,B|92:212|68:260,2,70,2|0|0
216,80,79616,2,0,B|140:96|88:32,1,140
40,196,80301,2,0,B|44:320|172:336,1,210,6|8
200,260,80987,1,0
280,284,81158,1,2
296,200,81329,1,0
360,40,81672,6,0,B|288:40,1,70,0|2
324,116,82015,2,0,B|264:160,1,70,0|8
320,224,82358,2,0,B|264:272|184:232,1,140,2|0
120,188,82872,1,8
120,188,83044,1,0
168,120,83215,2,0,B|224:72|304:112,1,140,2|12
304,280,83901,6,0,B|400:280|440:224,2,140,0|8|0
240,224,84758,1,0
168,184,84929,1,10
204,108,85102,2,0,B|116:67|57:101,1,140
32,172,85615,2,0,B|32:244,1,70,8|2
112,216,85958,6,0,B|156:272,1,70
216,212,86301,2,0,B|284:232,1,70,8|0
300,316,86644,2,0,B|372:316|428:236,1,140,2|8
256,192,87329,12,4,88702
