osu file format v9

[General]
AudioFilename: MAD 10.mp3
AudioLeadIn: 2000
PreviewTime: 66074
Countdown: 0
SampleSet: Soft
StackLeniency: 0.7
Mode: 0
LetterboxInBreaks: 0

[Editor]
DistanceSpacing: 0.9
BeatDivisor: 4
GridSize: 4

[Metadata]
Title:Connect (TV Size)
Artist:irony
Creator:Guy
Version:Easy
Source:Puella Magi Madoka Magica
Tags:claris niconicodouga mami homura madoka sayaka kyoko

[Difficulty]
HPDrainRate:1
CircleSize:3
OverallDifficulty:1
ApproachRate:2
SliderMultiplier:0.7
SliderTickRate:1

[Events]
//Background and Video events
0,0,"BG.jpg"
Video,0,"madoka - magika.avi"
//Break Periods
//Storyboard Layer 0 (Background)
//Storyboard Layer 1 (Fail)
//Storyboard Layer 2 (Pass)
//Storyboard Layer 3 (Foreground)
//Storyboard Sound Samples
//Background Colour Transformations
3,100,163,162,255

[TimingPoints]
589,342.857142857143,4,2,0,40,1,0
1274,342.857142857143,4,2,0,40,1,0
11902,342.857142857143,4,2,0,40,1,0
33759,-100,4,2,0,50,0,0
33930,-100,4,2,0,40,0,0
44731,-100,4,2,0,50,0,0
44903,-100,4,2,0,40,0,0
66759,-100,4,2,0,60,0,1
88702,-100,4,2,0,40,0,0

[Colours]
Combo1 : 255,150,0
Combo2 : 5,240,5
Combo3 : 5,5,240
Combo4 : 240,5,5
Combo5 : 128,255,255

[HitObjects]
136,64,589,2,0,B|288:64,1,140,2|0
320,180,1960,2,0,B|252:180,1,70,2|0
188,180,2646,1,0
256,288,3331,1,0
384,288,4017,6,0,B|384:136,1,140,2|0
256,148,5389,1,0
156,68,6074,1,0
56,148,6760,6,0,B|56:292,1,140,2|0
164,220,8131,2,0,B|244:220,2,70,2|0|0
256,192,9503,12,4,11903
24,192,12587,6,0,B|84:336|256:324,1,280,2|0
364,280,14644,1,0
452,188,15330,1,0
452,92,15844,1,2
304,36,16702,6,0,B|256:96|180:80,1,140
64,128,18073,2,0,B|92:200|176:204,1,140,2|0
296,204,19444,1,0
256,192,20130,12,0,22187
328,80,23217,6,0,B|184:80,1,140,2|0
120,80,24245,2,0,B|120:232,1,140,2|0
176,248,25273,1,0
232,272,25616,6,0,B|232:192,1,70,0|8
260,144,26302,2,0,B|340:144,1,70,0|8
332,80,26988,1,0
244,44,27502,1,2
104,120,28359,6,0,B|104:248|232:264,1,210,2|0
288,264,29730,2,0,B|424:248|424:120,1,210,2|0
360,132,31102,5,0
256,60,31788,1,0
136,104,32473,2,0,B|72:152,1,70,0|8
60,208,33159,2,0,B|60:288,1,70,0|8
120,292,33845,6,0,B|272:292,1,140,4|0
304,248,34873,1,0
344,200,35216,2,0,B|200:200,1,140,2|0
104,124,36588,6,0,B|224:52,1,140,0|0
280,80,37616,1,8
336,112,37959,2,0,B|336:264,1,140,0|2
244,168,39330,6,0,B|244:240,1,70,0|8
184,260,40016,2,0,B|88:260,1,70,0|8
84,204,40702,2,0,B|84:132,1,70,0|8
128,92,41388,2,0,B|208:92,1,70,2|0
256,192,42073,12,4,43444
356,60,44816,6,0,B|256:32|148:60,1,210,4|0
148,124,46187,2,0,B|128:193|148:269,1,140,2|0
256,328,47559,1,0
364,264,48244,2,0,B|364:180,1,70,2|8
300,196,48930,2,0,B|232:196,2,70,2|8|0
328,72,50302,6,0,B|380:116,1,70,0|8
416,172,50988,2,0,B|416:244,1,70
364,276,51673,2,0,B|224:276,1,140,2|0
148,176,53045,2,0,B|292:176,1,140,2|0
400,116,54416,2,0,B|400:268,1,140,0|0
272,260,55788,5,4
212,148,56473,2,0,B|212:108|252:76,1,70,0|8
280,132,57159,2,0,B|352:132,2,70
156,144,58530,6,0,B|148:64|228:32,1,140,2|0
288,36,59559,1,0
344,64,59902,2,0,B|344:144,1,70,0|8
280,168,60588,2,0,B|200:168,1,70,0|8
148,168,61273,5,4
220,64,61959,1,0
292,168,62645,2,0,B|348:224,2,70,2|0|0
256,192,64016,12,0,65388
144,64,66760,6,0,B|80:124|148:184,1,140,4|0
192,228,67788,2,0,B|280:228,1,70,8|0
324,228,68473,2,0,B|324:140,1,70,0|0
324,96,69159,1,0
260,96,69502,6,0,B|180:96|180:200,1,140,6|8
64,240,70873,2,0,B|64:168,1,70,0|8
228,76,72245,6,0,B|300:76,1,70,0|8
300,140,72930,2,0,B|300:212,1,70,0|8
236,208,73616,1,2
236,144,73959,1,0
172,144,74302,1,2
172,16,74988,6,0,B|52:16|52:168,1,210,0|8
56,220,76359,2,0,B|208:220,1,140,2|8
320,192,77730,5,4
320,128,78073,1,8
320,64,78416,1,0
192,64,79102,6,0,B|192:136,1,70,0|8
192,200,79788,2,0,B|264:200,1,70,0|8
264,136,80473,2,0,B|416:136,1,140,2|8
360,256,81845,5,0
312,216,82188,1,8
264,176,82530,1,0
160,104,83216,2,0,B|160:184,1,70,0|8
160,240,83902,5,2
160,304,84245,2,0,B|312:304,1,140,8|8
304,240,85273,2,0,B|304:160,1,70,2|8
240,168,85959,2,0,B|168:168,3,70,0|8|0|8
256,192,87330,12,4,88701
