osu file format v7

[General]
AudioFilename: niconicochorus.mp3
AudioLeadIn: 0
PreviewTime: 68450
Countdown: 0
SampleSet: Normal
StackLeniency: 0.7
Mode: 0
LetterboxInBreaks: 1

[Editor]
Bookmarks: 32087,70450,82996,210996
DistanceSpacing: 1
BeatDivisor: 4
GridSize: 8

[Metadata]
Title:Meltdown
Artist:iroha feat. Kagamine Rin/NicoNico Chorus
Creator:ouranhshc
Version:Insane
Source:Vocaloid
Tags:Derekku Chan Krisom SeymourLyon

[Difficulty]
HPDrainRate:7
CircleSize:4
OverallDifficulty:8
SliderMultiplier:2
SliderTickRate:2

[Events]
//Background and Video events
0,0,"meltdown.jpg"
//Break Periods
2,92644,101876
//Storyboard Layer 0 (Background)
//Storyboard Layer 1 (Fail)
//Storyboard Layer 2 (Pass)
//Storyboard Layer 3 (Foreground)
//Storyboard Sound Samples
//Background Colour Transformations
3,100,95,95,95

[TimingPoints]
7355,363.636363636364,4,1,0,79,1,0
8900,-100,4,1,2,80,0,0
20355,-100,4,2,0,100,0,0
20809,-100,4,1,2,80,0,0
21445,-100,4,2,1,100,0,0
21627,-100,4,1,2,79,0,0
23264,-100,4,2,0,100,0,0
23718,-100,4,1,2,81,0,0
24355,-100,4,2,1,100,0,0
24536,-100,4,1,2,80,0,0
26082,-100,4,2,0,100,0,0
26627,-100,4,1,2,80,0,0
28991,-100,4,2,0,100,0,0
29536,-100,4,1,2,81,0,0
30173,-100,4,2,1,100,0,0
30355,-100,4,1,2,81,0,0
30900,-100,4,2,1,100,0,0
31082,-100,4,1,2,79,0,0
31627,-100,4,2,0,100,0,0
33082,-100,4,1,2,91,0,0
37536,-100,4,2,0,100,0,0
38809,-100,4,1,2,90,0,0
45445,-100,4,2,1,90,0,0
45627,-100,4,1,2,90,0,0
51264,-100,4,2,1,90,0,0
51445,-100,4,1,2,90,0,0
65264,-200,4,1,0,0,0,0
65355,-200,4,2,0,0,0,0
67900,-100,4,1,2,100,0,0
69172,363.636363636364,4,1,2,100,1,0
77444,-100,4,2,1,100,0,0
77626,-100,4,1,2,100,0,0
92262,-100,4,2,0,100,0,0
92626,-100,4,1,2,100,0,0
102535,-100,4,1,2,89,0,0
123262,-100,4,2,1,90,0,0
123444,-100,4,1,2,91,0,0
137990,-200,4,1,0,0,0,0
139717,-100,4,1,2,100,0,0
141172,363.636363636364,4,1,2,100,1,0
155264,-100,4,2,1,100,0,0
155445,-100,4,1,2,100,0,0
162536,-100,4,2,1,100,0,0
162718,-100,4,1,2,100,0,0
164264,-100,4,2,0,100,0,0

[Colours]
Combo1 : 255,247,183
Combo2 : 225,255,255
Combo3 : 255,187,250
Combo4 : 254,186,186

[HitObjects]
88,56,7355,1,0
88,152,7536,1,0
176,104,7718,2,0,B|232:104,2,50
224,192,8082,2,0,B|280:192,7,50
328,192,8809,5,4
400,264,8991,1,0
344,352,9173,1,8
344,352,9355,2,0,B|264:368|264:368|192:352|176:288,1,200
272,272,9900,1,8
200,200,10082,2,0,B|280:184|280:184|352:200|368:264,1,200
272,272,10627,1,8
344,352,10809,2,0,B|264:368|264:368|192:352|176:288,1,200
88,248,11355,1,8
56,152,11536,1,0
112,64,11718,6,0,B|160:32|208:64,1,100
160,152,12082,1,8
160,256,12264,2,0,B|232:256|232:256|280:200|256:128,1,200
160,152,12809,1,8
160,256,12991,2,0,B|88:256|88:256|40:200|64:128,1,200
160,152,13536,1,8
256,128,13718,2,0,B|232:80|232:80|160:40|80:80,1,200
48,168,14264,1,8
64,264,14445,1,0
144,320,14627,6,0,B|192:352|240:320,2,100,0|0|8
192,232,15173,2,0,B|144:208|144:208|128:136|176:96|224:96,1,200
256,192,15718,1,8
301,97,15900,2,0,B|336:96|384:136|368:208|368:208|320:232,1,200
256,304,16445,1,8
360,312,16627,2,0,B|448:272|448:272|464:208|456:160,1,200
424,72,17173,1,8
336,16,17355,1,0
256,72,17536,6,0,B|288:120|256:168,1,100
176,224,17900,1,8
184,120,18082,2,0,B|112:120|56:184|80:280,1,200
136,336,18627,1,8
232,320,18809,2,0,B|297:282|303:197|252:146,1,200
256,48,19355,1,8
352,24,19536,1,0
448,48,19718,1,0
448,152,19900,2,0,B|400:184|352:152,1,100,0|8
256,152,20264,1,0
168,104,20445,5,4
168,280,20627,1,4
456,192,21173,5,0
440,288,21355,2,0,B|376:248|376:248|336:176|392:120,1,200
456,192,21900,2,0,B|501:147|461:75|461:75|397:35,1,200,0|8
296,24,22445,1,0
240,104,22627,1,0
240,208,22809,1,0
296,288,22991,1,8
392,312,23173,1,0
488,280,23355,5,4
488,104,23536,1,4
200,24,24082,5,0
104,64,24264,2,0,B|104:120|104:120|0:120|24:232,1,200
104,256,24809,2,0,B|104:200|104:200|208:200|184:88,1,200,0|8
256,192,25355,1,0
208,280,25536,1,0
256,368,25718,1,0
304,280,25900,1,8
344,40,26264,5,4
168,40,26445,1,4
88,328,26991,5,0
40,240,27173,1,0
88,152,27355,1,8
136,240,27536,2,0,B|184:200|184:200|240:248|312:192,1,200
240,120,28082,1,8
168,48,28264,2,0,B|237:-6|293:41|293:41|341:1,1,200
440,32,28809,1,8
408,280,29173,5,4
408,104,29355,1,4
256,360,29900,5,0
160,336,30082,2,0,B|104:272|104:272|104:200|184:192,1,200
256,248,30627,1,0
339,193,30809,2,0,B|408:200|408:272|408:272|352:336,1,200
256,360,31355,1,4
8,192,31900,5,2
112,192,32082,1,6
504,192,32627,5,2
400,192,32809,1,2
256,32,33355,5,0
192,104,33536,1,0
104,160,33718,1,0
8,192,33900,1,8
104,224,34082,1,0
192,280,34264,1,0
256,352,34445,1,0
320,280,34627,1,8
408,224,34809,1,0
504,192,34991,6,0,B|456:144|456:144|416:128|376:144|376:144|336:184,1,200,0|8
256,128,35536,1,0
176,184,35718,2,0,B|139:147|139:147|99:131|59:147|59:147|11:195,1,200,0|8
104,240,36264,2,0,B|168:288|168:288|232:280|280:200,1,200
360,192,36809,1,8
432,128,36991,2,0,B|368:80|368:80|304:88|256:168,1,200
104,40,37718,5,2
104,144,37900,1,2
408,344,38445,5,2
408,240,38627,1,2
128,264,39173,5,0
192,344,39355,1,0
192,184,39536,1,0
256,264,39718,1,8
320,344,39900,1,0
320,184,40082,1,0
384,264,40264,1,0
448,344,40445,1,8
448,184,40627,1,0
472,88,40809,6,0,B|416:112|416:112|368:0|280:32,1,200,0|8
256,104,41355,1,0
194,24,41536,2,0,B|144:0|96:112|96:112|40:88,1,200,0|8
56,192,42082,2,0,B|128:272|256:240,1,200
328,192,42627,1,8
64,336,43173,5,0
160,360,43354,1,8
256,336,43536,1,0
184,264,43718,2,0,B|232:232|232:232|312:232|352:304,1,200,4|8
440,248,44264,2,0,B|472:200|440:152,1,100
352,200,44627,1,0
352,96,44809,1,8
256,88,44991,2,0,B|272:144|272:144|320:208|424:168,2,200
64,48,46082,5,0
144,112,46264,1,8
120,208,46445,1,0
24,232,46627,2,0,B|40:288|40:288|128:328|184:288,1,200,0|8
256,112,47354,1,0
256,208,47536,1,0
256,112,47718,1,8
320,40,47900,2,0,B|432:56|464:208,1,200
432,272,48445,1,8
352,328,48627,1,0
152,352,48991,5,0
232,288,49173,1,8
152,224,49354,1,0
80,288,49536,2,0,B|32:216|80:128|168:128,1,200,4|8
240,152,50082,1,0
200,56,50264,1,0
296,80,50445,2,0,B|344:56|408:72,1,100,0|8
456,152,50809,2,0,B|448:256|312:272,2,200
256,192,51900,5,0
144,192,52082,1,8
200,272,52264,1,0
112,312,52445,2,0,B|160:368|240:368|296:312,2,200,0|8|0
40,240,53354,1,0
40,144,53536,1,8
112,72,53718,2,0,B|168:48|168:48|248:64|240:160,1,200
144,160,54264,1,8
112,72,54445,1,0
312,32,54809,6,0,B|368:32|400:96,2,100,0|8|0
312,136,55354,2,0,B|360:184|360:184|416:144|488:192,1,200,4|8
416,256,55900,1,0
416,352,56082,1,0
328,304,56264,2,0,B|296:256|328:208,2,100,0|8|0
224,304,56809,1,0
152,240,56991,1,0
64,192,57173,2,0,B|32:240|64:288,1,100,8|0
256,48,57718,5,0
200,128,57900,1,8
312,128,58082,1,0
256,48,58264,1,0
56,24,58627,2,0,B|16:120|96:216,1,200,8|0
168,272,59173,1,0
256,232,59354,1,8
256,328,59536,2,0,B|320:328|376:272|344:184,1,200
256,136,60082,1,8
168,184,60264,1,0
168,272,60445,6,0,B|160:328|192:368,1,100,8|0
344,272,60809,2,0,B|352:328|320:368,1,100,8|8
256,288,61173,6,0,B|224:216|224:216|288:216|288:216|256:136,1,200,4|8
256,64,61718,1,0
168,112,61900,2,0,B|136:64|168:16,1,100
345,18,62264,2,0,B|375:63|343:111,1,100,8|0
256,160,62627,2,0,B|224:208|160:208,2,100,0|0|8
344,208,63173,1,0
184,328,63536,6,0,B|80:328,2,100,0|8|0
184,224,64082,2,0,B|128:224|128:224|64:168|120:88,2,200,0|8|0
184,120,64991,1,0
256,48,65173,1,8
328,120,65354,6,0,B|328:160|328:160|360:160|384:216,1,100
288,248,65900,1,0
256,192,66082,12,0,67536
328,48,68445,5,0
184,48,68627,1,0
256,120,68809,1,0
256,120,68900,1,0
256,120,68991,1,0
256,216,69172,6,0,B|200:240|200:240|120:240|96:144,1,200,4|8
200,136,69717,1,0
256,216,69899,2,0,B|312:192|312:192|392:192|416:288,1,200,0|8
312,296,70444,1,0
256,376,70626,2,0,B|200:376|200:376|200:288|104:264,1,200,0|8
120,368,71171,2,0,B|48:368|48:368|16:312|32:208,1,200
256,192,71717,12,0,72808
192,120,72990,5,0
320,120,73171,1,8
256,264,73353,1,0
160,248,73535,2,0,B|168:192|168:192|320:192,1,200,4|8
352,280,74081,2,0,B|344:336|344:336|192:336,1,200,4|0
232,240,74626,1,8
256,144,74808,2,0,B|176:64|64:136,1,200,4|0
160,184,75353,2,0,B|184:64|288:40,1,200,8|0
376,72,75899,5,0
456,136,76081,1,8
456,240,76262,1,0
376,304,76444,2,0,B|272:336|224:264|224:264|224:224,1,200,0|8
256,136,76990,1,0
80,40,77353,6,0,B|32:80|48:144|48:144|136:144,1,200
192,64,77899,1,0
256,136,78081,1,0
320,64,78262,1,8
432,40,78444,2,0,B|480:80|464:144|464:144|376:144,1,200
320,232,78990,1,8
192,232,79171,1,0
192,336,79353,6,0,B|144:368|96:336,1,100,4|0
144,248,79717,2,0,B|192:216|240:248,1,100,8|0
320,336,80081,2,0,B|368:368|416:336,1,100,0|0
368,248,80444,2,0,B|320:216|272:248,1,100,8|8
256,152,80808,5,4
448,88,81171,1,8
256,32,81535,2,0,B|328:64|328:64|368:112|352:200,1,200,0|8
288,256,82081,1,0
360,328,82262,1,0
432,256,82444,2,0,B|328:256,1,100,0|8
232,256,82808,2,0,B|128:208|136:88,1,200
232,56,83353,1,8
328,40,83535,6,0,B|440:64|432:200,1,200
504,256,84081,2,0,B|464:296|464:296|392:296|336:216,1,200,8|0
304,136,84626,1,0
256,48,84808,1,8
208,136,84990,1,0
128,80,85171,2,0,B|104:144|104:144|120:224|232:240,1,200,4|8
208,136,85717,2,0,B|281:143|297:223|297:223|273:287,1,200,4|0
192,344,86262,1,8
96,312,86444,2,0,B|48:216|112:112,1,200,4|0
176,48,86990,1,8
376,56,87353,1,0
280,96,87535,6,0,B|208:168,1,100,0|8
256,256,87899,1,0
352,224,88081,2,0,B|312:144|240:136|176:192,1,200,0|8
160,280,88626,1,0
352,336,88990,6,0,B|456:336,2,100,0|8|0
256,312,89535,2,0,B|168:224|216:120,1,200,4|8
256,40,90081,1,0
312,120,90262,1,0
256,200,90444,2,0,B|208:232|160:200,1,100,0|8
120,112,90808,1,0
56,192,90990,5,4
120,272,91171,1,0
208,312,91353,1,8
304,312,91535,1,0
392,272,91717,1,8
456,192,91899,1,8
256,192,92081,5,8
256,192,92444,5,4
184,144,102626,6,0,B|152:192|184:240,1,100
328,144,102990,2,0,B|360:192|328:240,1,100
256,56,103535,5,0
256,56,103626,1,0
256,56,103717,1,0
256,160,103899,5,0
256,264,104081,1,4
144,96,104444,1,8
56,40,104626,5,0
32,136,104808,2,0,B|64:240|192:256,1,200,0|8
136,344,105353,1,0
72,264,105535,2,0,B|128:176,1,100
208,120,105899,2,0,B|256:88|304:120,1,100,8|0
386,179,106262,2,0,B|440:264,1,100
352,304,106626,1,8
256,328,106808,1,0
160,304,106990,1,0
256,128,107353,1,8
256,16,107535,5,0
176,80,107717,2,0,B|224:112|224:112|296:128|368:32,1,200,0|8
440,104,108262,2,0,B|376:192|272:208,1,200
176,184,108808,1,8
176,288,108990,1,0
456,336,109717,6,0,B|488:288|456:240,1,100
360,64,110262,1,8
256,24,110444,6,0,B|256:128,1,100
144,288,110990,1,8
56,336,111171,6,0,B|24:288|56:240,1,100
144,288,111535,1,0
232,336,111717,2,0,B|264:288|232:240,1,100,8|0
144,192,112081,2,0,B|144:88,2,100,0|0|8
64,136,112626,1,0
72,40,112808,2,0,B|112:8|112:8|184:0|232:48|232:104,1,200,0|8
256,176,113353,1,0
283,78,113535,2,0,B|280:48|328:0|400:8|400:8|440:40,1,200,0|8
368,112,114081,2,0,B|424:184|496:144|496:144|496:224,1,200
496,296,114626,1,8
200,344,115171,5,0
312,288,115353,1,8
200,232,115535,1,0
312,168,115717,2,0,B|272:168|272:168|232:120|168:120|112:168,1,200,4|8
96,248,116262,2,0,B|104:312|176:328,1,100
256,320,116626,1,0
304,232,116808,1,8
200,232,116990,2,0,B|208:160|272:112|352:144,1,200
280,64,117535,1,8
168,40,117717,1,0
64,40,117899,1,0
40,136,118081,6,0,B|8:184|40:232,1,100,0|8
128,184,118444,1,0
152,280,118626,2,0,B|232:240|232:160|192:112,2,200,0|8|0
208,360,119535,1,0
256,272,119717,1,8
304,360,119899,2,0,B|360:360|360:360|424:328|416:232,1,200
328,192,120444,1,8
416,147,120626,2,0,B|424:56|360:24|360:24|304:24,1,200
256,112,121171,5,8
152,112,121353,1,0
112,24,121535,2,0,B|64:56|64:56|16:128|88:192,1,200,0|8
24,272,122081,1,0
136,272,122262,2,0,B|192:240|184:184,2,100,0|0|8
88,360,122808,2,0,B|168:376|168:376|232:352|256:280,2,200
200,192,123899,5,0
256,112,124081,1,8
312,192,124262,1,0
256,272,124444,2,0,B|312:296|312:296|392:280|408:192,1,200,0|8
312,192,124990,2,0,B|328:280|416:312|480:264,1,200
512,192,125535,1,8
496,96,125717,2,0,B|472:40|408:32,1,100,0|8
320,24,126081,1,0
256,96,126262,1,8
192,24,126444,1,0
256,96,126626,1,8
256,216,126808,6,0,B|256:320,2,100,0|8|0
176,280,127353,2,0,B|176:184|176:184|200:128|264:128,1,200,4|8
336,184,127899,1,0
336,288,128081,2,0,B|384:320|432:288,1,100
472,200,128444,1,8
456,104,128626,1,0
376,40,128808,2,0,B|328:8|280:40,1,100
184,40,129171,1,8
184,40,129353,1,0
168,240,129717,5,0
56,240,129899,1,8
168,240,130081,1,0
112,160,130262,2,0,B|184:152|184:152|256:168|264:256,2,200,4|8|0
104,56,131171,1,0
208,56,131353,1,8
288,112,131535,6,0,B|328:168|328:168|328:232|272:288,1,200
176,304,132081,1,8
80,280,132262,1,0
32,192,132444,2,0,B|80:160|128:192,1,100
80,104,132808,1,8
160,48,132990,1,0
200,144,133171,6,0,B|224:96|224:96|280:64|376:96,1,200,4|8
288,160,133717,1,0
384,192,133899,2,0,B|352:248|288:264,1,100
208,256,134262,1,8
264,336,134444,2,0,B|320:352|320:352|376:336|440:264,1,200
472,176,134990,1,8
448,80,135171,1,0
256,40,135535,6,0,B|256:144,2,100,0|8|0
152,40,136081,2,0,B|152:184|152:184|184:216|232:224,1,200,0|8
256,140,136626,1,0
356,140,136808,2,0,B|356:242,1,100
256,240,137171,2,8,B|256:344,1,100
356,340,137535,5,8
256,340,137717,1,0
156,340,137899,1,8
256,192,138081,12,0,139535
168,336,140444,5,0
344,336,140626,1,0
256,280,140808,2,0,B|256:224,2,50
256,152,141172,6,0,B|200:160|168:112,1,100,4|0
256,64,141535,2,0,B|216:24|216:24|144:8|96:32|80:96,2,200,8|0|8
352,32,142444,1,0
408,112,142626,2,0,B|408:168|408:168|368:232|256:232,1,200,0|8
283,153,143171,2,0,B|368:152|408:216|408:216|408:272,1,200
336,344,143717,1,8
256,288,143899,1,0
160,320,144081,6,0,B|112:352|64:320,1,100
64,224,144444,2,0,B|112:192|160:224,1,100,8|0
256,192,144808,1,0
216,104,144990,6,0,B|152:88|144:24,2,100,0|8|0
256,16,145535,2,0,B|320:16|320:16|376:48|336:104|336:104|288:104,1,200,4|8
304,208,146081,2,0,B|360:208|360:208|416:184|456:120|440:72,1,200,4|0
344,96,146626,1,8
256,136,146808,2,0,B|216:168|216:168|192:240|240:288|296:296,1,200,4|0
368,288,147353,5,8
312,368,147535,1,0
200,368,147717,1,0
144,288,147899,6,0,B|40:288,2,100,0|8|0
208,216,148444,2,0,B|152:216|152:216|88:160|120:80,1,200,0|8
208,40,148990,1,0
384,128,149353,6,0,B|280:128,2,100,0|8|0
480,160,149899,2,0,B|424:216|424:216|296:216,1,200,0|8
209,216,150444,2,0,B|88:216|88:216|32:160,1,200
128,128,150990,6,0,B|232:128,2,100,8|0|4
32,144,151535,1,0
64,48,151717,1,8
160,8,151899,1,0
256,0,152081,1,8
352,8,152262,1,0
448,48,152444,1,8
480,144,152626,1,8
312,192,152808,6,0,B|368:192|368:192|400:160|368:104|368:104|312:104,1,200,4|8
256,24,153353,1,0
193,104,153535,2,0,B|144:104|144:104|112:160|144:192|144:192|200:192,1,200,0|8
256,272,154081,1,0
304,360,154262,2,0,B|256:392|208:360,2,100,0|0|8
352,272,154808,2,0,B|408:272|408:272|456:208|408:128,2,200
352,168,155717,5,0
304,72,155899,1,0
208,72,156081,1,8
160,168,156262,1,0
256,168,156444,1,0
208,256,156626,6,0,B|160:288|112:256,1,100,0|8
64,168,156990,1,0
88,72,157171,2,0,B|168:88|168:88|224:136|200:200,1,200,4|8
309,194,157717,2,0,B|288:136|344:88|344:88|424:72,1,200,4|0
472,160,158262,1,8
400,224,158444,1,0
368,320,158626,6,0,B|360:376|288:384,1,100,4|0
144,320,158990,2,0,B|152:376|224:384,1,100,8|0
256,288,159353,1,0
256,192,159535,6,0,B|256:88,2,100,0|8|0
328,128,160081,2,0,B|328:64|328:64|288:8|240:0|184:56,1,200,4|8
184,128,160626,1,0
112,312,160990,5,0
200,360,161171,1,8
312,360,161353,1,0
400,312,161535,2,0,B|368:256|304:256,1,100
256,184,161899,1,8
192,256,162081,2,0,B|136:224|136:224|128:168|160:128|160:128|216:128,2,200
320,280,162990,5,4
368,192,163171,1,0
320,104,163353,1,8
192,104,163535,1,0
144,192,163717,1,8
192,280,163899,1,8
256,192,164081,1,8
256,48,164444,5,4
