osu file format v9

[General]
AudioFilename: Diabolic Theater - Trickster.mp3
AudioLeadIn: 3000
PreviewTime: 54664
Countdown: 0
SampleSet: Soft
StackLeniency: 0.3
Mode: 0
LetterboxInBreaks: 1
EpilepsyWarning: 1

[Editor]
Bookmarks: 1498,12164,22831,44164,54831,76164,81498,92164,102831,116164,137498,148164,169498,182831,189498
DistanceSpacing: 0.7
BeatDivisor: 4
GridSize: 4

[Metadata]
Title:Trickster
Artist:iojjj
Creator:Giffen
Version:Normal
Source:Umineko no Naku Koro ni
Tags:lye

[Difficulty]
HPDrainRate:3
CircleSize:4
OverallDifficulty:3
ApproachRate:3
SliderMultiplier:1
SliderTickRate:2

[Events]
//Background and Video events
0,0,"BG.png"
//Break Periods
2,78531,80058
//Storyboard Layer 0 (Background)
//Storyboard Layer 1 (Fail)
//Storyboard Layer 2 (Pass)
//Storyboard Layer 3 (Foreground)
//Storyboard Sound Samples
//Background Colour Transformations
3,100,0,0,0

[TimingPoints]
165,333.333333333333,4,2,1,70,1,0
27498,-100,4,2,2,70,0,0
27581,-100,4,2,1,70,0,0
54831,-100,4,2,1,80,0,1
65331,-100,4,2,1,80,0,0
65498,-100,4,2,1,80,0,1
76164,-100,4,2,1,70,0,0
86164,-100,4,2,2,70,0,0
86248,-100,4,2,1,70,0,0
116164,-100,4,2,1,80,0,1
147998,-100,4,2,1,80,0,0
148164,-100,4,2,1,80,0,1
158664,-100,4,2,1,80,0,0
158831,-100,4,2,1,80,0,1
174831,-100,4,2,1,80,0,0

[Colours]
Combo1 : 255,147,255
Combo2 : 181,106,255
Combo3 : 242,0,0

[HitObjects]
208,144,1498,2,0,B|144:144|144:144|72:168|56:252,2,200,2|2|2
308,240,3498,2,0,B|372:240|372:240|444:216|460:132,2,200,2|2|2
220,124,5498,6,0,B|256:80|324:80,1,100,2|2
372,108,6164,1,2
316,152,6498,2,0,B|316:256,1,100,0|2
316,320,7164,1,0
252,288,7498,2,0,B|48:288,1,200
256,192,8831,12,2,11498
320,96,12164,6,0,B|216:96,1,100,12|0
184,160,12831,2,0,B|196:220|256:248,1,100,12|0
272,176,13498,2,0,B|380:216|380:336,1,200,12|8
308,328,14498,1,8
232,328,14831,6,0,B|132:328,1,100,12|0
72,284,15498,2,0,B|72:176,1,100,12|0
120,132,16164,2,0,B|172:116|220:132,1,100,12|0
200,200,16831,2,0,B|252:212|304:200,1,100,8|0
352,152,17498,6,0,B|352:48,1,100,12|0
424,52,18165,2,0,B|480:72|484:148,1,100,12|0
460,196,18831,2,0,B|351:195,2,100,12|8|8
460,196,19831,1,0
452,268,20164,6,0,B|432:316|356:332,1,100,12|0
356,260,20831,2,0,B|273:203,1,100,8|0
272,204,21498,1,12
204,236,21831,2,0,B|148:252|128:312,2,100,2|2|2
272,204,22831,6,0,B|272:92,1,100,12|0
212,64,23498,2,0,B|160:48|104:64,1,100,8|0
128,132,24164,1,12
56,112,24498,2,0,B|40:164|64:212,2,100,0|8|0
128,132,25498,6,0,B|148:88|132:32,2,100,12|0|8
96,196,26498,2,0,B|96:296,1,100,0|12
160,328,27164,2,0,B|208:312|268:352|324:324,1,150,0|0
256,240,28164,6,0,B|360:240,2,100,12|0|8
256,168,29164,2,0,B|196:168|152:224,2,100,0|12|0
256,168,30164,1,8
328,168,30498,2,8,B|427:168,3,100,8|12|0|8
256,192,31664,12,0,32831
128,144,33498,6,0,B|228:144,1,100,12|0
272,204,34164,2,0,B|324:216|376:204,1,100,8|0
360,136,34831,2,0,B|360:32,1,100,12|0
288,36,35498,1,8
248,96,35831,2,0,B|116:96,1,100,0|8
88,136,36498,5,0
144,184,36831,2,0,B|152:240|216:272,1,100,8|2
244,208,37498,2,0,B|348:208,1,100,14|8
392,156,38164,2,0,B|496:156,2,100,0|0|14
320,156,39164,6,0,B|266:167|246:219,3,100,2|10|2|12
248,219,40498,1,0
176,220,40831,2,0,B|176:328,2,100,0|0|14
124,168,41831,2,0,B|-4:168,2,100,2|10|10
256,192,42664,12,4,44164
356,156,44831,6,0,B|256:156,1,100,12|0
184,156,45498,1,8
220,220,45831,2,0,B|208:272|148:304,1,100,0|8
92,296,46498,1,0
124,232,46831,1,8
72,184,47164,1,0
72,184,47498,2,0,B|28:152|20:96,2,100,0|0|8
168,80,48831,5,0
244,80,49165,1,0
316,80,49498,2,0,B|428:80,2,100,8|0|8
316,80,50498,1,0
280,144,50831,1,8
236,204,51164,2,0,B|188:216|136:204,1,100,0|8
68,204,51831,1,8
256,192,52165,12,8,53498
168,144,54164,6,0,B|271:144,1,100,8|8
340,148,54831,6,0,B|336:200|288:244,1,100,12|0
224,224,55498,2,8,B|172:212|108:224,1,100
68,268,56165,2,0,B|68:376,2,100,8|8|12
68,128,57498,6,0,B|167:128,1,100,12|0
216,184,58164,2,0,B|208:240|156:264,2,100,8|0|12
272,136,59164,2,0,B|320:128|388:136,1,100,12|12
380,248,60165,5,12
380,248,60498,2,0,B|268:248,1,100,0|8
208,256,61164,1,8
156,204,61498,2,0,B|180:152|244:148,1,100,12|0
304,148,62165,1,12
428,84,62831,5,12
392,148,63164,2,0,B|342:148,1,50,8|8
316,84,63664,2,0,B|265:83,1,50,8|12
216,136,64164,1,12
160,184,64498,2,0,B|108:208|104:268,2,100,8|0|8
228,204,65498,6,0,B|328:204,1,100,12|8
380,156,66164,2,0,B|432:180|451:244,1,100,12|8
445,227,66831,1,12
408,288,67164,1,8
336,268,67498,2,0,B|276:248|276:248|232:320|144:272,1,200,12|8
88,252,68498,5,8
88,180,68831,1,12
124,80,69331,2,0,B|72:68|24:80,2,100,12|12|12
184,120,70331,2,0,B|283:120,1,100,8|8
180,227,71164,6,8,B|208:280|276:300,1,100,8|0
292,232,71831,2,0,B|352:236|392:280,1,100,8|0
444,240,72498,6,0,B|444:184,1,50,8|0
500,148,72998,2,0,B|500:84,1,50,0|8
444,56,73498,5,4
376,76,73831,1,4
308,56,74165,1,4
240,76,74498,1,4
240,76,74831,1,4
200,136,75165,1,4
132,160,75498,1,4
92,220,75831,1,4
256,192,76165,12,0,78331
308,144,81498,6,0,B|188:144,1,100,12|0
136,144,82164,1,12
88,200,82498,1,0
164,212,82831,2,0,B|220:224|240:292,2,100,12|0|8
212,80,84164,6,0,B|160:64|104:80,2,100,12|0|8
284,80,85164,1,0
356,80,85498,1,12
444,140,85998,2,0,B|428:192|380:228,1,100
308,288,86831,6,0,B|204:288,2,100,12|0|8
380,288,87831,1,0
380,288,88164,2,0,B|436:268|440:200,1,100,12|0
480,156,88831,1,8
436,100,89164,1,0
368,120,89498,2,0,B|248:120,1,100,12|0
220,176,90164,2,0,B|220:276,2,100,12|0|12
360,228,92164,6,0,B|308:244|240:224,1,100,12|0
220,288,92831,2,0,B|172:308|100:284,1,100,12|0
64,248,93498,1,0
128,208,93831,1,8
168,148,94164,2,8,B|220:144|278:183,1,100,8|8
336,172,94831,6,0,B|336:324,1,150,12|8
268,344,95664,2,0,B|220:352|168:344,1,100,12|0
108,304,96331,2,8,B|40:304,1,50,8|12
8,252,96831,2,0,B|24:200|84:188,1,100,8|8
140,148,97498,6,0,B|240:148,1,100,12|0
276,88,98164,1,4
344,116,98498,1,0
344,188,98831,6,0,B|444:188,1,100,12|0
444,188,99498,1,0
496,236,99831,1,8
444,288,100164,2,0,B|396:304|328:288,1,100,12|8
280,260,100831,1,0
208,260,101164,1,8
256,192,101498,12,12,102831
88,192,103498,5,8
160,192,103831,1,0
232,192,104164,2,0,B|340:192,1,100,8|0
408,192,104831,2,0,B|464:180|480:124,1,100,8|0
408,116,105498,2,0,B|384:72|316:48,1,100,8|0
260,52,106164,1,8
292,116,106498,1,0
220,112,106831,1,12
252,176,107164,1,0
176,172,107498,6,0,B|68:172,1,100,8|8
28,224,108164,1,12
96,244,108498,2,0,B|156:284,1,50,8|0
236,236,109164,2,0,B|344:236,1,100,8|0
364,300,109831,2,0,B|420:340,1,50,8|0
480,256,110498,5,8
256,192,110664,12,8,112831
256,192,113498,12,14,116164
296,144,116831,2,0,B|192:144,1,100,12|0
152,200,117498,2,0,B|172:248|236:280,2,100,8|0|12
268,120,118831,5,12
324,164,119164,2,0,B|384:180|396:240,1,100,0|12
394,229,119831,1,8
344,280,120164,2,0,B|372:332|444:332,1,100,12|8
472,280,120831,2,0,B|472:220,1,55,8|8
436,132,121498,5,12
380,88,121831,1,0
308,88,122164,2,0,B|192:88,1,100,8|8
148,124,122831,2,0,B|136:176|80:196,1,100,12|8
12,196,123498,1,12
112,296,124164,5,12
176,264,124498,2,0,B|228:264,1,50,0|12
284,224,124998,2,12,B|284:164,1,50,0|12
328,116,125498,1,12
400,120,125831,2,0,B|448:220|400:320,1,200,8|8
332,312,126831,5,12
284,260,127164,1,0
240,204,127498,1,12
196,148,127831,2,0,B|144:132|84:152,2,100,8|4|12
248,100,128831,2,0,B|354:100,1,100,12|8
420,100,129498,5,12
420,100,129831,1,8
420,168,130164,2,0,B|380:272|244:272,1,200,8|12
160,272,131331,1,4
112,220,131664,2,0,B|112:104,1,100,4|12
160,28,132498,5,8
216,68,132831,1,0
216,140,133164,2,0,B|324:140,1,100,8|0
388,140,133831,2,0,B|448:140|480:208,2,100,8|0|8
348,200,134831,5,4
280,220,135164,1,4
212,196,135498,1,4
148,224,135831,1,4
212,196,136164,1,4
220,128,136498,1,4
280,92,136831,1,4
304,28,137164,1,4
256,192,137498,12,8,138831
168,196,139664,1,0
228,156,139998,1,8
276,208,140331,1,0
348,208,140664,1,8
404,120,141164,5,8
456,168,141498,2,0,B|456:288,2,100,8|0|8
476,100,142498,1,0
424,52,142831,2,0,B|308:52,1,100,8|8
272,100,143498,2,0,B|284:148|328:180,2,100,8|0|8
100,80,144998,6,0,B|109:179,1,100,0|8
176,208,145664,2,0,B|224:236|296:228,1,100,0|8
272,160,146331,2,0,B|320:144|388:164,1,100,0|8
256,192,146831,12,12,148164
340,112,148831,2,0,B|304:216,1,100,12|0
244,176,149498,2,0,B|132:176,2,100,8|0|12
352,88,150831,5,8
388,148,151164,1,0
352,208,151498,1,12
388,268,151831,1,0
344,324,152164,2,0,B|296:344|224:320,1,100,12|8
232,256,152831,2,0,B|304:256,1,50,8|12
236,160,153498,6,0,B|132:160,1,100,12|0
80,204,154164,2,0,B|64:256|88:308,1,100,12|0
152,284,154831,2,0,B|176:332|236:336,1,100,4|8
292,300,155498,1,12
380,192,156164,5,12
324,148,156498,2,0,B|244:148,1,55,0|12
200,148,156998,2,0,B|124:148,1,55,12|0
96,200,157498,1,8
164,220,157831,2,0,B|280:252,2,100,12|0|8
128,280,158831,5,12
172,336,159164,1,0
240,324,159498,1,8
308,340,159831,1,8
356,288,160164,2,0,B|408:272|464:292,1,100,12|8
480,224,160831,1,0
444,164,161164,1,8
476,100,161498,5,8
448,36,161831,1,8
384,64,162164,2,8,B|296:80|280:168,1,150,8|8
236,212,162998,1,4
236,280,163331,1,4
236,348,163664,2,0,B|120:348,1,100,4|8
84,256,164498,6,0,B|192:256,1,100,8|0
256,256,165165,2,0,B|316:256|348:200,1,100,8|0
348,140,165831,6,8,B|288:140,1,50,0|8
272,76,166331,2,0,B|204:76,1,50,0|8
152,76,166831,5,4
108,132,167165,1,4
136,196,167498,1,4
204,184,167831,1,4
252,132,168165,1,4
320,152,168498,1,4
376,112,168831,1,4
368,44,169165,1,4
256,192,169498,12,0,170831
