osu file format v9

[General]
AudioFilename: Diabolic Theater - Trickster.mp3
AudioLeadIn: 3000
PreviewTime: 54664
Countdown: 0
SampleSet: Soft
StackLeniency: 0.3
Mode: 0
LetterboxInBreaks: 1
EpilepsyWarning: 1

[Editor]
Bookmarks: 1498,12164,22831,44164,54831,76164,81498,92164,102831,116164,137498,148164,169498,182831,189498
DistanceSpacing: 0.5
BeatDivisor: 4
GridSize: 4

[Metadata]
Title:Trickster
Artist:iojjj
Creator:Giffen
Version:Easy
Source:Umineko no Naku Koro ni
Tags:lye

[Difficulty]
HPDrainRate:3
CircleSize:3
OverallDifficulty:3
ApproachRate:3
SliderMultiplier:0.7
SliderTickRate:2

[Events]
//Background and Video events
0,0,"BG.png"
//Break Periods
2,79031,80058
//Storyboard Layer 0 (Background)
//Storyboard Layer 1 (Fail)
//Storyboard Layer 2 (Pass)
//Storyboard Layer 3 (Foreground)
//Storyboard Sound Samples
//Background Colour Transformations
3,100,0,0,0

[TimingPoints]
165,333.333333333333,4,2,1,70,1,0
54831,-100,4,2,1,80,0,1
65331,-100,4,2,1,80,0,0
65498,-100,4,2,1,80,0,1
76164,-100,4,2,1,70,0,0
116164,-100,4,2,1,80,0,1
147998,-100,4,2,1,80,0,0
148164,-100,4,2,1,80,0,1
158664,-100,4,2,1,80,0,0
158831,-100,4,2,1,80,0,1
174831,-100,4,2,1,80,0,0

[Colours]
Combo1 : 255,147,255
Combo2 : 181,106,255
Combo3 : 242,0,0

[HitObjects]
244,156,1498,2,0,B|164:148|116:204,2,140,2|2|2
320,196,3498,2,0,B|404:192|440:120,2,140,2|2|2
268,128,5498,6,0,B|128:128,1,140,2|2
56,176,6831,2,0,B|56:320,1,140,0|2
136,336,8164,2,0,B|204:356|288:336,1,140
256,192,9164,12,2,11498
220,80,12164,6,0,B|124:184,1,140,12|8
72,248,13498,2,0,B|136:288|216:248,1,140,12|8
208,168,14831,6,0,B|348:168,1,140,12|8
380,92,16164,2,0,B|432:112|448:172|416:216,1,140,12|8
380,276,17498,6,0,B|316:304|236:276,1,140,12|8
168,244,18831,2,0,B|88:244,2,70,12|8|8
220,180,20164,6,0,B|368:180,1,140,12|8
436,144,21498,1,12
432,228,22164,1,8
432,228,22831,6,0,B|292:228,1,140,12|8
232,168,24164,1,12
208,248,24831,1,8
152,184,25498,6,0,B|152:100,2,70,12|8|8
152,268,26831,1,8
236,268,27498,1,8
320,280,28164,6,0,B|432:280,2,105,12|0|8
300,200,29831,1,8
368,152,30498,2,8,B|448:152,3,70,8|12|8|8
188,188,33498,5,12
272,188,34164,2,0,B|424:188,1,140,8|8
460,120,35498,1,8
420,48,36164,1,8
340,72,36831,6,0,B|196:72,1,140,8|8
148,136,38164,2,0,B|78:136,2,70,0|0|14
204,200,39498,6,0,B|344:200,1,140,8|8
408,252,40831,2,0,B|484:252,2,70,0|0|14
324,252,42164,1,8
256,192,42664,12,4,44164
256,192,44831,5,8
184,148,45498,1,8
260,112,46164,2,0,B|400:112,1,140,8|8
468,164,47498,2,0,B|484:240|464:304,2,140,8|0|8
344,148,49831,6,0,B|228:148,2,105,8|0|8
416,188,51164,2,8,B|392:256|312:280,1,140,8|12
256,192,52165,12,8,53498
256,80,54164,6,0,B|256:220,1,140,0|4
252,304,55498,2,8,B|172:304,2,70
336,304,56831,1,12
416,280,57498,6,0,B|416:128,1,140,12|8
416,56,58831,2,0,B|500:56,2,70,8|8|12
332,56,60165,5,12
248,56,60831,2,0,B|196:36|164:80|96:56,1,140,8|8
32,92,62164,2,0,B|60:156|112:128|132:196,1,140,12|4
184,156,63331,5,12
236,188,63831,2,0,B|284:204|272:288|324:308,2,140,4|0|8
316,140,65498,1,0
236,104,66164,2,0,B|92:104,1,140,12|8
40,180,67498,2,0,B|56:256|120:300,1,140,12|8
192,268,68831,1,12
272,300,69498,6,0,B|348:300,2,70,12|8|8
264,216,70831,1,8
196,168,71498,1,8
184,252,72164,6,0,B|184:320,2,70,12|8|8
100,248,73498,5,4
40,188,74165,1,4
60,108,74831,1,4
140,84,75498,1,4
256,192,76165,12,0,78831
348,136,81498,6,0,B|200:136,1,140,12|8
208,220,82831,2,0,B|292:232|308:320,2,140,12|0|8
152,156,84831,6,0,B|76:152|48:72,1,140,8|8
132,56,86164,2,0,B|276:56,1,140,8|12
356,60,87498,1,0
356,60,88164,2,0,B|380:132|348:204,1,140,12|8
304,264,89498,2,0,B|184:264,2,105,12|0|8
368,264,90998,1,8
432,264,91498,1,8
316,96,92164,6,0,B|252:133|213:191,1,140,12|8
196,272,93498,1,8
132,216,94164,1,8
136,132,94831,6,0,B|276:68,1,140,12|8
340,40,96164,1,12
332,124,96831,2,8,B|404:168,2,70
264,76,98164,1,4
252,160,98831,1,12
184,108,99498,6,0,B|116:152,2,70,8|8|8
184,108,100831,1,8
256,192,101498,12,12,102831
152,192,103498,5,8
236,192,104164,2,0,B|320:192,2,70,12|0|8
152,192,105498,2,0,B|152:272|212:312,1,140,8|8
296,312,106831,1,12
380,312,107498,6,0,B|464:320|488:232,1,140,8|12
484,156,108831,2,0,B|412:156,2,70,8|0|12
484,72,110164,1,8
256,192,110664,12,8,112831
256,192,113498,12,14,116164
348,140,116831,2,0,B|204:140,1,140,12|8
140,192,118164,2,0,B|88:248,2,70,8|0|12
196,128,119498,1,8
228,208,120164,2,0,B|256:272|348:284,1,140,12|8
400,224,121498,5,12
400,140,122164,2,0,B|260:140,1,140,8|8
176,140,123498,1,12
192,224,124164,5,12
268,264,124831,1,12
344,232,125498,1,12
404,172,126164,2,0,B|452:240|396:304,1,140,8|8
324,340,127498,5,12
244,316,128164,1,12
208,240,128831,1,12
224,156,129498,5,12
272,88,130164,2,0,B|204:56|132:84,1,140,8|12
84,148,131498,2,2,B|84:288,1,140,4|12
156,332,132831,5,8
220,280,133498,2,0,B|280:332,2,70,8|0|8
156,228,134831,5,4
180,148,135498,1,4
264,140,136164,1,4
308,212,136831,1,4
256,192,137498,12,8,138831
192,160,139664,6,0,B|262:160,3,70,8|8|8|8
324,160,141164,2,0,B|408:156|456:212,2,140,8|8|8
256,192,143164,12,0,144164
240,88,144998,6,0,B|240:296,1,210,8|8
256,192,146831,12,12,148164
320,172,148831,5,8
236,172,149498,2,0,B|96:172,2,140,8|8|12
320,172,151498,1,12
316,256,152164,2,0,B|244:272|168:252,1,140,12|8
216,180,153498,6,0,B|148:144|132:68,1,140,12|8
216,72,154831,2,0,B|280:104|360:76,1,140,4|8
428,116,156164,5,12
360,164,156831,1,8
292,212,157498,1,8
220,256,158164,2,0,B|152:284|76:256,1,140,8|12
12,212,159498,5,8
88,176,160164,2,0,B|164:160|208:100,1,140,12|8
256,36,161498,1,8
292,112,162164,6,8,B|416:196,1,140,8|8
340,240,163498,2,0,B|232:332,1,140,4|12
148,328,164831,5,8
72,296,165498,2,0,B|-4:296,2,70,8|8|8
96,216,166831,5,4
172,184,167498,1,4
212,112,168165,1,4
284,72,168831,1,4
256,192,169498,12,0,170831
