osu file format v8

[General]
AudioFilename: hello!.mp3
AudioLeadIn: 0
PreviewTime: -1
Countdown: 1
SampleSet: Normal
StackLeniency: 0.7
Mode: 0
LetterboxInBreaks: 1

[Editor]
DistanceSpacing: 0.8
BeatDivisor: 4
GridSize: 8

[Metadata]
Title:hello!
Artist:inoue joe
Creator:ExoSphere
Version:Normal
Source:
Tags:

[Difficulty]
HPDrainRate:1
CircleSize:5
OverallDifficulty:5
ApproachRate:5
SliderMultiplier:1.4
SliderTickRate:1

[Events]
//Background and Video events
//Break Periods
//Storyboard Layer 0 (Background)
//Storyboard Layer 1 (Fail)
//Storyboard Layer 2 (Pass)
//Storyboard Layer 3 (Foreground)
//Storyboard Sound Samples
//Background Colour Transformations
3,100,0,0,255

[TimingPoints]
2,278.422273781903,4,1,0,100,1,0

[Colours]
Combo1 : 255,150,0
Combo2 : 166,166,166
Combo3 : 50,133,255
Combo4 : 249,0,0

[HitObjects]
128,136,2995,1,8
128,136,3343,1,8
128,136,3691,1,8
128,136,4039,1,8
128,136,4387,1,8
128,136,4735,1,8
128,136,5083,1,8
128,136,5431,1,8
192,64,5779,1,8
224,104,6127,1,8
320,104,6475,1,8
360,160,6823,1,8
280,200,7171,5,8
280,200,7519,1,8
280,200,7937,1,8
280,200,8076,1,8
80,160,8354,1,8
80,160,8702,1,8
96,128,9120,1,8
96,128,9537,1,8
168,104,10234,1,8
168,104,10442,1,8
168,104,10790,1,8
168,104,10930,1,8
272,104,11347,1,8
416,120,12322,1,8
416,120,12670,1,8
304,248,13714,5,8
304,248,14062,1,8
40,40,17055,1,8
136,48,17472,1,8
136,48,17821,1,8
240,40,18169,1,8
240,40,18517,1,8
240,40,18795,1,8
240,40,19073,1,8
240,40,19213,1,8
368,40,19630,1,8
368,40,19978,1,8
368,40,20257,1,8
440,136,20674,1,8
440,136,21022,1,8
360,152,21370,1,8
360,152,21510,1,8
440,136,21858,1,8
360,152,22136,1,8
392,256,22414,1,8
288,280,22763,1,8
224,304,23111,1,8
160,272,23459,1,8
64,232,23807,1,8
56,168,24155,1,8
64,120,24503,1,8
80,72,24851,1,8
320,56,25477,5,8
384,72,25825,1,8
440,88,26173,1,8
440,192,26869,5,10
440,192,27287,1,10
104,176,27705,1,10
104,176,28192,1,10
104,176,28331,1,10
104,176,28679,1,10
312,160,30210,5,12
312,160,30558,1,12
384,96,31463,5,14
384,96,31950,1,14
384,96,32925,1,8
384,96,33273,1,8
216,80,34178,5,10
216,80,34317,1,10
216,80,34665,1,10
64,112,35431,1,10
64,112,35570,1,10
64,112,35779,1,10
64,112,36127,1,10
128,160,37519,5,8
128,160,38006,1,8
128,160,38145,1,8
128,160,38563,1,8
128,160,38841,1,8
312,168,40094,1,12
312,168,40442,1,12
312,168,40790,1,12
312,168,41138,1,12
312,168,41417,1,12
312,168,41626,1,12
400,88,42043,1,10
400,88,42391,1,10
256,72,42879,1,10
144,96,43157,1,10
88,160,43505,1,10
256,176,43923,5,10
256,176,44062,1,10
256,176,44410,1,10
432,216,44967,1,14
432,216,45245,1,12
400,120,45593,1,12
400,120,45941,1,12
248,112,46289,1,12
248,112,46428,1,12
248,112,46637,1,12
112,104,46916,1,12
112,104,47194,1,12
368,256,47472,5,12
256,296,48029,1,12
112,288,48517,1,12
112,288,49073,1,12
112,288,49352,1,12
112,288,49630,1,12
112,288,49909,1,12
88,184,50466,1,10
88,184,50814,1,10
88,184,51162,1,10
88,184,51510,1,10
88,184,51858,1,10
88,184,52206,1,10
88,184,52554,1,10
88,184,52693,1,10
144,144,53528,5,10
352,80,54294,1,10
352,80,54433,1,10
352,80,54781,1,10
352,80,55129,1,10
352,80,55477,1,10
112,200,56660,5,8
112,200,57078,1,8
112,200,57217,1,8
112,200,57565,1,8
112,200,57913,1,8
112,200,58261,1,8
416,72,59793,1,14
416,72,60071,1,14
416,72,60350,1,14
416,72,60698,1,14
416,72,61046,1,14
152,80,62229,5,10
152,80,62577,1,10
152,80,62925,1,10
152,80,63273,1,10
152,80,64039,5,14
152,80,64387,1,14
152,80,64735,1,14
152,80,65640,1,8
152,80,65988,1,0
152,80,66266,1,0
152,80,66405,1,0
288,96,66753,1,0
296,176,67101,1,0
176,184,67449,1,0
192,248,67797,1,0
192,248,67937,1,0
192,248,68285,1,0
304,264,68633,1,0
304,312,68981,1,0
304,312,69120,1,0
232,312,69537,1,0
128,280,70025,1,0
128,280,70373,1,0
128,280,70512,1,0
216,200,70999,5,0
320,152,71486,1,0
320,152,71765,1,0
320,152,71974,1,0
320,152,72322,1,0
320,152,72670,1,0
320,152,72879,1,0
408,256,73157,1,0
184,104,74619,5,2
184,104,74758,1,2
240,88,75176,1,2
240,88,75454,1,2
240,88,75802,1,2
304,80,76150,1,2
304,80,76359,1,2
304,80,76707,1,2
304,80,76985,1,2
304,80,77333,1,2
304,80,77472,1,2
400,144,78238,1,14
400,144,78586,1,14
280,184,79004,1,14
280,184,79143,1,14
280,184,79421,1,14
280,184,79769,1,14
280,184,80326,1,14
280,184,80674,1,14
80,112,81231,5,14
80,112,81718,1,14
80,112,82066,1,14
336,112,83598,5,0
336,112,83807,1,0
80,72,85825,1,0
80,72,86173,1,0
80,72,86382,2,0,B|80:200|80:200|208:200,1,245
198,200,87008,1,0
216,128,88957,1,0
312,128,89723,1,0
312,128,90419,1,0
312,128,91115,1,0
376,88,93134,5,0
376,88,93482,1,0
376,88,93830,1,0
376,88,94178,1,0
264,104,94526,1,0
120,128,95222,1,0
256,200,95918,1,0
112,248,96614,1,0
112,248,97658,1,0
112,248,98006,1,0
112,248,98285,1,0
112,248,98633,1,0
440,168,100373,5,4
440,168,100721,1,4
440,168,101069,1,4
440,168,101417,1,4
224,104,102670,5,0
112,64,104201,1,0
112,64,104549,1,0
112,64,104897,1,0
112,64,105245,1,0
360,160,106289,1,0
176,224,106985,1,0
176,224,107333,1,0
176,224,107681,1,0
328,224,108377,1,14
368,72,109769,1,14
144,80,111162,1,14
128,240,112484,5,14
416,240,113946,1,14
424,64,115338,5,14
104,64,116730,1,14
104,272,118053,5,14
416,272,119862,5,14
424,72,120558,1,14
136,56,121254,1,14
136,56,121533,1,14
352,176,122229,1,14
352,176,122577,1,14
352,176,122925,1,14
176,168,123621,1,8
176,168,123969,1,8
176,168,124317,1,8
344,152,124943,1,8
344,152,125361,1,8
344,152,125709,1,8
208,64,126127,5,8
208,64,126405,1,8
208,64,126753,1,8
104,144,127101,1,8
120,192,127449,1,8
248,224,127797,1,8
384,192,128493,1,8
384,192,128841,1,8
336,64,129189,1,8
136,120,129885,1,8
136,120,130234,1,8
296,216,130582,1,8
176,248,130930,1,8
256,272,131278,1,8
416,216,132809,5,10
416,216,132948,1,10
408,136,133296,1,10
408,136,133644,1,10
328,104,134062,1,10
248,144,134410,1,10
240,200,134688,1,10
168,216,135036,1,10
144,192,135384,1,10
136,136,135802,1,10
312,112,136428,1,10
312,112,136776,1,10
240,144,138586,1,10
240,144,138934,1,10
352,128,139978,1,10
352,128,140326,1,10
184,144,141370,1,10
184,144,141718,1,10
256,192,143667,12,10,145895
256,192,148609,12,14,150071
272,128,152786,5,14
272,128,153134,1,14
272,128,153482,1,14
456,160,156336,5,8
264,136,160094,5,4
264,136,160234,1,4
264,136,160373,1,4
336,128,160512,1,4
144,128,163923,5,4
216,128,164201,1,4
304,128,164549,1,4
128,232,166637,1,4
192,232,166985,5,4
256,232,167264,5,4
432,104,169421,5,4
256,104,170814,5,4
88,112,171927,5,4
88,112,172206,5,4
192,240,173250,1,4
264,248,173598,1,4
424,216,174642,1,4
424,176,174990,5,4
368,160,176034,1,4
288,144,176382,5,4
112,184,177774,5,4
280,184,178749,1,4
344,184,179097,5,4
256,248,180071,5,4
264,304,180419,1,4
216,200,181602,5,4
176,200,182577,1,4
128,192,183273,1,4
128,192,183621,1,4
64,216,183969,1,4
336,208,185361,1,4
264,200,186057,1,4
216,208,186405,1,4
152,208,186753,1,4
360,64,188493,5,4
360,64,188841,1,4
320,152,189329,1,4
320,152,189885,1,4
320,152,190234,1,4
264,208,190790,1,4
264,208,191278,1,4
280,248,191626,1,4
328,272,192113,1,4
448,224,193366,1,4
448,224,193714,1,4
360,176,195454,5,4
360,176,195593,1,4
360,176,195941,1,4
360,176,196289,1,4
360,176,196637,1,4
360,176,196776,1,4
216,128,197472,1,2
216,128,197821,1,2
392,136,198238,1,2
392,136,198377,1,2
392,136,198725,1,2
392,136,199143,1,2
392,136,199491,1,2
392,136,199630,1,2
392,136,199978,1,2
392,136,201370,1,6
392,136,201927,1,6
392,136,202763,1,6
392,136,203319,5,6
432,208,204572,1,6
432,208,204990,1,6
432,208,205129,1,6
272,192,205477,1,6
216,200,206034,1,6
216,200,206591,5,6
144,208,206869,5,6
104,160,207496,1,6
184,120,207983,5,6
272,112,208261,1,6
328,120,208679,1,6
256,192,211046,12,6,212995
