osu file format v9

[General]
AudioFilename: Unbelievable Action Scene Ever Created_ P9.mp3
AudioLeadIn: 0
PreviewTime: -1
Countdown: 1
SampleSet: Normal
StackLeniency: 0.7
Mode: 0
LetterboxInBreaks: 1

[Editor]
DistanceSpacing: 0.8
BeatDivisor: 8
GridSize: 8

[Metadata]
Title:figther
Artist:indian movie 2
Creator:friendok
Version:LOL2
Source:
Tags:

[Difficulty]
HPDrainRate:0
CircleSize:6
OverallDifficulty:0
ApproachRate:8
SliderMultiplier:1.4
SliderTickRate:1

[Events]
//Background and Video events
Video,0,"Unbelievable Action Scene Ever Created_ P9.flv"
//Break Periods
2,21416,25634
2,36287,40858
2,45768,58295
2,79543,83593
2,102093,107129
2,108079,117019
2,125675,132559
2,137410,142343
2,163464,169292
//Storyboard Layer 0 (Background)
//Storyboard Layer 1 (Fail)
//Storyboard Layer 2 (Pass)
//Storyboard Layer 3 (Foreground)
//Storyboard Sound Samples
//Background Colour Transformations
3,100,163,162,255

[TimingPoints]
-31.457938947929,500,4,1,0,78,1,0

[Colours]
Combo1 : 255,0,0
Combo2 : 255,0,0
Combo3 : 255,0,0
Combo4 : 255,0,0

[HitObjects]
96,264,16159,1,0
336,176,18502,2,0,B|272:88,2,105
200,96,20007,1,0
248,128,20100,1,0
288,160,20249,1,0
232,304,20862,1,0
376,304,21216,1,0
224,216,26384,5,0
384,208,28781,1,0
400,136,32072,1,0
424,192,32462,1,0
344,280,32797,1,0
368,168,33392,1,0
384,224,33987,1,0
168,208,35492,1,0
104,280,35734,1,0
104,216,36087,1,0
216,232,41608,5,0
168,232,42343,1,0
96,248,42718,1,0
160,192,44468,1,0
208,160,44694,2,0,B|456:160,1,245
136,280,59045,5,0
360,216,61257,1,0
288,240,65087,1,0
416,200,69781,1,0
96,160,70156,1,0
144,168,70593,1,0
72,120,70906,1,0
128,128,71281,1,0
88,256,71370,1,0
152,200,71630,1,0
472,112,71906,1,0
24,184,72281,1,0
488,168,72593,1,0
96,184,72857,1,0
384,192,73210,1,0
144,144,73415,1,0
392,256,73619,1,0
176,264,73898,1,0
248,320,73824,2,0,B|248:64,1,245
176,224,77913,1,0
352,208,78750,1,0
112,80,79093,2,0,B|112:160,1,70
96,192,84343,5,0
136,80,85089,2,0,B|288:80,1,140
72,224,85888,1,0
216,112,86762,2,0,B|288:160,1,87.5
208,200,87747,1,0
232,144,88593,2,0,B|208:152|176:160|168:184|160:208,1,87.5
448,184,89031,2,0,B|480:184|480:208,1,35
272,200,89218,2,0,B|256:208|232:200|224:240,1,52.5
248,264,89656,2,0,B|216:248|176:272,1,70
344,152,92134,1,0
320,232,92468,1,0
360,208,92781,1,0
336,192,93468,1,0
336,192,94281,1,0
336,272,95656,1,0
320,200,97031,1,0
416,240,99093,1,0
96,72,100109,2,0,B|0:176,1,140
120,168,101429,1,0
208,96,101652,1,0
288,184,101893,1,0
376,264,107879,5,0
144,72,117769,6,0,B|384:72,1,227.5
352,104,119591,2,0,B|488:104,1,122.5
320,112,120576,1,0
328,224,120799,1,0
440,160,121003,1,0
288,168,121171,1,0
368,128,121710,1,0
384,216,121896,1,0
328,176,122249,1,0
304,208,124851,2,0,B|440:88,1,175
424,288,133309,6,0,B|416:88,1,192.5
384,240,136711,2,0,B|384:88,1,140
144,184,143093,5,0
128,72,143781,2,0,B|368:72,2,227.5
232,184,145802,1,0
192,240,147406,1,0
272,160,148218,1,0
120,112,148656,1,0
160,208,149281,1,0
240,184,150093,1,0
344,176,151031,1,0
352,192,152781,1,0
304,176,157093,1,0
216,120,157718,2,0,B|24:120,1,192.5
232,152,160394,1,0
248,208,160580,1,0
208,144,162365,1,0
232,224,162625,1,0
168,192,163015,2,0,B|96:208,1,70
240,232,170042,5,0
