osu file format v11

[General]
AudioFilename: aaa.mp3
AudioLeadIn: 0
PreviewTime: 77395
Countdown: 0
SampleSet: Normal
StackLeniency: 0.7
Mode: 0
LetterboxInBreaks: 0

[Editor]
DistanceSpacing: 0.8
BeatDivisor: 4
GridSize: 4

[Metadata]
Title:Purgatorium
TitleUnicode:Purgatorium
Artist:incinerate
ArtistUnicode:incinerate
Creator:RikiH_
Version:Heaven
Source:BMS
Tags:Roxas inaba-tan inaba tan katty pie bof2011 2011 bms fighters intersection conflict black funeral group
BeatmapID:166316
BeatmapSetID:54727

[Difficulty]
HPDrainRate:7
CircleSize:4
OverallDifficulty:8
ApproachRate:9
SliderMultiplier:2.3
SliderTickRate:1

[Events]
//Background and Video events
0,0,"ws_Maple_in_Autumn_1024x768.jpg"
//Break Periods
2,22802,24489
//Storyboard Layer 0 (Background)
//Storyboard Layer 1 (Fail)
//Storyboard Layer 2 (Pass)
//Storyboard Layer 3 (Foreground)
//Storyboard Sound Samples
//Background Colour Transformations
3,100,255,255,255

[TimingPoints]
2706,310.880829015544,4,1,0,30,1,0
25089,-200,4,1,0,45,0,0
30063,-100,4,1,0,30,0,1
34959,-100,4,1,0,30,0,0
35037,-100,4,1,0,30,0,1
35115,-100,4,1,0,30,0,0
54933,-200,4,1,0,45,0,1
74830,-200,4,1,0,5,0,1
77416,310.880829015544,4,1,0,30,1,0
77416,-100,4,1,0,30,0,0
101664,-76.9230769230769,4,1,0,30,0,0
101820,-100,4,1,0,30,0,0
127156,-100,4,1,0,30,0,1
137027,-100,4,1,0,30,0,0
137105,-100,4,1,0,45,0,1
137182,-100,4,1,0,45,0,0
150706,-200,4,2,0,5,0,0

[Colours]
Combo1 : 223,134,0
Combo2 : 225,0,0
Combo3 : 219,219,0
Combo4 : 0,123,0

[HitObjects]
256,120,2706,2,0,B|256:64|304:16,2,115,0|0|8,0:0|0:0|0:0,0:0:0
344,192,3172,2,0,B|400:192|448:240,2,115
256,264,3638,2,0,B|256:320|208:368,2,115,0|0|8,0:0|0:0|0:0,0:0:0
164,192,4104,2,0,B|108:192|60:144,2,115
256,120,4571,5,2,0:0:0
368,140,4726,1,0,0:0:0
348,252,4882,1,2,0:0:0
236,232,5037,1,0,0:0:0
124,264,5193,6,0,B|44:344,2,115,0|0|8,0:0|0:0|0:0,0:0:0
124,148,5659,2,0,B|44:68,2,115
240,148,6125,2,0,B|320:68,2,115,0|0|8,0:0|0:0|0:0,0:0:0
240,264,6592,2,0,B|320:344,2,115
148,192,7058,5,2,0:0:0
128,80,7213,1,0,0:0:0
240,60,7369,1,2,0:0:0
260,172,7524,1,0,0:0:0
148,192,7680,6,0,B|96:308,1,115
101,297,7990,1,8,0:0:0
216,296,8146,2,0,B|264:192,1,115
264,192,8457,1,0,0:0:0
380,192,8612,2,0,B|328:308,1,115
333,297,8923,1,8,0:0:0
448,296,9079,2,0,B|496:192,1,115
496,192,9389,1,0,0:0:0
464,80,9545,6,0,B|424:40|360:40,1,115,2|0,0:0|0:0,0:0:0
256,80,9856,2,0,B|296:40|360:40,1,115,2|0,0:0|0:0,0:0:0
360,156,10167,5,0,0:0:0
420,256,10322,1,0,0:0:0
304,256,10478,1,8,0:0:0
244,156,10633,5,0,0:0:0
304,256,10788,1,0,0:0:0
188,256,10944,1,0,0:0:0
128,156,11099,5,0,0:0:0
188,256,11255,1,0,0:0:0
72,256,11410,1,8,0:0:0
12,156,11566,5,0,0:0:0
72,60,11721,1,0,0:0:0
188,60,11876,1,0,0:0:0
244,156,12032,1,0,0:0:0
188,256,12187,1,0,0:0:0
72,256,12343,1,0,0:0:0
12,156,12498,1,0,0:0:0
128,156,12654,5,12,0:0:0
160,108,12731,1,0,0:0:0
188,60,12809,1,0,0:0:0
280,60,12965,2,0,P|352:44|392:16,1,115
400,112,13275,2,0,P|348:152|320:200,1,115,8|0,0:0|0:0,0:0:0
308,292,13586,2,0,B|268:332|204:332,1,115
88,332,13897,5,8,0:0:0
48,292,13975,1,0,0:0:0
8,252,14053,1,0,0:0:0
8,136,14208,2,0,B|48:96|48:96|48:64|48:64|68:44,1,115
184,44,14519,2,0,B|144:84|144:84|144:116|144:116|124:136,1,115,8|0,0:0|0:0,0:0:0
240,124,14830,1,0,0:0:0
240,124,14985,1,0,0:0:0
320,44,15141,6,0,B|376:60|376:60|380:56|380:56|380:68|380:68|384:64|384:64|420:72,1,115,8|0,0:0|0:0,0:0:0
324,140,15452,2,0,B|284:180|284:244,1,115
184,192,15762,2,0,B|184:248|232:296,1,115,8|0,0:0|0:0,0:0:0
120,328,16073,2,0,B|160:368|224:368,1,115
332,328,16384,5,8,0:0:0
368,280,16462,1,0,0:0:0
404,232,16540,1,0,0:0:0
468,140,16695,2,0,B|428:100|428:100|428:68|388:52,1,115
280,52,17006,2,0,B|320:92|320:92|320:124|360:140,1,115,8|0,0:0|0:0,0:0:0
236,144,17317,1,0,0:0:0
236,144,17472,1,0,0:0:0
148,72,17628,6,0,B|108:112|108:112|40:136|40:228|112:252,1,230,12|0,0:0|0:0,0:0:0
196,308,18094,1,0,0:0:0
292,248,18250,2,0,B|332:208|396:208,1,115,8|0,0:0|0:0,0:0:0
396,324,18560,2,0,B|356:364|292:364,1,115
196,308,18871,5,8,0:0:0
152,268,18949,1,0,0:0:0
108,228,19027,1,0,0:0:0
72,120,19182,2,0,B|36:84|36:84|36:48|60:24,1,115
172,24,19493,2,0,B|208:60|208:60|208:96|184:120,1,115,8|0,0:0|0:0,0:0:0
72,120,19804,1,2,0:0:0
72,120,19959,1,2,0:0:0
176,168,20115,6,0,B|256:248,1,115,8|0,0:0|0:0,0:0:0
257,249,20426,1,0,0:0:0
373,257,20581,2,0,B|292:176,1,115,0|8,0:0|0:0,0:0:0
292,176,20892,1,0,0:0:0
408,176,21047,2,0,B|488:256,1,115
408,176,21358,2,0,B|448:136|448:72|408:32|408:32|336:32,1,230,8|0,0:0|0:0,0:0:0
220,32,21825,1,0,0:0:0
108,56,21980,6,0,B|68:96|68:160,1,115,2|0,0:0|0:0,0:0:0
176,204,22291,2,0,B|216:164|216:100,1,115,2|0,0:0|0:0,0:0:0
108,56,22602,1,4,0:0:0
256,140,25089,6,0,P|316:108,1,57.5
256,140,25555,2,0,P|128:92|76:216,1,287.5,0|8,0:0|0:0,0:0:0
172,264,26643,5,0,0:0:0
256,340,26954,1,0,0:0:0
344,264,27265,1,0,0:0:0
256,192,27576,5,0,0:0:0
256,248,27731,1,0,0:0:0
328,336,28042,2,0,B|348:356|380:356|400:336|400:336|436:336|436:336|436:292|436:292|456:272|456:224|436:204|436:204|416:184,1,287.5,0|8,0:0|0:0,0:0:0
256,12,29441,6,2,B|256:128,1,115
92,292,30063,6,0,B|52:252|52:188,1,115,12|0,0:0|0:0,0:0:0
168,188,30374,2,0,B|208:228|208:292,1,115
316,328,30685,1,8,0:0:0
356,284,30762,1,0,0:0:0
396,240,30840,1,0,0:0:0
292,188,30996,2,0,B|332:148|332:84,1,115
220,52,31307,6,0,B|176:96|116:96|116:96|116:152|68:200,1,230,8|0,0:0|0:0,0:0:0
180,168,31773,1,0,0:0:0
292,188,31928,2,0,B|368:188|368:188|396:216,1,115,8|0,0:0|0:0,0:0:0
292,264,32239,2,0,B|216:264|216:264|188:236,1,115
292,188,32550,6,0,B|372:108,1,115,8|0,0:0|0:0,0:0:0
456,188,32861,2,0,B|376:268,1,115
288,344,33172,1,8,0:0:0
240,312,33250,1,0,0:0:0
196,276,33327,1,0,0:0:0
104,208,33483,2,0,B|72:176|104:144|104:144|104:100,1,115
220,100,33794,6,0,B|252:132|220:164|220:164|220:208,1,115,8|0,0:0|0:0,0:0:0
332,184,34104,2,0,B|372:144|372:144|372:140|372:140|380:140|380:140|380:136|380:136|388:136|388:136|388:132|388:132|412:108,1,115
488,24,34415,1,2,0:0:0
488,24,34571,1,2,0:0:0
504,136,34726,1,0,0:0:0
476,188,34804,1,0,0:0:0
448,240,34882,1,0,0:0:0
376,328,35037,6,0,B|320:328|320:328|284:284|204:284|164:336,1,230,12|0,0:0|0:0,0:0:0
184,220,35503,1,0,0:0:0
268,300,35659,2,0,B|308:260|308:196,1,115,8|0,0:0|0:0,0:0:0
240,100,35970,1,2,0:0:0
200,56,36047,1,2,0:0:0
144,56,36125,1,2,0:0:0
88,156,36281,5,8,0:0:0
100,272,36436,1,0,0:0:0
216,260,36592,1,0,0:0:0
204,144,36747,1,0,0:0:0
8,152,36902,5,8,0:0:0
20,360,37058,1,0,0:0:0
228,348,37213,1,0,0:0:0
204,144,37369,1,0,0:0:0
284,96,37524,2,0,B|400:60,1,115,8|0,0:0|0:0,0:0:0
472,156,37835,5,0,0:0:0
404,248,37990,1,0,0:0:0
328,340,38146,2,0,B|260:308|216:332|216:332|168:364|100:332,1,230,2|2,0:0|0:0,0:0:0
64,296,38535,1,2,0:0:0
40,244,38612,1,2,0:0:0
64,192,38690,1,2,0:0:0
108,152,38768,6,0,B|148:112|212:112|216:112,1,115,8|0,0:0|0:0,0:0:0
304,92,39079,2,0,B|332:76,2,28.75
254,216,39389,2,0,B|214:176|214:112,1,115,8|0,0:0|0:0,0:0:0
318,72,39700,5,2,0:0:0
372,52,39778,1,2,0:0:0
428,52,39856,1,2,0:0:0
480,72,39933,1,2,0:0:0
512,120,40011,6,0,B|472:160|408:160,1,115,8|0,0:0|0:0,0:0:0
292,160,40322,1,8,0:0:0
176,160,40478,1,0,0:0:0
176,276,40633,1,8,0:0:0
292,276,40788,1,0,0:0:0
292,160,40944,5,0,0:0:0
272,104,41022,1,0,0:0:0
228,64,41099,1,0,0:0:0
172,48,41177,1,0,0:0:0
128,64,41255,6,0,B|88:104|88:104|88:164,1,115,8|0,0:0|0:0,0:0:0
116,272,41566,2,0,P|172:320|224:320,1,115,8|0,0:0|0:0,0:0:0
248,216,41876,2,0,P|352:136,1,115,8|0,0:0|0:0,0:0:0
292,40,42187,2,0,P|172:32,1,115,8|0,0:0|0:0,0:0:0
156,144,42498,5,8,0:0:0
100,252,42654,1,0,0:0:0
216,248,42809,1,8,0:0:0
216,112,42965,5,0,0:0:0
156,212,43120,1,8,0:0:0
272,208,43275,1,0,0:0:0
276,80,43431,5,2,0:0:0
320,116,43509,1,2,0:0:0
364,152,43586,1,2,0:0:0
440,84,43742,2,0,B|500:84,2,57.5
364,28,44053,1,0,0:0:0
364,152,44208,5,2,0:0:0
408,192,44286,1,2,0:0:0
452,232,44364,1,2,0:0:0
384,324,44519,1,2,0:0:0
268,324,44674,1,2,0:0:0
324,224,44830,1,2,0:0:0
208,224,44985,6,0,B|152:224|152:224|92:224|48:180|48:108,1,230,12|0,0:0|0:0,0:0:0
164,108,45452,1,0,0:0:0
280,108,45607,2,0,B|328:108|328:108|348:108|384:144,1,115,8|0,0:0|0:0,0:0:0
384,260,45918,1,2,0:0:0
356,312,45996,1,2,0:0:0
304,340,46073,1,2,0:0:0
188,344,46229,6,0,P|128:336|72:288,1,115,8|0,0:0|0:0,0:0:0
64,192,46540,2,0,P|124:200|180:248,1,115,0|0,0:0|0:0,0:0:0
272,260,46851,1,8,0:0:0
384,228,47006,1,0,0:0:0
408,128,47161,1,0,0:0:0
348,48,47317,1,0,0:0:0
244,52,47472,6,0,B|144:108,1,115,8|0,0:0|0:0,0:0:0
168,200,47783,1,0,0:0:0
168,200,47939,1,0,0:0:0
52,200,48094,2,0,B|72:264|52:312|52:312|120:344|176:328,1,230,2|2,0:0|0:0,0:0:0
224,328,48483,1,2,0:0:0
280,332,48560,1,2,0:0:0
336,328,48638,1,2,0:0:0
392,316,48716,6,0,B|448:304|472:232,1,115,8|0,0:0|0:0,0:0:0
360,208,49027,2,0,B|364:268|393:318,1,115
469,239,49338,2,0,B|388:200|328:210,1,115,8|0,0:0|0:0,0:0:0
456,140,49649,1,2,0:0:0
416,100,49726,1,2,0:0:0
360,80,49804,1,2,0:0:0
304,100,49882,1,2,0:0:0
264,140,49959,6,0,B|224:180|160:180,1,115,8|0,0:0|0:0,0:0:0
60,120,50270,2,0,B|100:80|164:80,1,115,8|0,0:0|0:0,0:0:0
260,240,50581,2,0,B|220:280|156:280,1,115,8|0,0:0|0:0,0:0:0
252,340,50892,1,0,0:0:0
308,336,50970,1,0,0:0:0
364,340,51047,1,0,0:0:0
420,336,51125,1,0,0:0:0
476,340,51203,5,8,0:0:0
464,224,51358,1,0,0:0:0
348,236,51514,2,0,P|344:300|324:352,1,115,8|0,0:0|0:0,0:0:0
348,236,51825,5,8,0:0:0
396,132,51980,1,0,0:0:0
280,144,52136,1,8,0:0:0
348,236,52291,1,0,0:0:0
396,132,52446,1,0,0:0:0
328,44,52602,1,0,0:0:0
212,56,52757,1,8,0:0:0
184,168,52913,1,0,0:0:0
144,260,53068,6,0,B|104:300|40:300,1,115,8|0,0:0|0:0,0:0:0
64,188,53379,1,0,0:0:0
100,140,53457,1,0,0:0:0
144,100,53535,1,0,0:0:0
244,44,53690,6,0,P|328:28,1,76.6666666666667
300,88,53897,2,0,P|380:84,1,76.6666666666667
348,140,54104,2,0,P|428:144,1,76.6666666666667
388,196,54312,2,0,P|468:212,1,76.6666666666667
424,256,54519,1,0,0:0:0
384,304,54623,6,0,B|340:344,1,57.5
312,316,54778,2,0,B|264:356,1,57.5
236,340,54933,6,0,B|200:324|168:280|192:232,1,115
256,176,55555,1,0,0:0:0
200,276,55866,1,0,0:0:0
84,308,56177,2,0,B|84:260|84:260|84:232|56:204|32:204,1,115
140,140,56799,1,0,0:0:0
48,92,57110,1,0,0:0:0
152,40,57421,6,0,B|168:40|168:40|192:60|228:60|248:40|248:40|280:40,1,115
260,156,58042,1,0,0:0:0
208,260,58353,2,0,B|196:312|232:348|264:348,2,115
260,156,59286,1,0,0:0:0
372,172,59597,1,0,0:0:0
336,268,59908,6,0,B|336:296|336:296|336:328|312:352|272:352,1,115,4|0,0:0|0:0,0:0:0
168,332,60529,1,0,0:0:0
116,228,60840,1,0,0:0:0
164,120,61151,2,0,B|196:88|232:88|232:88|272:88,1,115
384,88,61773,1,0,0:0:0
332,164,62084,1,0,0:0:0
384,88,62395,6,0,B|424:88|424:88|456:88|480:64|480:36,2,115
384,204,63327,2,0,B|424:204|424:204|456:204|480:228|480:256,2,115,0|0|0,0:0|0:0|0:0,0:0:0
268,204,64260,1,0,0:0:0
268,204,64571,1,0,0:0:0
180,276,64882,6,0,B|160:296|96:300|68:276,1,115,4|0,0:0|0:0,0:0:0
124,176,65503,1,0,0:0:0
124,176,65814,1,0,0:0:0
68,76,66125,2,0,B|92:54|156:58|176:78,1,115
124,176,66747,1,0,0:0:0
124,176,67058,1,0,0:0:0
224,120,67369,6,0,B|196:148|196:200|220:224,1,115
328,180,67990,1,0,0:0:0
428,119,68301,2,0,B|456:147|456:199|432:224,2,115
328,180,69234,1,0,0:0:0
328,180,69545,1,0,0:0:0
236,252,69856,6,0,B|196:292|196:292|132:292,1,115,4|0,0:0|0:0,0:0:0
240,348,70478,1,0,0:0:0
308,256,70788,1,0,0:0:0
380,168,71099,2,0,B|420:128|420:128|420:64,1,115
476,172,71721,1,0,0:0:0
404,260,72032,1,0,0:0:0
288,264,72343,6,0,B|232:264|232:264|188:220,1,115
212,336,72965,1,0,0:0:0
116,276,73275,2,0,B|60:276|60:276|16:320,2,115
24,208,74208,1,0,0:0:0
24,208,74519,1,0,0:0:0
256,192,74830,5,0,0:0:0
256,192,74908,12,0,77006,0:0:0
184,192,77416,6,0,B|184:136|184:136|140:92,1,115,12|0,0:0|0:0,0:0:0
256,112,77726,2,0,B|312:112|312:112|356:68,1,115
332,184,78037,2,0,B|332:240|332:240|376:284,1,115,8|0,0:0|0:0,0:0:0
260,264,78348,2,0,B|204:264|204:264|160:308,1,115
88,220,78659,6,0,B|52:184|52:136|52:136|52:112,1,115,8|0,0:0|0:0,0:0:0
128,28,78970,2,0,B|164:64|164:112|164:112|164:133,1,115
200,238,79281,2,0,B|164:202|164:154|164:154|164:130,1,115,8|0,0:0|0:0,0:0:0
252,60,79592,2,0,B|288:96|288:144|288:144|288:165,1,115
396,124,79903,6,0,B|356:164|356:228|356:228|356:288|396:336,1,230,8|0,0:0|0:0,0:0:0
436,352,80291,1,0,0:0:0
480,340,80369,1,0,0:0:0
471,225,80524,2,0,B|415:209|351:225,1,115,8|0,0:0|0:0,0:0:0
296,292,80835,2,0,B|352:308|412:292,1,115
357,224,81146,6,0,P|357:128|285:188,1,230,8|0,0:0|0:0,0:0:0
224,252,81612,1,0,0:0:0
148,304,81768,2,0,P|74:356|74:260,1,230,8|0,0:0|0:0,0:0:0
148,305,82234,1,0,0:0:0
264,320,82390,6,0,B|316:300|380:336|380:336|432:260|480:236,1,230,8|0,0:0|0:0,0:0:0
476,204,82778,1,0,0:0:0
472,148,82856,1,0,0:0:0
432,40,83011,2,0,B|404:84|404:84|372:88|340:76,1,115,8|0,0:0|0:0,0:0:0
138,108,83322,2,0,B|166:64|166:64|198:60|228:72,1,115
296,168,83633,6,0,B|336:208|336:208|360:244|332:276,1,115,8|0,0:0|0:0,0:0:0
236,312,83944,1,0,0:0:0
196,332,84022,1,0,0:0:0
156,312,84099,1,0,0:0:0
196,204,84255,2,0,B|196:160|196:160|196:128|164:96,1,115,8|0,0:0|0:0,0:0:0
52,104,84566,2,0,B|52:148|52:148|52:180|84:212,1,115
256,192,84877,12,0,87053,0:0:0
256,40,87364,6,0,B|256:64|256:64|264:96|264:96|248:136|248:136|272:172|272:172|256:212|256:212|256:256,1,230,12|0,0:0|0:0,0:0:0
224,288,87752,1,0,0:0:0
176,288,87830,1,0,0:0:0
88,216,87985,2,0,B|128:176|128:112,1,115,8|0,0:0|0:0,0:0:0
232,160,88296,2,0,B|192:120|192:56,1,115
308,52,88607,6,0,B|408:32|408:32|464:84|424:152,1,230,8|0,0:0|0:0,0:0:0
412,192,88996,2,0,B|400:232|376:252,1,57.5
316,160,89229,2,0,B|276:200|276:264,1,115,8|0,0:0|0:0,0:0:0
212,168,89540,2,0,B|212:224|164:272,1,115
88,184,89851,6,0,B|-16:124,1,115,8|0,0:0|0:0,0:0:0
88,64,90162,1,0,0:0:0
132,76,90239,1,0,0:0:0
176,64,90317,1,0,0:0:0
260,144,90472,2,0,B|300:104|300:40,1,115,8|0,0:0|0:0,0:0:0
372,128,90783,2,0,B|332:168|332:232,1,115
216,272,91094,6,0,B|176:312|112:312|72:272|72:204|116:160,1,230,8|0,0:0|0:0,0:0:0
256,184,91561,1,0,0:0:0
298,274,91716,2,0,B|336:312|400:312|440:272|440:204|409:176,1,230,8|0,0:0|0:0,0:0:0
368,64,92182,1,0,0:0:0
256,4,92338,6,0,B|216:44|152:44,1,115,8|0,0:0|0:0,0:0:0
52,100,92649,1,0,0:0:0
80,136,92726,1,0,0:0:0
52,172,92804,1,0,0:0:0
152,232,92960,2,0,B|208:232|256:280,1,115,8|0,0:0|0:0,0:0:0
260,164,93270,2,0,B|340:84,1,115
432,12,93581,6,0,B|452:68|432:124|432:124|452:184|432:240,1,230,8|0,0:0|0:0,0:0:0
420,284,93970,1,0,0:0:0
384,312,94048,1,0,0:0:0
272,292,94203,2,0,P|204:260|148:264,1,115,8|0,0:0|0:0,0:0:0
72,328,94514,2,0,P|140:360|196:356,1,115,0|0,0:0|0:0,0:0:0
256,192,94825,12,0,97001,0:0:0
144,156,97312,6,0,B|204:96|204:96|288:96|336:48,1,230,12|0,0:0|0:0,0:0:0
380,32,97700,1,0,0:0:0
424,48,97778,2,0,B|464:88|464:152,1,115,0|8,0:0|0:0,0:0:0
352,128,98089,1,0,0:0:0
464,152,98245,2,0,B|464:208|416:256,1,115
312,296,98555,5,2,0:0:0
277,326,98633,1,0,0:0:0
234,344,98711,1,0,0:0:0
187,343,98789,1,0,0:0:0
144,326,98866,1,2,0:0:0
109,295,98944,1,0,0:0:0
88,253,99022,1,0,0:0:0
88,207,99099,1,0,0:0:0
104,164,99177,1,2,0:0:0
138,133,99255,1,0,0:0:0
180,114,99333,1,0,0:0:0
229,110,99410,1,0,0:0:0
276,120,99488,2,0,B|332:120|380:72,1,115,2|0,0:0|0:0,0:0:0
484,120,99799,5,2,0:0:0
476,164,99877,1,2,0:0:0
464,208,99954,1,2,0:0:0
444,248,100032,1,2,0:0:0
412,280,100110,1,2,0:0:0
372,304,100188,1,0,0:0:0
328,320,100265,1,2,0:0:0
284,328,100343,1,2,0:0:0
240,320,100421,2,0,B|184:296|128:332|128:332|84:292|56:272,1,172.5
40,288,100732,2,0,B|64:232|28:176|28:176|68:132|24:60,1,230
184,172,101353,5,2,0:0:0
228,160,101431,1,2,0:0:0
268,136,101509,1,2,0:0:0
296,100,101586,1,2,0:0:0
320,56,101664,2,0,B|380:52|380:52|468:24,1,149.499993156433
456,120,101975,1,0,0:0:0
404,196,102131,1,0,0:0:0
308,212,102286,6,0,B|236:288|236:288|200:240|148:236|96:280,1,230,0|2,0:0|0:0,0:0:0
80,276,102675,1,0,0:0:0
36,264,102752,1,0,0:0:0
16,224,102830,1,0,0:0:0
4,180,102908,1,2,0:0:0
16,136,102985,1,0,0:0:0
36,96,103063,1,0,0:0:0
80,80,103141,1,0,0:0:0
124,96,103219,1,2,0:0:0
148,136,103296,1,0,0:0:0
152,184,103374,1,0,0:0:0
208,284,103529,6,0,B|248:324,2,57.5,2|0|0,0:0|0:0|0:0,0:0:0
312,236,103840,2,0,P|348:260|388:256,2,76.6666666666667
256,184,104151,2,0,P|240:148|248:108,2,76.6666666666667
200,236,104462,2,0,P|164:260|124:256,2,76.6666666666667
208,312,104773,5,2,0:0:0
244,340,104851,1,2,0:0:0
288,348,104928,1,2,0:0:0
332,344,105006,1,2,0:0:0
376,332,105084,1,2,0:0:0
416,304,105162,1,2,0:0:0
448,268,105239,1,2,0:0:0
472,228,105317,1,2,0:0:0
488,184,105395,1,2,0:0:0
480,140,105472,1,2,0:0:0
460,100,105550,2,0,B|396:36|396:36|356:76|304:68|256:48,1,230,2|2,0:0|0:0,0:0:0
172,64,106017,6,0,B|132:52|108:24,2,76.6666666666667
120,96,106327,2,0,B|72:120|36:108,2,76.6666666666667
112,156,106638,2,0,B|68:176|60:220,2,76.6666666666667
172,164,106949,5,0,0:0:0
212,140,107027,1,0,0:0:0
216,96,107105,1,0,0:0:0
184,72,107182,1,0,0:0:0
156,100,107260,6,0,B|116:140|116:200|156:240|224:240|256:204,1,230,12|0,0:0|0:0,0:0:0
292,188,107649,1,0,0:0:0
329,161,107726,1,0,0:0:0
288,56,107882,2,0,B|320:24|320:24|356:40|400:28,1,115,8|0,0:0|0:0,0:0:0
464,116,108193,1,2,0:0:0
456,160,108270,1,2,0:0:0
464,204,108348,1,2,0:0:0
456,248,108426,1,2,0:0:0
464,292,108504,6,0,B|484:344,3,57.5,2|0|0|0,0:0|0:0|0:0|0:0,0:0:0
372,292,108814,2,0,B|352:240,3,57.5,2|0|0|0,0:0|0:0|0:0|0:0,0:0:0
280,292,109125,2,0,B|300:344,3,57.5,2|0|0|0,0:0|0:0|0:0|0:0,0:0:0
188,292,109436,2,0,B|168:240,3,57.5,2|0|0|0,0:0|0:0|0:0|0:0,0:0:0
96,292,109747,5,2,0:0:0
54,271,109825,1,2,0:0:0
35,228,109903,1,2,0:0:0
39,182,109980,1,2,0:0:0
67,146,110058,1,2,0:0:0
110,131,110136,1,2,0:0:0
155,137,110213,1,2,0:0:0
189,167,110291,1,2,0:0:0
216,203,110369,2,0,B|276:219|320:255|320:255|328:187|364:147,1,230,2|2,0:0|0:0,0:0:0
383,111,110757,1,2,0:0:0
424,90,110835,1,2,0:0:0
470,87,110913,1,2,0:0:0
500,112,110991,6,0,B|500:168|452:216,1,115,2|0,0:0|0:0,0:0:0
340,216,111302,2,0,B|340:272|388:320,1,115,2|0,0:0|0:0,0:0:0
296,344,111612,1,2,0:0:0
252,352,111690,1,2,0:0:0
208,344,111768,1,2,0:0:0
92,344,111923,1,2,0:0:0
148,244,112079,1,2,0:0:0
204,144,112234,6,0,B|228:92|280:64|280:64|212:36|152:36,1,230,2|2,0:0|0:0,0:0:0
120,32,112623,1,0,0:0:0
76,46,112700,1,0,0:0:0
43,79,112778,1,0,0:0:0
25,121,112856,1,0,0:0:0
11,165,112934,1,0,0:0:0
8,210,113011,1,0,0:0:0
12,255,113089,1,0,0:0:0
24,299,113167,1,0,0:0:0
49,337,113245,1,0,0:0:0
87,361,113322,1,0,0:0:0
108,276,113478,6,0,B|148:236,3,57.5,2|0|0|0,0:0|0:0|0:0|0:0,0:0:0
172,208,113789,2,0,B|212:168,3,57.5,2|0|0|0,0:0|0:0|0:0|0:0,0:0:0
236,140,114099,2,0,B|276:100,3,57.5,2|0|0|0,0:0|0:0|0:0|0:0,0:0:0
300,72,114410,2,0,B|340:32,3,57.5,2|0|0|0,0:0|0:0|0:0|0:0,0:0:0
416,72,114721,5,0,0:0:0
436,80,114799,1,0,0:0:0
456,92,114877,1,0,0:0:0
472,108,114954,1,0,0:0:0
484,128,115032,1,0,0:0:0
492,152,115110,1,0,0:0:0
496,176,115188,1,0,0:0:0
496,200,115265,1,0,0:0:0
492,224,115343,1,0,0:0:0
484,248,115421,1,0,0:0:0
472,268,115498,1,0,0:0:0
456,288,115576,1,0,0:0:0
436,300,115654,1,0,0:0:0
416,312,115732,1,0,0:0:0
392,316,115809,1,0,0:0:0
368,316,115887,1,0,0:0:0
336,312,115965,6,0,P|320:236,2,76.6666666666667
288,316,116276,2,0,P|252:248,2,76.6666666666667
240,328,116586,2,0,P|192:268,2,76.6666666666667
176,316,116897,2,0,B|136:276,3,57.5
106,239,117208,6,0,P|76:172|89:110,1,115,12|2,0:0|0:0,0:0:0
152,75,117519,2,0,P|182:142|169:204,1,115,0|2,0:0|0:0,0:0:0
257,135,117830,2,0,P|253:95|283:28,1,115,8|2,0:0|0:0,0:0:0
374,13,118141,2,0,P|377:52|347:119,1,115,0|2,0:0|0:0,0:0:0
431,155,118452,1,0,0:0:0
469,238,118607,1,2,0:0:0
403,286,118763,2,2,B|374:320|395:360,2,76.6666666666667
345,264,119074,2,2,B|375:233|369:188,2,76.6666666666667
289,289,119384,2,0,B|261:313|261:313|205:325|161:269,1,115,0|2,0:0|0:0,0:0:0
124,228,119695,6,0,P|60:120,1,115,8|2,0:0|0:0,0:0:0
156,136,120006,2,0,P|112:28,1,115,0|2,0:0|0:0,0:0:0
203,43,120317,2,0,P|276:71|335:48,1,115,8|2,0:0|0:0,0:0:0
397,35,120628,2,0,P|342:82|340:136,1,115,0|2,0:0|0:0,0:0:0
405,182,120939,1,0,0:0:0
351,256,121094,1,2,0:0:0
264,328,121250,2,0,P|232:240,2,76.6666666666667
160,332,121561,5,2,0:0:0
116,340,121638,1,2,0:0:0
72,332,121716,1,2,0:0:0
36,300,121794,1,2,0:0:0
28,256,121871,1,2,0:0:0
32,212,121949,1,2,0:0:0
60,176,122027,1,2,0:0:0
104,160,122105,1,2,0:0:0
149,166,122182,6,0,P|216:180|265:154,1,115,8|2,0:0|0:0,0:0:0
301,81,122493,2,0,P|282:147|302:196,1,115,0|2,0:0|0:0,0:0:0
375,139,122804,2,0,P|492:139,1,115,8|2,0:0|0:0,0:0:0
466,228,123115,2,0,P|419:268|412:325,1,115,0|2,0:0|0:0,0:0:0
330,271,123426,1,0,0:0:0
256,325,123581,1,2,0:0:0
164,310,123737,6,0,P|129:352|94:364,2,76.6666666666667
64,268,124048,1,2,0:0:0
40,232,124125,1,2,0:0:0
36,188,124203,1,2,0:0:0
52,144,124281,1,2,0:0:0
88,116,124359,1,2,0:0:0
132,100,124436,1,2,0:0:0
176,104,124514,1,2,0:0:0
216,124,124592,1,2,0:0:0
237,164,124669,6,0,P|284:202|348:205,1,115,8|2,0:0|0:0,0:0:0
315,117,124980,2,0,P|354:67|409:58,1,115,0|2,0:0|0:0,0:0:0
405,149,125291,2,0,P|448:194|504:208,1,115,8|2,0:0|0:0,0:0:0
452,288,125602,2,0,P|332:251,1,115,0|2,0:0|0:0,0:0:0
355,345,125913,1,0,0:0:0
263,346,126068,1,2,0:0:0
255,258,126224,6,0,B|231:229|227:188,1,76.6666666666667
288,172,126431,1,0,0:0:0
331,130,126535,2,0,B|329:83|311:53,1,76.6666666666667
256,76,126742,1,2,0:0:0
236,20,126846,2,2,B|180:32,3,57.5
128,52,127156,6,0,P|72:92|52:140,1,115,0|2,0:0|0:0,0:0:0
76,244,127467,2,0,P|132:204|152:156,1,115,0|2,0:0|0:0,0:0:0
240,240,127778,2,0,P|184:280|164:328,1,115,0|2,0:0|0:0,0:0:0
280,328,128089,2,0,P|336:288|356:240,1,115,0|2,0:0|0:0,0:0:0
456,188,128400,2,0,P|384:124|376:80,1,115,0|2,0:0|0:0,0:0:0
300,28,128711,2,0,P|272:92|216:108,1,115,0|2,0:0|0:0,0:0:0
114,71,129022,6,2,P|37:96,1,76.6666666666667
20,152,129229,1,2,0:0:0
55,202,129333,2,2,P|28:287,1,76.6666666666667
58,330,129540,1,2,0:0:0
112,352,129643,6,0,P|176:372|232:356,1,115,0|2,0:0|0:0,0:0:0
284,264,129954,2,0,P|220:244|164:260,1,115,0|2,0:0|0:0,0:0:0
66,244,130265,2,0,P|130:264|175:253,1,115,0|2,0:0|0:0,0:0:0
238,156,130576,2,0,P|174:136|128:146,1,115,0|2,0:0|0:0,0:0:0
200,56,130887,2,0,P|296:64|336:48,1,115,0|2,0:0|0:0,0:0:0
428,56,131198,2,0,P|412:124|432:180,1,115,0|2,0:0|0:0,0:0:0
323,232,131509,6,2,P|312:285|326:320,2,76.6666666666667
262,219,131820,2,2,P|241:266|213:286,2,76.6666666666667
244,160,132131,6,0,P|228:104|244:40,1,115,0|2,0:0|0:0,0:0:0
352,48,132441,2,0,P|368:104|352:168,1,115,0|2,0:0|0:0,0:0:0
249,270,132752,2,0,P|233:214|249:150,1,115,0|2,0:0|0:0,0:0:0
357,158,133062,2,0,P|373:214|357:278,1,115,0|2,0:0|0:0,0:0:0
249,271,133374,2,0,P|137:311,1,115,0|2,0:0|0:0,0:0:0
176,200,133685,2,0,P|192:68,1,115,0|2,0:0|0:0,0:0:0
69,72,133996,6,2,P|3:113,1,76.6666666666667
53,148,134203,1,2,0:0:0
90,196,134307,2,2,P|27:247,1,76.6666666666667
77,283,134514,1,2,0:0:0
140,304,134618,6,0,B|256:304,1,115,0|2,0:0|0:0,0:0:0
370,304,134928,2,0,B|254:304,1,115,0|2,0:0|0:0,0:0:0
256,188,135239,2,0,B|140:188,1,115,0|2,0:0|0:0,0:0:0
256,188,135550,2,0,B|372:188,1,115,0|2,0:0|0:0,0:0:0
140,64,135861,6,0,B|256:64,1,115,0|2,0:0|0:0,0:0:0
370,64,136172,2,0,B|254:64,1,115,0|2,0:0|0:0,0:0:0
256,112,136405,1,2,0:0:0
244,156,136483,1,0,0:0:0
256,200,136561,1,2,0:0:0
244,244,136638,1,0,0:0:0
256,288,136716,1,2,0:0:0
240,332,136794,2,2,B|176:344,2,57.5
300,328,137105,5,4,0:0:0
492,16,137416,6,4,B|492:176,1,115
20,368,137882,2,4,B|20:204,1,115
484,356,138348,2,4,B|316:356,1,115
28,28,138814,2,0,B|192:28,1,115
258,28,139281,1,0,0:0:0
258,28,139592,5,4,0:0:0
480,352,139903,2,4,B|480:188,1,115
32,32,140369,2,4,B|32:192,1,115
488,28,140835,2,4,B|320:28,1,115
24,356,141302,2,0,B|192:356,1,115
254,356,141768,1,0,0:0:0
254,356,142079,5,4,0:0:0
464,52,142390,2,4,B|348:168,1,115
301,52,142856,2,4,B|383:134,1,115
48,52,143322,2,4,B|164:168,1,115
210,52,143789,2,0,B|129:134,1,115
440,328,144255,1,0,0:0:0
72,328,144566,5,4,0:0:0
72,328,145032,1,4,0:0:0
72,328,145498,1,4,0:0:0
256,192,145576,12,0,150783,0:0:0
