osu file format v14

[General]
AudioFilename: Sunmi-Full Moon(English Cover).mp3
AudioLeadIn: 0
PreviewTime: 141570
Countdown: 0
SampleSet: Soft
StackLeniency: 0.7
Mode: 0
LetterboxInBreaks: 0
WidescreenStoryboard: 1

[Editor]
Bookmarks: 1230,12139,23048,33957,44866,55775,66684,77593,88502,99411,110320,121230,132139,143048,153957,164866,175775,186684,197593
DistanceSpacing: 1.3
BeatDivisor: 6
GridSize: 4
TimelineZoom: 2.499999

[Metadata]
Title:Full Moon
TitleUnicode:Full Moon
Artist:impaofsweden
ArtistUnicode:impaofsweden
Creator:Euny
Version:Normal
Source:
Tags:Natsu 보름달 선미 Sunmi Cover
BeatmapID:969137
BeatmapSetID:444729

[Difficulty]
HPDrainRate:4
CircleSize:3.5
OverallDifficulty:4
ApproachRate:5
SliderMultiplier:1.8
SliderTickRate:1

[Events]
//Background and Video events
0,0,"full moon.jpg",0,0
//Break Periods
2,77793,87302
2,132339,140484
2,165066,174575
//Storyboard Layer 0 (Background)
//Storyboard Layer 1 (Fail)
//Storyboard Layer 2 (Pass)
//Storyboard Layer 3 (Foreground)
Sprite,Foreground,Centre,"Euning.png",320,240 F,0,1002,1230,0,1 M,0,1230,,70,378 S,0,1230,,0.6201288 F,0,1230,11911,1 F,0,11911,12139,1,0
Sprite,Foreground,Centre,"Irving.png",320,240 F,0,11911,12139,0,1 M,0,12139,,499,376 S,0,12139,,0.595355 F,0,12139,22820,1 F,0,22820,23048,1,0
Sprite,Foreground,Centre,"Euning.png",320,240 F,0,22820,23048,0,1 M,0,23048,,70,378 S,0,23048,,0.6201288 F,0,23048,33729,1 F,0,33729,33957,1,0
Sprite,Foreground,Centre,"Euning.png",320,240 F,0,44639,44867,0,1 M,0,44867,,70,378 S,0,44867,,0.6201288 F,0,44867,55548,1 F,0,55548,55776,1,0
Sprite,Foreground,Centre,"Euning.png",320,240 F,0,66457,66685,0,1 M,0,66685,,70,378 S,0,66685,,0.6201288 F,0,66685,77366,1 F,0,77366,77594,1,0
Sprite,Foreground,Centre,"Euning.png",320,240 F,0,99184,99412,0,1 M,0,99412,,70,378 S,0,99412,,0.6201288 F,0,99412,110093,1 F,0,110093,110321,1,0
Sprite,Foreground,Centre,"Euning.png",320,240 F,0,121002,121230,0,1 M,0,121230,,70,378 S,0,121230,,0.6201288 F,0,121230,131911,1 F,0,131911,132139,1,0
Sprite,Foreground,Centre,"Euning.png",320,240 F,0,142820,143048,0,1 M,0,143048,,70,378 S,0,143048,,0.6201288 F,0,143048,153729,1 F,0,153729,153957,1,0
Sprite,Foreground,Centre,"Irving.png",320,240 F,0,33730,33958,0,1 M,0,33958,,499,376 S,0,33958,,0.595355 F,0,33958,44639,1 F,0,44639,44867,1,0
Sprite,Foreground,Centre,"Irving.png",320,240 F,0,55548,55776,0,1 M,0,55776,,499,376 S,0,55776,,0.595355 F,0,55776,66457,1 F,0,66457,66685,1,0
Sprite,Foreground,Centre,"Irving.png",320,240 F,0,88275,88503,0,1 M,0,88503,,499,376 S,0,88503,,0.595355 F,0,88503,99184,1 F,0,99184,99412,1,0
Sprite,Foreground,Centre,"Irving.png",320,240 F,0,110093,110321,0,1 M,0,110321,,499,376 S,0,110321,,0.595355 F,0,110321,121002,1 F,0,121002,121230,1,0
Sprite,Foreground,Centre,"Irving.png",320,240 F,0,153730,153958,0,1 M,0,153958,,499,376 S,0,153958,,0.595355 F,0,153958,164639,1 F,0,164639,164867,1,0
Sprite,Foreground,Centre,"Euning.png",320,240 F,0,175548,175776,0,1 M,0,175776,,70,378 S,0,175776,,0.6201288 F,0,175776,186457,1 F,0,186457,186685,1,0
Sprite,Foreground,Centre,"Irving.png",320,240 F,0,186457,186685,0,1 M,0,186685,,499,376 S,0,186685,,0.595355 F,0,186685,197366,1 F,0,197366,197594,1,0
//Storyboard Sound Samples

[TimingPoints]
1230,681.818181818182,4,2,99,55,1,0
23048,-100,4,2,99,55,0,0
44866,-100,4,2,99,55,0,0
55775,-100,4,2,99,55,0,1
56457,-100,4,2,99,55,0,0
66684,-100,4,2,99,55,0,1
67366,-100,4,2,99,55,0,0
77593,-100,4,2,99,55,0,0
99411,-100,4,2,99,55,0,0
121230,-100,4,2,99,55,0,0
143048,-100,4,2,99,55,0,1
143730,-100,4,2,99,55,0,0
153957,-100,4,2,99,55,0,0
175775,-100,4,2,99,55,0,0
186684,-100,4,2,99,55,0,0
196230,-100,4,2,99,55,0,0

[Colours]
Combo1 : 128,128,128
Combo2 : 255,128,128

[HitObjects]
285,348,1230,6,0,L|378:339,1,90,6|2,0:0|0:0,0:0:0:0:
480,289,1911,1,8,0:0:0:0:
433,181,2252,2,0,L|368:160,1,60,2|0,0:0|0:0,0:0:0:0:
338,150,2593,6,0,P|337:209|321:251,1,90,2|2,0:0|0:0,0:0:0:0:
222,290,3275,1,8,0:0:0:0:
117,237,3616,2,0,L|54:261,1,60,2|0,0:0|0:0,0:0:0:0:
22,263,3957,6,0,P|26:218|22:173,1,90,2|2,0:0|0:0,0:0:0:0:
9,56,4639,2,0,P|49:76|92:86,1,90,8|2,0:0|0:0,0:0:0:0:
210,84,5320,5,8,0:0:0:0:
322,51,5661,1,2,0:0:0:0:
416,120,6002,1,8,0:0:0:0:
350,217,6343,2,0,L|295:260,1,60,2|0,0:0|0:0,0:0:0:0:
281,286,6684,6,0,P|264:245|231:216,1,90,2|2,0:0|0:0,0:0:0:0:
112,210,7366,2,0,P|119:166|146:130,1,90,8|2,0:0|0:0,0:0:0:0:
255,87,8048,5,2,0:0:0:0:
361,136,8389,1,2,0:0:0:0:
464,81,8730,2,0,P|472:125|472:170,1,90,8|2,0:0|0:0,0:0:0:0:
466,286,9411,6,0,P|422:273|377:270,1,90,2|2,0:0|0:0,0:0:0:0:
285,341,10093,2,0,P|240:348|196:342,1,90,8|2,0:0|0:0,0:0:0:0:
116,255,10775,5,2,0:0:0:0:
143,141,11116,1,2,0:0:0:0:
257,118,11457,1,8,0:0:0:0:
361,171,11798,2,0,L|431:154,1,60,2|0,0:0|0:0,0:0:0:0:
454,141,12139,6,0,P|456:185|470:228,1,90,6|2,0:0|0:0,0:0:0:0:
504,340,12820,1,8,0:0:0:0:
392,312,13161,2,0,L|328:312,1,60,2|0,0:0|0:0,0:0:0:0:
292,316,13502,6,0,P|299:268|280:224,1,90,2|2,0:0|0:0,0:0:0:0:
180,176,14184,1,8,0:0:0:0:
285,230,14525,2,0,L|377:230,1,90,2|2,0:0|0:0,0:0:0:0:
292,316,15207,5,2,0:0:0:0:
192,252,15548,2,0,B|184:196|184:196|216:160|200:96,1,150,8|0,0:0|0:0,0:0:0:0:
204,68,16230,6,0,P|246:79|290:69,1,90,2|2,0:0|0:0,0:0:0:0:
396,20,16911,1,2,0:0:0:0:
460,116,17252,2,0,L|460:216,1,90,2|2,0:0|0:0,0:0:0:0:
460,324,17934,5,2,0:0:0:0:
360,264,18275,2,0,P|284:244|211:281,1,150,8|0,0:0|0:0,0:0:0:0:
188,292,18957,6,0,L|172:200,1,90,2|2,0:0|0:0,0:0:0:0:
136,92,19639,1,8,0:0:0:0:
240,148,19980,1,2,0:0:0:0:
288,44,20320,6,0,P|332:36|380:48,1,90,2|2,0:0|0:0,0:0:0:0:
327,149,21002,2,0,P|283:157|235:145,1,90,8|0,0:0|0:0,0:0:0:0:
164,60,21684,5,2,0:0:0:0:
124,168,22025,1,2,0:0:0:0:
239,147,22366,1,2,0:0:0:0:
280,36,22707,1,2,0:0:0:0:
165,60,23048,6,0,L|70:72,1,90,6|2,0:0|0:0,0:0:0:0:
7,167,23730,2,0,P|37:199|47:243,1,90,8|2,0:0|0:0,0:0:0:0:
41,359,24411,6,0,L|144:340,1,90,2|2,0:0|0:0,0:0:0:0:
242,309,25093,1,8,0:0:0:0:
351,349,25434,2,0,P|380:349|410:342,1,60,2|0,0:0|0:0,0:0:0:0:
442,320,25775,6,0,P|421:282|414:237,1,90,2|2,0:0|0:0,0:0:0:0:
434,121,26457,2,0,L|322:137,1,90,8|2,0:0|0:0,0:0:0:0:
232,167,27139,5,2,0:0:0:0:
121,128,27480,1,2,0:0:0:0:
49,220,27820,2,0,P|67:261|77:304,1,90,2|2,0:0|0:0,0:0:0:0:
185,351,28502,6,0,L|295:344,1,90,2|2,0:0|0:0,0:0:0:0:
392,351,29184,2,0,P|372:310|369:266,1,90,8|2,0:0|0:0,0:0:0:0:
395,151,29866,6,0,L|306:167,1,90,2|2,0:0|0:0,0:0:0:0:
195,205,30547,1,8,0:0:0:0:
85,163,30888,2,0,P|93:135|96:104,1,60,2|0,0:0|0:0,0:0:0:0:
94,65,31229,6,0,L|183:68,1,90,2|2,0:0|0:0,0:0:0:0:
301,69,31911,2,0,P|298:113|310:156,1,90,8|2,0:0|0:0,0:0:0:0:
413,213,32593,5,2,0:0:0:0:
363,313,32934,1,2,0:0:0:0:
258,260,33275,2,0,B|214:275|214:244|169:254,1,90,2|2,0:0|0:0,0:0:0:0:
64,204,33957,6,0,L|36:112,1,90,2|2,0:0|0:0,0:0:0:0:
156,124,34639,2,0,L|201:39,1,90,8|2,0:0|0:0,0:0:0:0:
280,128,35320,6,0,L|372:100,1,90,2|2,0:0|0:0,0:0:0:0:
360,220,36002,2,0,L|444:265,1,90,8|2,0:0|0:0,0:0:0:0:
384,368,36684,6,0,P|344:352|284:368,1,90,2|2,0:0|0:0,0:0:0:0:
180,372,37366,2,0,L|152:280,1,90,8|2,0:0|0:0,0:0:0:0:
44,244,38048,5,2,0:0:0:0:
140,176,38389,1,2,0:0:0:0:
36,124,38729,2,0,L|20:28,1,90,8|2,0:0|0:0,0:0:0:0:
136,52,39411,6,0,P|180:60|228:48,1,90,2|2,0:0|0:0,0:0:0:0:
340,28,40093,1,8,0:0:0:0:
400,128,40434,2,0,L|416:204,1,60,0|0,0:0|0:0,0:0:0:0:
420,224,40775,6,0,P|377:220|336:244,1,90,2|2,0:0|0:0,0:0:0:0:
260,332,41456,1,8,0:0:0:0:
192,236,41797,2,0,L|172:172,1,60,2|0,0:0|0:0,0:0:0:0:
160,144,42139,6,0,P|116:160|72:152,1,90,2|2,0:0|0:0,0:0:0:0:
112,40,42820,2,0,P|156:24|200:32,1,90,8|2,0:0|0:0,0:0:0:0:
292,100,43502,5,2,0:0:0:0:
240,204,43843,1,2,0:0:0:0:
357,204,44184,2,0,B|457:204,1,90,0|2,0:0|0:0,0:0:0:0:
485,315,44866,6,0,B|395:315,1,90,6|2,0:0|0:0,0:0:0:0:
278,313,45548,1,8,0:0:0:0:
170,359,45889,2,0,P|152:334|144:305,1,60,2|0,0:0|0:0,0:0:0:0:
154,268,46230,6,0,L|49:301,1,90,2|2,0:0|0:0,0:0:0:0:
8,194,46911,2,0,L|93:167,1,90,8|2,0:0|0:0,0:0:0:0:
204,127,47593,6,0,P|239:154|282:163,1,90,2|2,0:0|0:0,0:0:0:0:
370,85,48275,1,8,0:0:0:0:
481,121,48616,2,0,L|475:192,1,60,2|0,0:0|0:0,0:0:0:0:
453,212,48957,6,0,L|475:307,1,90,2|2,0:0|0:0,0:0:0:0:
383,375,49639,2,0,L|362:287,1,90,8|2,0:0|0:0,0:0:0:0:
294,192,50320,6,0,P|251:205|206:205,1,90,2|2,0:0|0:0,0:0:0:0:
95,165,51002,1,8,0:0:0:0:
34,265,51343,2,0,L|46:336,1,60,2|0,0:0|0:0,0:0:0:0:
62,357,51684,6,0,P|101:337|146:335,1,90,2|2,0:0|0:0,0:0:0:0:
257,372,52366,2,0,P|301:374|343:359,1,90,8|2,0:0|0:0,0:0:0:0:
398,255,53048,6,0,L|386:156,1,90,2|2,0:0|0:0,0:0:0:0:
300,86,53730,2,0,L|283:174,1,90,8|0,0:0|0:0,0:0:0:0:
239,282,54411,5,2,0:0:0:0:
138,341,54752,1,2,0:0:0:0:
136,224,55093,1,2,0:0:0:0:
239,282,55434,2,0,L|307:280,1,60,2|0,0:0|0:0,0:0:0:0:
336,290,55775,6,0,P|326:246|336:202,1,90,6|2,0:0|0:0,0:0:0:0:
428,128,56457,1,8,0:0:0:0:
320,84,56798,2,0,L|252:84,1,60,2|0,0:0|0:0,0:0:0:0:
220,88,57139,6,0,P|231:130|221:174,1,90,2|2,0:0|0:0,0:0:0:0:
124,240,57820,2,0,P|112:282|122:326,1,90,8|2,0:0|0:0,0:0:0:0:
228,376,58502,5,2,0:0:0:0:
256,264,58843,1,2,0:0:0:0:
352,328,59184,2,0,B|424:300|424:360|504:328,1,150,8|0,0:0|0:0,0:0:0:0:
508,292,59866,6,0,P|520:244|504:196,1,90,2|2,0:0|0:0,0:0:0:0:
416,136,60548,1,8,0:0:0:0:
340,224,60889,1,2,0:0:0:0:
304,112,61230,6,0,P|260:104|208:120,1,90,2|2,0:0|0:0,0:0:0:0:
252,227,61911,2,0,P|296:235|348:219,1,90,8|2,0:0|0:0,0:0:0:0:
416,136,62593,5,2,0:0:0:0:
460,244,62934,1,2,0:0:0:0:
380,328,63275,2,0,B|308:368|308:300|236:329,1,150,8|0,0:0|0:0,0:0:0:0:
200,340,63957,6,0,L|152:260,1,90,2|2,0:0|0:0,0:0:0:0:
44,216,64639,1,8,0:0:0:0:
140,148,64980,1,2,0:0:0:0:
32,100,65320,6,0,P|20:59|32:12,1,90,2|2,0:0|0:0,0:0:0:0:
141,56,66002,2,0,B|216:83|216:26|286:57,1,150,8|0,0:0|0:0,0:0:0:0:
307,90,66684,6,0,P|350:99|394:89,1,90,2|2,0:0|0:0,0:0:0:0:
480,10,67366,1,8,0:0:0:0:
499,125,67707,2,0,L|488:190,1,60,2|0,0:0|0:0,0:0:0:0:
481,222,68048,6,0,P|436:219|392:227,1,90,2|2,0:0|0:0,0:0:0:0:
283,270,68729,2,0,L|288:180,1,90,8|2,0:0|0:0,0:0:0:0:
294,62,69411,5,2,0:0:0:0:
192,120,69752,1,2,0:0:0:0:
75,109,70093,2,0,B|69:159|109:205|109:205|64:205,1,150,8|0,0:0|0:0,0:0:0:0:
26,216,70775,6,0,P|14:264|30:312,1,90,2|2,0:0|0:0,0:0:0:0:
133,345,71457,1,8,0:0:0:0:
237,292,71798,1,2,0:0:0:0:
337,352,72139,6,0,P|380:340|424:348,1,90,2|2,0:0|0:0,0:0:0:0:
504,264,72820,2,0,L|500:166,1,90,8|2,0:0|0:0,0:0:0:0:
470,60,73502,5,2,0:0:0:0:
380,134,73843,1,2,0:0:0:0:
294,53,74184,2,0,B|222:93|222:25|150:54,1,150,8|0,0:0|0:0,0:0:0:0:
122,81,74866,6,0,P|136:123|133:168,1,90,2|2,0:0|0:0,0:0:0:0:
36,233,75548,1,8,0:0:0:0:
104,328,75889,1,2,0:0:0:0:
219,311,76229,6,0,P|257:293|306:298,1,90,2|2,0:0|0:0,0:0:0:0:
413,339,76911,1,8,0:0:0:0:
486,248,77252,1,2,0:0:0:0:
415,154,77593,5,6,0:0:0:0:
88,100,88502,6,0,P|104:144|84:200,1,90,6|2,0:0|0:0,0:0:0:0:
24,280,89183,1,8,0:0:0:0:
128,332,89524,2,0,L|188:332,1,60,2|0,0:0|0:0,0:0:0:0:
228,332,89866,6,0,P|221:284|240:240,1,90,2|2,0:0|0:0,0:0:0:0:
316,160,90547,1,8,0:0:0:0:
204,132,90889,2,0,L|114:132,1,90,2|2,0:0|0:0,0:0:0:0:
24,60,91570,5,2,0:0:0:0:
20,176,91911,2,0,B|28:232|28:232|-4:268|12:332,1,150,8|0,0:0|0:0,0:0:0:0:
44,336,92593,6,0,P|86:325|130:335,1,90,2|2,0:0|0:0,0:0:0:0:
244,368,93274,1,8,0:0:0:0:
208,256,93616,2,0,L|208:166,1,90,2|2,0:0|0:0,0:0:0:0:
212,48,94297,5,2,0:0:0:0:
304,120,94638,2,0,P|380:140|453:103,1,150,8|0,0:0|0:0,0:0:0:0:
476,96,95320,6,0,L|480:192,1,90,2|2,0:0|0:0,0:0:0:0:
484,304,96002,1,8,0:0:0:0:
392,232,96343,1,2,0:0:0:0:
372,348,96684,6,0,P|328:356|280:344,1,90,2|2,0:0|0:0,0:0:0:0:
304,230,97366,2,0,P|348:222|396:234,1,90,8|2,0:0|0:0,0:0:0:0:
484,304,98047,5,2,0:0:0:0:
372,348,98388,1,2,0:0:0:0:
391,231,98729,1,8,0:0:0:0:
484,304,99070,1,2,0:0:0:0:
372,348,99411,6,0,L|276:348,1,90,6|2,0:0|0:0,0:0:0:0:
164,347,100093,2,0,P|183:307|185:263,1,90,8|2,0:0|0:0,0:0:0:0:
133,156,100775,6,0,L|238:138,1,90,2|2,0:0|0:0,0:0:0:0:
338,126,101457,1,8,0:0:0:0:
432,57,101798,2,0,L|449:125,1,60,2|0,0:0|0:0,0:0:0:0:
474,142,102139,6,0,L|442:237,1,90,2|2,0:0|0:0,0:0:0:0:
381,325,102820,2,0,P|337:313|293:317,1,90,8|2,0:0|0:0,0:0:0:0:
190,374,103502,6,0,P|137:380|91:366,1,90,2|2,0:0|0:0,0:0:0:0:
60,261,104184,1,2,0:0:0:0:
126,164,104525,1,2,0:0:0:0:
45,79,104866,6,0,L|137:36,1,90,2|2,0:0|0:0,0:0:0:0:
243,48,105548,2,0,L|340:83,1,90,8|2,0:0|0:0,0:0:0:0:
441,56,106230,6,0,P|431:99|444:141,1,90,2|2,0:0|0:0,0:0:0:0:
500,244,106911,2,0,P|460:262|415:263,1,90,8|2,0:0|0:0,0:0:0:0:
301,234,107593,5,2,0:0:0:0:
213,311,107934,1,2,0:0:0:0:
107,260,108275,2,0,P|88:219|88:174,1,90,8|2,0:0|0:0,0:0:0:0:
146,73,108957,6,0,B|191:87|191:62|234:73,1,90,2|2,0:0|0:0,0:0:0:0:
332,137,109639,1,8,0:0:0:0:
410,50,109980,2,0,L|476:41,1,60,2|0,0:0|0:0,0:0:0:0:
496,69,110320,6,0,P|482:111|479:156,1,90,2|2,0:0|0:0,0:0:0:0:
488,272,111002,1,8,0:0:0:0:
380,228,111343,2,0,L|320:231,1,60,2|0,0:0|0:0,0:0:0:0:
280,240,111684,6,0,P|292:280|272:336,1,90,2|2,0:0|0:0,0:0:0:0:
172,372,112366,1,8,0:0:0:0:
68,320,112707,2,0,L|32:260,1,60,2|0,0:0|0:0,0:0:0:0:
24,232,113048,6,0,P|72:232|108:204,1,90,2|2,0:0|0:0,0:0:0:0:
196,132,113730,2,0,L|196:40,2,90,8|2|2,0:0|0:0|0:0,0:0:0:0:
196,248,114752,5,2,0:0:0:0:
292,180,115093,1,8,0:0:0:0:
304,296,115434,1,2,0:0:0:0:
196,248,115775,6,0,P|147:235|106:248,1,90,2|2,0:0|0:0,0:0:0:0:
4,296,116457,2,0,P|16:247|4:206,1,90,8|2,0:0|0:0,0:0:0:0:
8,92,117139,5,2,0:0:0:0:
116,136,117480,1,2,0:0:0:0:
204,60,117820,2,0,B|280:28|280:92|368:56,1,150,8|0,0:0|0:0,0:0:0:0:
384,80,118502,6,0,P|372:124|388:168,1,90,2|2,0:0|0:0,0:0:0:0:
480,236,119184,1,8,0:0:0:0:
372,280,119525,2,0,L|308:292,1,60,2|0,0:0|0:0,0:0:0:0:
272,292,119866,6,0,P|281:243|264:200,1,90,2|2,0:0|0:0,0:0:0:0:
188,120,120548,1,8,0:0:0:0:
113,210,120889,2,0,L|44:218,1,60,2|0,0:0|0:0,0:0:0:0:
17,231,121230,6,0,P|16:275|34:316,1,90,2|2,0:0|0:0,0:0:0:0:
143,360,121912,1,8,0:0:0:0:
253,322,122253,2,0,P|259:291|275:266,1,60,2|0,0:0|0:0,0:0:0:0:
298,236,122594,6,0,L|199:203,1,90,2|0,0:0|0:0,0:0:0:0:
140,115,123275,2,0,L|225:88,1,90,8|2,0:0|0:0,0:0:0:0:
341,66,123957,6,0,P|338:110|356:150,1,90,2|2,0:0|0:0,0:0:0:0:
458,210,124639,1,8,0:0:0:0:
435,324,124980,2,0,L|354:334,1,60,2|0,0:0|0:0,0:0:0:0:
338,343,125320,6,0,P|330:298|306:260,1,90,2|2,0:0|0:0,0:0:0:0:
197,217,126002,2,0,P|204:172|228:134,1,90,8|2,0:0|0:0,0:0:0:0:
311,51,126684,6,0,L|207:28,1,90,2|2,0:0|0:0,0:0:0:0:
105,28,127366,1,8,0:0:0:0:
13,100,127707,2,0,L|31:171,1,60,2|0,0:0|0:0,0:0:0:0:
56,184,128048,6,0,L|36:289,1,90,2|2,0:0|0:0,0:0:0:0:
108,367,128730,2,0,P|152:369|194:354,1,90,8|2,0:0|0:0,0:0:0:0:
281,274,129412,6,0,P|325:276|367:293,1,90,2|2,0:0|0:0,0:0:0:0:
475,339,130094,2,0,L|466:249,1,90,8|2,0:0|0:0,0:0:0:0:
448,133,130775,6,0,P|408:152|364:162,1,90,2|2,0:0|0:0,0:0:0:0:
258,111,131457,2,0,L|244:227,1,90,8|2,0:0|0:0,0:0:0:0:
226,315,132139,5,6,0:0:0:0:
226,315,141684,5,2,0:0:0:0:
110,293,142025,1,2,0:0:0:0:
138,179,142366,1,2,0:0:0:0:
253,195,142707,2,0,L|321:193,1,60,2|8,0:0|0:3,0:0:0:0:
352,196,143048,6,0,P|342:239|352:283,1,90,6|2,0:0|0:0,0:0:0:0:
461,327,143730,1,8,0:0:0:0:
490,213,144071,2,0,L|478:151,1,60,2|0,0:0|0:0,0:0:0:0:
461,119,144412,6,0,P|418:129|374:118,1,90,2|2,0:0|0:0,0:0:0:0:
269,67,145093,2,0,L|271:161,1,90,8|2,0:0|0:0,0:0:0:0:
266,274,145775,5,2,0:0:0:0:
163,217,146116,1,2,0:0:0:0:
160,333,146457,2,0,P|91:309|50:242,1,150,8|0,0:0|0:0,0:0:0:0:
27,215,147139,6,0,P|47:170|41:120,1,90,2|2,0:0|0:0,0:0:0:0:
7,19,147821,1,8,0:0:0:0:
121,41,148162,1,2,0:0:0:0:
194,131,148503,6,0,P|162:162|145:214,1,90,2|2,0:0|0:0,0:0:0:0:
259,240,149184,2,0,P|290:208|307:156,1,90,8|2,0:0|0:0,0:0:0:0:
277,53,149866,5,2,0:0:0:0:
391,77,150207,1,2,0:0:0:0:
443,181,150548,2,0,B|404:253|472:252|444:324,1,150,8|0,0:0|0:0,0:0:0:0:
407,335,151230,6,0,P|362:330|317:336,1,90,2|2,0:0|0:0,0:0:0:0:
202,360,151912,1,8,0:0:0:0:
124,271,152253,1,2,0:0:0:0:
161,160,152593,6,0,L|264:148,1,90,2|2,0:0|0:0,0:0:0:0:
359,106,153275,2,0,B|339:183|396:177|373:250,1,150,8|0,0:0|0:0,0:0:0:0:
363,288,153957,6,0,P|325:310|280:313,1,90,6|0,0:0|0:0,0:0:0:0:
192,236,154639,2,0,L|172:96,1,120,2|0,0:0|0:0,0:0:0:0:
96,120,155320,6,0,L|109:219,1,90,2|2,0:0|0:0,0:0:0:0:
168,312,156002,2,0,P|211:312|256:280,1,90,2|2,0:0|0:0,0:0:0:0:
288,176,156684,5,2,0:0:0:0:
212,88,157025,2,0,B|168:76|168:76|120:92,1,90,2|2,0:0|0:0,0:0:0:0:
36,308,158048,6,0,B|80:320|80:320|128:304,1,90,2|0,0:0|0:0,0:0:0:0:
220,244,158730,1,2,0:0:0:0:
256,356,159070,1,2,0:0:0:0:
328,264,159411,6,0,P|368:252|420:264,1,90,2|2,0:0|0:0,0:0:0:0:
500,180,160093,2,0,L|500:80,1,90,2|2,0:0|0:0,0:0:0:0:
388,128,160775,6,0,P|348:140|296:128,2,90,2|2|2,0:0|0:0|0:0,0:0:0:0:
344,20,161798,1,2,0:0:0:0:
232,48,162139,6,0,L|136:48,1,90,2|2,0:0|0:0,0:0:0:0:
44,108,162820,2,0,P|56:152|40:204,1,90,2|2,0:0|0:0,0:0:0:0:
81,305,163502,6,0,P|113:278|162:272,1,90,2|2,0:0|0:0,0:0:0:0:
277,289,164184,1,2,0:0:0:0:
327,184,164525,1,2,0:0:0:0:
237,108,164866,5,6,0:0:0:0:
237,108,175775,6,0,L|132:112,1,90,6|2,0:0|0:0,0:0:0:0:
44,168,176456,1,8,0:0:0:0:
92,274,176797,2,0,L|146:300,1,60,2|0,0:0|0:0,0:0:0:0:
183,312,177139,6,0,P|176:264|195:220,1,90,2|2,0:0|0:0,0:0:0:0:
297,177,177820,1,8,0:0:0:0:
239,74,178161,2,0,L|149:74,1,90,2|2,0:0|0:0,0:0:0:0:
31,74,178843,5,2,0:0:0:0:
49,190,179184,2,0,B|52:241|39:285|39:285|102:271,1,150,8|0,0:0|0:0,0:0:0:0:
128,259,179866,6,0,P|170:248|214:258,1,90,2|2,0:0|0:0,0:0:0:0:
312,322,180547,1,8,0:0:0:0:
418,273,180889,2,0,P|422:228|418:183,1,90,2|2,0:0|0:0,0:0:0:0:
376,73,181570,5,2,0:0:0:0:
259,86,181911,2,0,P|190:113|119:93,1,150,8|0,0:0|0:0,0:0:0:0:
82,82,182593,6,0,L|86:178,1,90,2|2,0:0|0:0,0:0:0:0:
113,286,183275,1,8,0:0:0:0:
229,272,183616,1,2,0:0:0:0:
321,343,183957,6,0,P|352:311|395:299,1,90,2|2,0:0|0:0,0:0:0:0:
490,230,184639,2,0,P|458:198|415:186,1,90,8|2,0:0|0:0,0:0:0:0:
298,183,185320,5,2,0:0:0:0:
253,74,185661,1,2,0:0:0:0:
163,149,186002,1,8,0:0:0:0:
205,258,186343,1,2,0:0:0:0:
298,183,186684,6,0,L|388:183,1,90,6|2,0:0|0:0,0:0:0:0:
468,268,187366,2,0,P|458:313|476:360,1,90,8|2,0:0|0:0,0:0:0:0:
356,364,188048,6,0,L|263:363,1,90,2|2,0:0|0:0,0:0:0:0:
172,296,188730,2,0,P|160:252|172:204,1,90,8|2,0:0|0:0,0:0:0:0:
272,152,189411,6,0,P|284:196|272:244,1,90,2|2,0:0|0:0,0:0:0:0:
172,296,190094,2,0,L|72:296,1,90,8|2,0:0|0:0,0:0:0:0:
20,196,190775,6,0,P|29:152|17:109,1,90,2|2,0:0|0:0,0:0:0:0:
108,32,191457,1,8,0:0:0:0:
224,56,191798,1,2,0:0:0:0:
300,148,192139,6,0,P|344:160|396:136,1,90,2|2,0:0|0:0,0:0:0:0:
492,100,192820,2,0,B|492:208,1,90,8|2,0:0|0:0,0:0:0:0:
456,300,193502,6,0,P|412:288|360:312,1,90,2|2,0:0|0:0,0:0:0:0:
264,348,194184,2,0,B|264:240,1,90,8|2,0:0|0:0,0:0:0:0:
156,212,194866,6,0,L|157:111,1,90,2|2,0:0|0:0,0:0:0:0:
260,64,195548,2,0,P|304:72|348:56,1,90,8|2,0:0|0:0,0:0:0:0:
460,28,196230,6,0,P|452:72|468:116,1,90,2|2,0:0|0:0,0:0:0:0:
510,222,196911,1,8,0:0:0:0:
446,320,197252,1,2,0:0:0:0:
357,243,197593,5,6,0:0:0:0:
