osu file format v14

[General]
AudioFilename: Sunmi-Full Moon(English Cover).mp3
AudioLeadIn: 0
PreviewTime: 141570
Countdown: 0
SampleSet: Soft
StackLeniency: 0.7
Mode: 0
LetterboxInBreaks: 0
WidescreenStoryboard: 1

[Editor]
Bookmarks: 1230,12139,23048,33957,44866,55775,66684,77593,88502,99411,110320,121230,132139,143048,153957,164866,175775,186684,197593
DistanceSpacing: 1.2
BeatDivisor: 6
GridSize: 4
TimelineZoom: 2.199999

[Metadata]
Title:Full Moon
TitleUnicode:Full Moon
Artist:impaofsweden
ArtistUnicode:impaofsweden
Creator:Euny
Version:Easy
Source:
Tags:Natsu 보름달 선미 Sunmi Cover
BeatmapID:969199
BeatmapSetID:444729

[Difficulty]
HPDrainRate:2
CircleSize:3
OverallDifficulty:2
ApproachRate:2
SliderMultiplier:1.4
SliderTickRate:1

[Events]
//Background and Video events
0,0,"full moon.jpg",0,0
//Break Periods
2,77792,86942
2,132338,140124
2,165066,174215
//Storyboard Layer 0 (Background)
//Storyboard Layer 1 (Fail)
//Storyboard Layer 2 (Pass)
//Storyboard Layer 3 (Foreground)
Sprite,Foreground,Centre,"Euning.png",320,240 F,0,1002,1230,0,1 M,0,1230,,70,378 S,0,1230,,0.6201288 F,0,1230,11911,1 F,0,11911,12139,1,0
Sprite,Foreground,Centre,"Irving.png",320,240 F,0,11911,12139,0,1 M,0,12139,,499,376 S,0,12139,,0.595355 F,0,12139,22820,1 F,0,22820,23048,1,0
Sprite,Foreground,Centre,"Euning.png",320,240 F,0,22820,23048,0,1 M,0,23048,,70,378 S,0,23048,,0.6201288 F,0,23048,33729,1 F,0,33729,33957,1,0
Sprite,Foreground,Centre,"Euning.png",320,240 F,0,44639,44867,0,1 M,0,44867,,70,378 S,0,44867,,0.6201288 F,0,44867,55548,1 F,0,55548,55776,1,0
Sprite,Foreground,Centre,"Euning.png",320,240 F,0,66457,66685,0,1 M,0,66685,,70,378 S,0,66685,,0.6201288 F,0,66685,77366,1 F,0,77366,77594,1,0
Sprite,Foreground,Centre,"Euning.png",320,240 F,0,99184,99412,0,1 M,0,99412,,70,378 S,0,99412,,0.6201288 F,0,99412,110093,1 F,0,110093,110321,1,0
Sprite,Foreground,Centre,"Euning.png",320,240 F,0,121002,121230,0,1 M,0,121230,,70,378 S,0,121230,,0.6201288 F,0,121230,131911,1 F,0,131911,132139,1,0
Sprite,Foreground,Centre,"Euning.png",320,240 F,0,142820,143048,0,1 M,0,143048,,70,378 S,0,143048,,0.6201288 F,0,143048,153729,1 F,0,153729,153957,1,0
Sprite,Foreground,Centre,"Irving.png",320,240 F,0,33730,33958,0,1 M,0,33958,,499,376 S,0,33958,,0.595355 F,0,33958,44639,1 F,0,44639,44867,1,0
Sprite,Foreground,Centre,"Irving.png",320,240 F,0,55548,55776,0,1 M,0,55776,,499,376 S,0,55776,,0.595355 F,0,55776,66457,1 F,0,66457,66685,1,0
Sprite,Foreground,Centre,"Irving.png",320,240 F,0,88275,88503,0,1 M,0,88503,,499,376 S,0,88503,,0.595355 F,0,88503,99184,1 F,0,99184,99412,1,0
Sprite,Foreground,Centre,"Irving.png",320,240 F,0,110093,110321,0,1 M,0,110321,,499,376 S,0,110321,,0.595355 F,0,110321,121002,1 F,0,121002,121230,1,0
Sprite,Foreground,Centre,"Irving.png",320,240 F,0,153730,153958,0,1 M,0,153958,,499,376 S,0,153958,,0.595355 F,0,153958,164639,1 F,0,164639,164867,1,0
Sprite,Foreground,Centre,"Euning.png",320,240 F,0,175548,175776,0,1 M,0,175776,,70,378 S,0,175776,,0.6201288 F,0,175776,186457,1 F,0,186457,186685,1,0
Sprite,Foreground,Centre,"Irving.png",320,240 F,0,186457,186685,0,1 M,0,186685,,499,376 S,0,186685,,0.595355 F,0,186685,197366,1 F,0,197366,197594,1,0
//Storyboard Sound Samples

[TimingPoints]
1230,681.818181818182,4,2,99,55,1,0
23048,-100,4,2,99,55,0,0
44866,-100,4,2,99,55,0,0
55775,-100,4,2,99,55,0,1
56457,-100,4,2,99,55,0,0
66684,-100,4,2,99,55,0,1
67366,-100,4,2,99,55,0,0
77593,-100,4,2,99,55,0,0
99411,-100,4,2,99,55,0,0
121230,-100,4,2,99,55,0,0
143048,-100,4,2,99,55,0,1
143730,-100,4,2,99,55,0,0
153957,-100,4,2,99,55,0,0
175775,-100,4,2,99,55,0,0
186684,-100,4,2,99,55,0,0
196230,-100,4,2,99,55,0,0

[Colours]
Combo1 : 128,128,128
Combo2 : 255,128,128

[HitObjects]
249,261,1230,6,0,L|386:235,1,140,6|8,0:0|0:0,0:0:0:0:
467,213,2252,1,2,0:0:0:0:
429,137,2593,2,0,P|384:120|359:98,1,70,2|2,0:0|0:0,0:0:0:0:
301,53,3275,2,0,L|221:79,1,70,8|2,0:0|0:0,0:0:0:0:
151,60,3957,6,0,L|158:208,1,140,2|8,0:0|0:0,0:0:0:0:
247,341,5320,2,0,B|316:316|316:367|382:336,1,140,8|8,0:0|0:0,0:0:0:0:
401,168,6684,6,0,P|339:136|293:84,1,140,2|8,0:0|0:0,0:0:0:0:
228,29,7707,1,2,0:0:0:0:
151,63,8048,2,0,P|116:69|81:68,1,70,2|2,0:0|0:0,0:0:0:0:
18,124,8730,2,0,P|39:151|49:184,1,70,8|2,0:0|0:0,0:0:0:0:
47,268,9411,6,0,P|114:284|183:272,1,140,2|8,0:0|0:0,0:0:0:0:
349,248,10775,2,0,L|375:326,1,70,2|2,0:0|0:0,0:0:0:0:
452,336,11457,2,0,L|465:263,1,70,8|2,0:0|0:0,0:0:0:0:
492,188,12139,6,0,P|468:128|512:48,1,140,6|8,0:0|0:0,0:0:0:0:
423,20,13161,1,2,0:0:0:0:
380,92,13502,2,0,P|318:108|240:68,1,140,2|8,0:0|0:0,0:0:0:0:
168,56,14525,2,0,L|168:140,1,70,2|2,0:0|0:0,0:0:0:0:
168,212,15207,5,2,0:0:0:0:
232,268,15548,2,0,P|300:288|364:260,1,140,8|2,0:0|0:0,0:0:0:0:
404,192,16570,1,2,0:0:0:0:
404,108,16911,2,0,L|340:52,1,70,2|2,0:0|0:0,0:0:0:0:
268,52,17593,6,0,P|200:80|128:44,1,140,2|8,0:0|0:0,0:0:0:0:
64,28,18616,1,0,0:0:0:0:
76,112,18957,2,0,L|76:264,1,140,2|8,0:0|0:0,0:0:0:0:
76,336,19980,1,2,0:0:0:0:
148,292,20320,6,0,P|208:272|284:296,1,140,2|8,0:0|0:0,0:0:0:0:
428,376,21684,1,2,0:0:0:0:
489,319,22025,2,0,P|497:285|489:251,2,70,2|2|2,0:0|0:0|0:0,0:0:0:0:
411,285,23048,6,0,L|271:288,1,140,6|8,0:0|0:0,0:0:0:0:
153,167,24411,2,0,L|293:164,1,140,2|8,0:0|0:0,0:0:0:0:
370,131,25434,1,2,0:0:0:0:
445,168,25775,6,0,B|426:236|475:236|456:304,1,140,2|8,0:0|0:0,0:0:0:0:
294,350,27139,2,0,L|206:340,1,70,2|2,0:0|0:0,0:0:0:0:
142,322,27820,2,0,L|68:350,1,70,2|2,0:0|0:0,0:0:0:0:
33,273,28502,6,0,P|56:208|44:140,1,140,2|8,0:0|0:0,0:0:0:0:
188,53,29866,2,0,P|256:67|323:51,1,140,2|8,0:0|0:0,0:0:0:0:
405,29,30889,1,2,0:0:0:0:
472,79,31230,6,0,L|469:223,1,140,2|8,0:0|0:0,0:0:0:0:
381,362,32593,2,0,L|309:343,1,70,2|2,0:0|0:0,0:0:0:0:
234,316,33275,2,0,L|160:347,1,70,2|2,0:0|0:0,0:0:0:0:
85,343,33957,6,0,B|110:279|55:279|76:207,1,140,2|8,0:0|0:0,0:0:0:0:
208,104,35320,2,0,L|296:96,1,70,2|2,0:0|0:0,0:0:0:0:
316,172,36002,2,0,L|392:164,1,70,8|2,0:0|0:0,0:0:0:0:
468,184,36684,6,0,P|452:252|492:316,2,140,2|8|2,0:0|0:0|0:0,0:0:0:0:
372,48,38729,2,0,L|280:48,1,70,8|2,0:0|0:0,0:0:0:0:
224,16,39411,5,2,0:0:0:0:
152,167,40093,2,0,P|144:201|152:235,1,70,8|0,0:0|0:0,0:0:0:0:
216,284,40775,2,0,P|249:276|283:284,1,70,2|2,0:0|0:0,0:0:0:0:
364,308,41457,2,0,L|388:232,1,70,8|2,0:0|0:0,0:0:0:0:
316,192,42139,6,0,L|340:116,1,70,2|2,0:0|0:0,0:0:0:0:
288,56,42820,2,0,P|252:64|212:48,1,70,8|2,0:0|0:0,0:0:0:0:
144,20,43502,2,0,L|132:104,1,70,2|2,0:0|0:0,0:0:0:0:
52,80,44184,2,0,L|40:164,1,70,0|2,0:0|0:0,0:0:0:0:
80,224,44866,6,0,P|112:212|147:188,2,70,6|2|8,0:0|0:0|0:0,0:0:0:0:
31,293,45889,1,2,0:0:0:0:
96,345,46230,2,0,B|166:362|166:315|233:345,1,140,2|8,0:0|0:0,0:0:0:0:
401,345,47593,6,0,P|386:313|381:278,2,70,2|2|8,0:0|0:0|0:0,0:0:0:0:
482,367,48616,1,2,0:0:0:0:
474,283,48957,2,0,B|489:219|438:219|460:142,1,140,2|8,0:0|0:0,0:0:0:0:
334,34,50320,6,0,L|256:23,2,70,2|2|8,0:0|0:0|0:0,0:0:0:0:
398,88,51343,1,2,0:0:0:0:
365,165,51684,2,0,P|301:190|232:183,1,140,2|8,0:0|0:0,0:0:0:0:
104,76,53048,6,0,P|96:112|74:151,1,70,2|2,0:0|0:0,0:0:0:0:
20,200,53730,2,0,P|24:237|38:273,1,70,8|0,0:0|0:0,0:0:0:0:
115,297,54411,2,0,L|99:372,2,70,2|2|2,0:0|0:0|0:0,0:0:0:0:
178,242,55434,1,2,0:0:0:0:
160,160,55775,6,0,P|152:120|160:80,1,70,6|2,0:0|0:0,0:0:0:0:
232,52,56457,2,0,L|316:44,1,70,8|2,0:0|0:0,0:0:0:0:
368,96,57139,2,0,P|376:136|368:176,1,70,2|2,0:0|0:0,0:0:0:0:
296,204,57821,2,0,L|212:212,1,70,8|2,0:0|0:0,0:0:0:0:
144,228,58502,6,0,P|163:293|132:354,1,140,2|8,0:0|0:0,0:0:0:0:
24,224,59866,2,0,P|4:158|35:97,1,140,2|8,0:0|0:0,0:0:0:0:
108,52,60889,1,2,0:0:0:0:
184,88,61230,6,0,P|216:96|260:88,1,70,2|2,0:0|0:0,0:0:0:0:
320,44,61911,2,0,L|396:44,1,70,8|2,0:0|0:0,0:0:0:0:
456,96,62593,2,0,B|436:156|488:156|460:236,1,140,2|8,0:0|0:0,0:0:0:0:
311,307,63957,6,0,P|244:292|182:320,1,140,2|8,0:0|0:0,0:0:0:0:
108,361,64980,1,2,0:0:0:0:
112,276,65320,2,0,L|112:120,1,140,2|8,0:0|0:0,0:0:0:0:
116,52,66343,1,2,0:0:0:0:
194,77,66684,6,0,P|229:84|264:85,1,70,2|2,0:0|0:0,0:0:0:0:
346,69,67366,2,0,P|369:96|397:116,1,70,8|2,0:0|0:0,0:0:0:0:
424,199,68048,2,0,P|389:205|359:222,1,70,2|2,0:0|0:0,0:0:0:0:
308,289,68730,2,0,P|278:306|243:313,1,70,8|2,0:0|0:0,0:0:0:0:
162,292,69411,6,0,P|153:223|107:171,1,140,2|8,0:0|0:0,0:0:0:0:
7,36,70775,2,0,L|168:53,1,140,2|8,0:0|0:0,0:0:0:0:
230,56,71798,1,2,0:0:0:0:
293,110,72139,6,0,P|283:141|290:185,1,70,2|2,0:0|0:0,0:0:0:0:
355,227,72820,2,0,P|358:261|349:295,1,70,8|2,0:0|0:0,0:0:0:0:
271,326,73502,2,0,B|210:309|212:361|131:337,1,140,2|8,0:0|0:0,0:0:0:0:
43,197,74866,6,0,B|120:219|117:167|178:184,1,140,2|8,0:0|0:0,0:0:0:0:
253,222,75889,1,2,0:0:0:0:
323,176,76230,2,0,L|325:102,1,70,2|2,0:0|0:0,0:0:0:0:
378,41,76911,2,0,P|400:69|427:91,2,70,8|2|6,0:0|0:0|0:0,0:0:0:0:
56,360,88502,6,0,P|32:296|59:233,1,140,6|8,0:0|0:0,0:0:0:0:
132,196,89524,1,2,0:0:0:0:
208,232,89866,2,0,P|264:256|344:228,1,140,2|8,0:0|0:0,0:0:0:0:
404,184,90889,2,0,L|404:114,1,70,2|2,0:0|0:0,0:0:0:0:
400,28,91570,5,2,0:0:0:0:
328,72,91911,2,0,P|260:92|196:64,1,140,8|2,0:0|0:0,0:0:0:0:
136,12,92933,1,2,0:0:0:0:
112,92,93275,2,0,L|112:168,1,70,8|2,0:0|0:0,0:0:0:0:
152,236,93957,6,0,P|216:213|279:241,1,140,2|8,0:0|0:0,0:0:0:0:
336,304,94979,1,2,0:0:0:0:
364,224,95320,2,0,L|364:84,1,140,2|8,0:0|0:0,0:0:0:0:
308,20,96343,1,2,0:0:0:0:
248,76,96684,6,0,P|188:96|112:72,1,140,2|8,0:0|0:0,0:0:0:0:
12,208,98047,1,2,0:0:0:0:
68,267,98388,2,0,P|60:301|67:335,2,70,2|8|2,0:0|0:0|0:0,0:0:0:0:
141,226,99411,6,0,B|214:247|214:208|283:230,1,140,6|8,0:0|0:0,0:0:0:0:
397,347,100775,2,0,P|423:284|416:215,1,140,2|8,0:0|0:0,0:0:0:0:
382,138,101797,1,2,0:0:0:0:
301,114,102139,6,0,P|239:146|170:147,1,140,2|8,0:0|0:0,0:0:0:0:
18,76,103502,2,0,L|28:153,1,70,2|2,0:0|0:0,0:0:0:0:
80,209,104184,2,0,L|58:279,1,70,2|2,0:0|0:0,0:0:0:0:
108,343,104866,6,0,P|172:318|241:329,1,140,2|8,0:0|0:0,0:0:0:0:
409,343,106229,2,0,P|430:276|421:208,1,140,2|8,0:0|0:0,0:0:0:0:
395,127,107252,1,2,0:0:0:0:
313,106,107593,6,0,P|281:121|246:127,1,70,2|2,0:0|0:0,0:0:0:0:
163,116,108275,2,0,P|130:103|95:98,1,70,8|2,0:0|0:0,0:0:0:0:
28,149,108957,2,0,L|35:298,1,140,2|8,0:0|0:0,0:0:0:0:
194,339,110320,6,0,B|258:361|256:306|329:325,1,140,2|8,0:0|0:0,0:0:0:0:
404,360,111343,1,2,0:0:0:0:
400,276,111684,2,0,L|412:204,1,70,2|2,0:0|0:0,0:0:0:0:
384,128,112366,2,0,P|420:124|456:136,2,70,8|2|2,0:0|0:0|0:0,0:0:0:0:
312,172,113389,5,2,0:0:0:0:
232,192,113730,2,0,L|152:192,2,70,8|2|2,0:0|0:0|0:0,0:0:0:0:
208,272,114752,2,0,L|132:272,2,70,2|8|2,0:0|0:0|0:0,0:0:0:0:
256,340,115775,6,0,L|400:340,1,140,2|8,0:0|0:0,0:0:0:0:
468,296,116798,1,2,0:0:0:0:
424,224,117139,2,0,P|404:152|432:88,1,140,2|8,0:0|0:0,0:0:0:0:
380,24,118161,1,2,0:0:0:0:
312,76,118502,6,0,P|248:96|180:72,1,140,2|8,0:0|0:0,0:0:0:0:
116,20,119525,1,2,0:0:0:0:
57,80,119866,2,0,L|67:162,1,70,2|2,0:0|0:0,0:0:0:0:
99,226,120548,2,0,P|132:217|167:216,1,70,8|2,0:0|0:0,0:0:0:0:
242,255,121230,6,0,P|279:248|313:224,2,70,2|2|8,0:0|0:0|0:0,0:0:0:0:
244,170,122253,1,2,0:0:0:0:
278,93,122594,2,0,B|209:66|211:113|141:100,1,140,2|0,0:0|0:0,0:0:0:0:
42,236,123957,6,0,P|47:270|62:302,2,70,2|2|8,0:0|0:0|0:0,0:0:0:0:
86,164,124980,1,2,0:0:0:0:
167,184,125321,2,0,B|182:120|131:120|153:43,1,140,2|8,0:0|0:0,0:0:0:0:
319,45,126684,6,0,L|396:61,2,70,2|2|8,0:0|0:0|0:0,0:0:0:0:
249,92,127707,1,2,0:0:0:0:
317,141,128048,2,0,L|298:294,1,140,2|8,0:0|0:0,0:0:0:0:
149,355,129412,6,0,L|142:280,1,70,2|2,0:0|0:0,0:0:0:0:
127,202,130094,2,0,P|94:215|60:217,1,70,8|2,0:0|0:0,0:0:0:0:
14,146,130775,2,0,L|17:73,1,70,2|2,0:0|0:0,0:0:0:0:
87,30,131457,2,0,P|154:49|223:38,1,140,8|6,0:0|0:0,0:0:0:0:
223,39,141684,6,0,L|312:24,2,70,2|2|2,0:0|0:0|0:0,0:0:0:0:
139,51,142707,1,2,0:0:0:0:
104,127,143048,6,0,P|111:161|107:195,1,70,6|2,0:0|0:0,0:0:0:0:
98,279,143730,2,0,L|167:272,1,70,8|2,0:0|0:0,0:0:0:0:
251,260,144412,2,0,P|247:225|254:191,1,70,2|2,0:0|0:0,0:0:0:0:
331,157,145093,2,0,P|334:122|327:88,1,70,8|2,0:0|0:0,0:0:0:0:
255,44,145775,6,0,L|104:51,1,140,2|8,0:0|0:0,0:0:0:0:
8,180,147139,2,0,L|147:173,1,140,2|8,0:0|0:0,0:0:0:0:
232,173,148162,1,2,0:0:0:0:
300,221,148503,6,0,P|290:252|297:296,1,70,2|2,0:0|0:0,0:0:0:0:
355,347,149184,2,0,P|389:339|424:340,1,70,8|2,0:0|0:0,0:0:0:0:
493,292,149866,2,0,B|519:215|467:215|487:155,1,140,2|8,0:0|0:0,0:0:0:0:
364,41,151230,6,0,B|288:68|288:16|228:37,1,140,2|8,0:0|0:0,0:0:0:0:
168,97,152253,1,2,0:0:0:0:
83,95,152594,2,0,L|41:164,1,70,2|2,0:0|0:0,0:0:0:0:
53,238,153275,2,0,P|75:266|102:288,2,70,8|2|6,0:0|0:0|0:0,0:0:0:0:
208,176,154639,6,0,L|348:176,1,140,2|2,0:0|0:0,0:0:0:0:
416,128,155661,1,2,0:0:0:0:
424,212,156002,2,0,L|440:288,1,70,2|2,0:0|0:0,0:0:0:0:
416,360,156684,6,0,P|456:364|492:348,2,70,2|2|2,0:0|0:0|0:0,0:0:0:0:
272,276,158048,1,2,0:0:0:0:
128,192,158730,2,0,P|88:188|52:204,1,70,2|2,0:0|0:0,0:0:0:0:
100,272,159411,6,0,P|160:272|212:208,1,140,2|2,0:0|0:0,0:0:0:0:
212,132,160434,1,2,0:0:0:0:
172,60,160775,2,0,P|219:48|288:100,1,140,2|2,0:0|0:0,0:0:0:0:
300,184,161798,1,2,0:0:0:0:
332,260,162139,6,0,P|379:211|372:143,1,140,2|2,0:0|0:0,0:0:0:0:
219,73,163502,1,2,0:0:0:0:
145,114,163843,2,0,P|136:80|140:45,2,70,2|2|2,0:0|0:0|0:0,0:0:0:0:
217,157,164866,1,6,0:0:0:0:
215,160,175775,6,0,P|235:225|219:292,1,140,6|8,0:0|0:0,0:0:0:0:
155,347,176797,1,2,0:0:0:0:
234,374,177139,2,0,L|391:366,1,140,2|8,0:0|0:0,0:0:0:0:
452,335,178162,2,0,P|444:300|451:266,1,70,2|2,0:0|0:0,0:0:0:0:
495,195,178843,5,2,0:0:0:0:
441,129,179184,2,0,B|373:158|373:107|304:132,1,140,8|2,0:0|0:0,0:0:0:0:
226,161,180206,1,2,0:0:0:0:
149,195,180548,2,0,P|141:160|148:126,1,70,8|2,0:0|0:0,0:0:0:0:
213,74,181230,6,0,P|150:46|88:71,1,140,2|8,0:0|0:0,0:0:0:0:
53,148,182252,1,2,0:0:0:0:
109,210,182593,2,0,P|98:278|113:346,1,140,2|8,0:0|0:0,0:0:0:0:
196,359,183616,1,2,0:0:0:0:
270,319,183957,6,0,B|338:290|338:342|405:316,1,140,2|8,0:0|0:0,0:0:0:0:
485,168,185320,1,2,0:0:0:0:
406,137,185661,2,0,P|400:173|409:206,2,70,2|8|2,0:0|0:0|0:0,0:0:0:0:
372,60,186684,6,0,P|304:84|232:60,1,140,6|8,0:0|0:0,0:0:0:0:
76,36,188048,2,0,L|60:180,1,140,2|8,0:0|0:0,0:0:0:0:
120,332,189411,6,0,P|188:308|260:332,1,140,2|8,0:0|0:0,0:0:0:0:
416,356,190775,2,0,L|432:212,1,140,2|8,0:0|0:0,0:0:0:0:
440,132,191798,1,2,0:0:0:0:
364,168,192139,6,0,P|300:192|228:160,1,140,2|8,0:0|0:0,0:0:0:0:
76,112,193502,2,0,B|48:196|48:196|64:256,1,140,2|8,0:0|0:0,0:0:0:0:
221,301,194866,6,0,B|249:217|249:217|233:157,1,140,2|8,0:0|0:0,0:0:0:0:
152,20,196230,1,2,0:0:0:0:
224,64,196570,2,0,L|296:64,2,70,2|8|2,0:0|0:0|0:0,0:0:0:0:
148,104,197593,1,6,0:0:0:0:
