osu file format v14

[General]
AudioFilename: !.mp3
AudioLeadIn: 0
PreviewTime: -1
Countdown: 0
SampleSet: Soft
StackLeniency: 0.7
Mode: 0
LetterboxInBreaks: 1
WidescreenStoryboard: 0

[Editor]
DistanceSpacing: 2
BeatDivisor: 6
GridSize: 8
TimelineZoom: 1.1

[Metadata]
Title:mikata wa yushasama dewaarimasen!
TitleUnicode:貴方は勇者様ではありません!
Artist:igasaki ayaka
ArtistUnicode:伊ヶ崎绫香
Creator:wfcaqja
Version:Hard
Source:
Tags:二声の人妻
BeatmapID:821494
BeatmapSetID:375046

[Difficulty]
HPDrainRate:6
CircleSize:4
OverallDifficulty:7
ApproachRate:8
SliderMultiplier:1.39999990463257
SliderTickRate:2

[Events]
//Background and Video events
0,0,"1.jpg",0,0
//Break Periods
2,57105,63640
//Storyboard Layer 0 (Background)
//Storyboard Layer 1 (Fail)
//Storyboard Layer 2 (Pass)
//Storyboard Layer 3 (Foreground)
//Storyboard Sound Samples

[TimingPoints]
13443,532.623169107856,3,2,0,50,1,0
15096,532.623169107856,3,2,0,50,1,0
19290,-100,3,2,0,50,0,0
19379,532.623169107856,3,2,0,50,1,0
24726,532.623169107856,3,2,0,50,1,0
25237,-100,3,2,0,100,0,0
26340,532.623169107856,3,2,0,50,1,0
29557,532.623169107856,3,2,0,50,1,0
32783,532.623169107856,3,2,0,50,1,0
36022,532.623169107856,3,2,0,50,1,0
39235,532.623169107856,3,2,0,50,1,0
42458,532.623169107856,3,2,0,50,1,0
49690,532.623169107856,3,2,0,50,1,0
51820,532.623169107856,3,2,0,50,1,0
53684,-100,3,2,0,50,0,0
55308,532.623169107856,3,2,0,50,1,0
64390,532.623169107856,3,2,0,50,1,0
66023,532.623169107856,3,2,0,50,1,0
67608,532.623169107856,3,2,0,50,1,0
70031,532.623169107856,3,2,0,50,1,0
70850,532.623169107856,3,2,0,50,1,0
70850,532.623169107856,3,2,0,50,1,0
74059,532.623169107856,3,2,0,50,1,0
80488,532.623169107856,3,2,0,50,1,0
82081,532.623169107856,3,2,0,50,1,0
83701,532.623169107856,3,2,0,50,1,0
85032,-100,3,2,0,50,0,0
89054,532.623169107856,3,2,0,50,1,0
91006,532.623169107856,3,2,0,50,1,0
91006,-100,3,2,0,50,0,0
92096,532.623169107856,3,2,0,50,1,0
92611,532.623169107856,3,2,0,50,1,0
95302,532.623169107856,3,2,0,50,1,0
97670,-100,3,2,0,50,0,0
99589,532.623169107856,3,2,0,50,1,0
100128,532.623169107856,3,2,0,50,1,0
101742,532.623169107856,3,2,0,50,1,0
104949,-100,3,2,0,50,0,0
107092,532.623169107856,3,2,0,50,1,0
108705,532.623169107856,3,2,0,50,1,0
110453,532.623169107856,3,2,0,50,1,0
112160,532.623169107856,3,2,0,50,1,0
112967,532.623169107856,3,2,0,50,1,0
113285,532.623169107856,3,2,0,50,1,0
113858,532.623169107856,3,2,0,50,1,0
114952,532.623169107856,3,2,0,50,1,0
115611,532.623169107856,3,2,0,50,1,0
115611,-200,3,2,0,50,0,0

[HitObjects]
96,136,13443,5,0,0:0:0:0:
216,296,14497,1,0,0:0:0:0:
352,176,15096,1,0,0:0:0:0:
168,104,15894,1,0,0:0:0:0:
216,288,16161,1,8,0:0:0:0:
376,160,16693,5,0,0:0:0:0:
208,280,17226,1,0,0:0:0:0:
176,88,17759,1,0,0:0:0:0:
336,216,18291,1,12,0:0:0:0:
440,152,19379,6,0,P|448:216|384:248,1,139.999990463257
336,128,20178,1,0,0:0:0:0:
336,128,20311,1,0,0:0:0:0:
336,128,20444,1,0,0:0:0:0:
200,216,20711,1,0,0:0:0:0:
352,296,20976,1,8,0:0:0:0:
176,64,21510,5,0,0:0:0:0:
184,224,21776,1,0,0:0:0:0:
248,64,22042,1,0,0:0:0:0:
304,208,22309,1,0,0:0:0:0:
304,208,22441,1,0,0:0:0:0:
304,208,22574,1,8,0:0:0:0:
296,120,23107,5,0,0:0:0:0:
192,184,23374,1,0,0:0:0:0:
192,184,23506,1,0,0:0:0:0:
192,184,23639,1,0,0:0:0:0:
8,144,23906,1,0,0:0:0:0:
96,304,24172,1,8,0:0:0:0:
280,200,24726,5,0,0:0:0:0:
192,144,24992,1,0,0:0:0:0:
93,134,25258,2,0,P|47:137|29:161,1,69.9999952316285
136,296,25791,2,0,P|176:304|200:280,1,69.9999952316285
280,128,26340,5,0,0:0:0:0:
312,272,26606,1,0,0:0:0:0:
184,168,26872,1,0,0:0:0:0:
336,184,27139,1,0,0:0:0:0:
224,288,27405,1,8,0:0:0:0:
336,184,27937,5,0,0:0:0:0:
424,64,28204,1,0,0:0:0:0:
488,192,28470,1,0,0:0:0:0:
360,280,28736,2,0,L|448:296,1,69.9999952316285
428,92,29556,6,0,P|400:120|352:128,1,69.9999952316285
320,296,30089,1,0,0:0:0:0:
224,120,30355,1,0,0:0:0:0:
88,280,30622,2,0,B|128:264|160:296,1,69.9999952316285
256,192,31133,1,8,0:0:0:0:
256,192,31311,12,4,32198,0:0:0:0:
360,264,32783,5,0,0:0:0:0:
280,128,33049,1,0,0:0:0:0:
208,288,33315,1,0,0:0:0:0:
128,192,33582,1,0,0:0:0:0:
128,192,33715,1,0,0:0:0:0:
128,192,33848,1,0,0:0:0:0:
256,80,34380,5,0,0:0:0:0:
480,80,34647,1,0,0:0:0:0:
368,256,34913,1,0,0:0:0:0:
248,120,35179,1,0,0:0:0:0:
256,128,35312,1,0,0:0:0:0:
256,128,35446,1,0,0:0:0:0:
32,192,36022,5,0,0:0:0:0:
240,256,36289,1,0,0:0:0:0:
104,128,36555,1,0,0:0:0:0:
288,192,36821,1,0,0:0:0:0:
152,320,37087,1,8,0:0:0:0:
408,200,37620,5,0,0:0:0:0:
232,40,37886,1,0,0:0:0:0:
88,224,38153,1,0,0:0:0:0:
320,280,38685,1,4,0:0:0:0:
64,128,39235,6,0,P|102:108|140:89,2,69.9999952316285
256,128,40034,1,0,0:0:0:0:
184,272,40300,1,8,0:0:0:0:
96,152,40566,1,0,0:0:0:0:
288,176,40833,5,0,0:0:0:0:
192,320,41099,2,0,L|128:288,1,69.9999952316285
192,160,41632,1,0,0:0:0:0:
352,64,41898,1,8,0:0:0:0:
352,256,42458,6,0,P|352:192|368:172,1,69.9999952316285
168,168,42991,1,0,0:0:0:0:
288,128,43256,1,0,0:0:0:0:
216,264,43523,2,0,L|264:336,1,69.9999952316285
160,128,44055,1,4,0:0:0:0:
304,104,45121,6,0,L|365:53,2,69.9999952316285
424,240,45920,1,0,0:0:0:0:
424,240,46053,1,0,0:0:0:0:
424,240,46186,1,0,0:0:0:0:
256,280,46452,1,8,0:0:0:0:
120,256,46718,6,0,P|96:304|112:320,1,69.9999952316285
328,296,47251,2,0,P|288:272|272:248,1,69.9999952316285
224,160,47784,1,0,0:0:0:0:
368,104,48050,1,0,0:0:0:0:
256,224,48316,5,0,0:0:0:0:
256,224,48583,1,0,0:0:0:0:
256,224,48849,1,0,0:0:0:0:
160,80,49115,1,0,0:0:0:0:
160,80,49248,1,0,0:0:0:0:
160,80,49382,1,0,0:0:0:0:
152,80,49956,5,0,0:0:0:0:
264,232,50223,2,0,P|224:232|200:192,1,69.9999952316285
112,280,50756,1,0,0:0:0:0:
136,144,51022,2,0,L|216:144,1,69.9999952316285
256,320,51555,5,0,0:0:0:0:
312,128,51820,2,0,L|256:184,1,69.9999952316285
136,256,52353,1,0,0:0:0:0:
136,256,52486,1,0,0:0:0:0:
136,256,52619,1,0,0:0:0:0:
272,152,52886,5,0,0:0:0:0:
288,304,53152,1,8,0:0:0:0:
160,184,53684,2,0,B|120:168|120:128|120:80|176:64,1,139.999990463257
336,112,54483,1,0,0:0:0:0:
192,256,54749,1,0,0:0:0:0:
64,128,55308,6,0,B|96:80|144:80|192:112,1,139.999990463257
320,272,56373,1,0,0:0:0:0:
168,184,56905,1,6,0:0:0:0:
360,128,64390,5,0,0:0:0:0:
240,224,64656,1,0,0:0:0:0:
416,240,64922,2,0,L|331:227,1,69.9999952316285
216,320,65455,1,0,0:0:0:0:
128,208,65721,1,0,0:0:0:0:
8,272,66023,6,0,L|24:200,1,69.9999952316285
96,64,66557,1,0,0:0:0:0:
208,176,66823,1,0,0:0:0:0:
352,104,67089,1,8,0:0:0:0:
312,264,67608,5,0,0:0:0:0:
200,152,67874,1,0,0:0:0:0:
88,256,68140,2,0,L|160:280,1,69.9999952316285
112,144,68673,5,0,0:0:0:0:
208,232,68939,1,0,0:0:0:0:
272,72,69205,2,0,P|312:112|320:192,1,139.999990463257
384,200,70031,5,0,0:0:0:0:
456,88,70297,1,0,0:0:0:0:
288,128,70563,1,0,0:0:0:0:
296,288,70850,5,0,0:0:0:0:
424,168,71116,2,0,L|464:248,1,69.9999952316285
352,224,71915,1,0,0:0:0:0:
488,152,72447,1,0,0:0:0:0:
352,64,72714,1,0,0:0:0:0:
352,224,72980,1,8,0:0:0:0:
192,96,74059,6,0,B|184:128|160:152|120:160|80:136,1,139.999990463257
200,216,74857,1,0,0:0:0:0:
96,96,75123,1,0,0:0:0:0:
72,248,75390,1,0,0:0:0:0:
152,125,75656,1,8,0:0:0:0:
168,288,75923,1,0,0:0:0:0:
32,192,76189,2,0,B|81:145|110:134|157:125,1,139.999990463257
352,96,77254,5,0,0:0:0:0:
464,200,77521,1,0,0:0:0:0:
352,96,77786,2,0,P|330:176|380:195,1,139.999990463257
208,96,78586,1,0,0:0:0:0:
174,234,78852,5,0,0:0:0:0:
48,168,79118,1,0,0:0:0:0:
64,320,79384,2,0,L|180:230,1,139.999990463257
272,272,80184,1,8,0:0:0:0:
176,128,80488,5,0,0:0:0:0:
320,120,80754,1,0,0:0:0:0:
288,256,81020,2,0,P|315:191|249:171,1,139.999990463257
128,272,82081,6,0,L|88:208,1,69.9999952316285
240,144,82613,1,8,0:0:0:0:
192,272,82879,1,0,0:0:0:0:
192,272,83013,1,0,0:0:0:0:
192,272,83146,2,0,L|120:216,1,69.9999952316285
64,88,83701,6,0,B|-14:117|-14:117|32:184|26:177,1,139.999990463257
176,248,84499,1,0,0:0:0:0:
304,152,84766,1,0,0:0:0:0:
336,312,85032,2,0,P|296:290|258:302,1,69.9999952316285
232,176,85565,1,0,0:0:0:0:
400,176,85831,1,8,0:0:0:0:
288,64,86097,1,0,0:0:0:0:
192,192,86364,2,0,P|208:208|192:256,1,69.9999952316285
328,240,86896,5,0,0:0:0:0:
224,96,87429,2,0,B|256:128|288:128,1,69.9999952316285
424,136,87961,1,0,0:0:0:0:
304,240,88228,1,0,0:0:0:0:
224,96,88494,1,0,0:0:0:0:
304,240,89054,1,4,0:0:0:0:
368,80,91013,1,0,0:0:0:0:
216,136,91272,1,0,0:0:0:0:
240,296,91538,1,0,0:0:0:0:
112,192,92096,5,0,0:0:0:0:
312,280,92611,1,0,0:0:0:0:
288,176,92877,1,0,0:0:0:0:
408,216,93143,1,0,0:0:0:0:
360,320,93409,1,0,0:0:0:0:
384,224,93676,2,0,L|240:288,1,139.999990463257
128,64,94741,5,0,0:0:0:0:
224,288,95302,1,0,0:0:0:0:
400,128,95835,1,0,0:0:0:0:
208,168,96367,1,4,0:0:0:0:
88,256,96900,5,0,0:0:0:0:
184,136,97166,1,0,0:0:0:0:
184,136,97299,1,0,0:0:0:0:
184,136,97432,1,0,0:0:0:0:
32,88,97699,2,0,L|8:168,1,69.9999952316285
144,240,98231,1,0,0:0:0:0:
320,256,98498,5,0,0:0:0:0:
176,160,98764,1,0,0:0:0:0:
192,312,99030,2,0,B|200:264|248:256,1,69.9999952316285
384,208,99589,1,8,0:0:0:0:
288,128,100128,6,0,P|288:112|328:64,1,69.9999952316285
432,80,100660,1,0,0:0:0:0:
304,184,100926,2,0,P|304:232|328:256,1,69.9999952316285
184,136,101742,6,0,P|152:168|144:200,1,69.9999952316285
280,256,102274,1,0,0:0:0:0:
320,184,102540,5,0,0:0:0:0:
320,184,102674,1,0,0:0:0:0:
320,184,102807,1,0,0:0:0:0:
176,192,103073,1,0,0:0:0:0:
272,72,103339,2,0,P|272:112|264:144,1,69.9999952316285
120,160,103872,5,0,0:0:0:0:
208,288,104138,1,0,0:0:0:0:
64,320,104405,2,0,L|32:256,1,69.9999952316285
64,320,104937,6,0,L|81:234,1,69.9999952316285
176,184,105470,1,0,0:0:0:0:
272,256,105736,2,0,P|312:232|304:200,1,69.9999952316285
240,96,106269,1,0,0:0:0:0:
192,240,106535,1,8,0:0:0:0:
392,288,107092,5,0,0:0:0:0:
224,120,107624,1,0,0:0:0:0:
256,312,108157,1,0,0:0:0:0:
224,96,108705,1,2,0:0:0:0:
112,200,108971,1,0,0:0:0:0:
256,240,109237,1,0,0:0:0:0:
392,176,109503,2,0,P|408:208|384:248,1,69.9999952316285
256,32,110453,5,0,0:0:0:0:
96,192,111518,1,0,0:0:0:0:
256,352,112160,1,0,0:0:0:0:
416,192,112967,1,0,0:0:0:0:
262,128,113284,1,0,0:0:0:0:
336,192,113854,5,0,0:0:0:0:
136,264,114390,1,0,0:0:0:0:
184,136,114952,1,0,0:0:0:0:
253,191,115611,1,10,0:0:0:0:
256,192,115699,12,4,117297,0:0:0:0:
