osu file format v14

[General]
AudioFilename: iconoclasm feat.GUMI - Idola.mp3
AudioLeadIn: 0
PreviewTime: 446
Countdown: 0
SampleSet: Soft
StackLeniency: 0.7
Mode: 3
LetterboxInBreaks: 0
SpecialStyle: 0
WidescreenStoryboard: 1

[Editor]
DistanceSpacing: 0.8
BeatDivisor: 4
GridSize: 32
TimelineZoom: 3

[Metadata]
Title:Idola
TitleUnicode:Idola
Artist:iconoclasm feat.GUMI
ArtistUnicode:iconoclasm feat.GUMI
Creator:nyaa_void
Version:EXHAUST Lv. 15
Source:SOUND VOLTEX II -infinite infection-
Tags:GUMI 5th Anniversary party wac dj TAKA Asaki 96 yunve PHQUASE 伍猫 replicant core beatmania IIDX 21 SPADA DanceDanceRevolution GITADORA jubeat pop'n music REFLEC BEAT
BeatmapID:719773
BeatmapSetID:323895

[Difficulty]
HPDrainRate:8
CircleSize:4
OverallDifficulty:8
ApproachRate:5
SliderMultiplier:1.4
SliderTickRate:1

[Events]
//Background and Video events
0,0,"bg_c.jpg",0,0
//Break Periods
//Storyboard Layer 0 (Background)
//Storyboard Layer 1 (Fail)
//Storyboard Layer 2 (Pass)
//Storyboard Layer 3 (Foreground)
//Storyboard Sound Samples

[TimingPoints]
148,298.507462686567,4,2,1,30,1,0
446,298.507462686567,4,2,1,30,1,0
51789,-100,4,2,1,30,0,1
56565,-100,4,2,1,30,0,0
61341,-100,4,2,1,30,0,1
70893,-125,4,2,1,30,0,0
75669,-111.111111111111,4,2,1,30,0,0
78057,-108.695652173913,4,2,1,30,0,0
80445,-106.382978723404,4,2,1,30,0,0
89998,-100,4,2,1,30,0,1
97162,-100,4,2,1,30,0,0

[HitObjects]
64,192,148,5,0,0:0:0:0:
192,192,446,1,0,0:0:0:0:
320,192,446,128,0,1341:0:0:0:0:
448,192,446,128,0,1341:0:0:0:0:
64,192,1341,1,0,0:0:0:0:
192,192,1490,128,0,2237:0:0:0:0:
320,192,1490,128,0,2237:0:0:0:0:
64,192,2237,1,0,0:0:0:0:
448,192,2386,1,0,0:0:0:0:
192,192,2535,1,0,0:0:0:0:
320,192,2684,1,0,0:0:0:0:
64,192,2834,128,0,3132:0:0:0:0:
448,192,2834,128,0,3132:0:0:0:0:
192,192,2834,1,0,0:0:0:0:
320,192,3281,1,0,0:0:0:0:
448,192,3431,128,0,3729:0:0:0:0:
192,192,3431,128,0,3729:0:0:0:0:
64,192,3431,1,0,0:0:0:0:
320,192,3729,1,0,0:0:0:0:
64,192,3878,1,0,0:0:0:0:
448,192,4028,128,0,4326:0:0:0:0:
192,192,4028,1,0,0:0:0:0:
320,192,4326,128,0,4625:0:0:0:0:
192,192,4326,1,0,0:0:0:0:
448,192,4625,128,0,5222:0:0:0:0:
192,192,5072,1,0,0:0:0:0:
320,192,5222,1,0,0:0:0:0:
64,192,5222,128,0,5819:0:0:0:0:
192,192,5520,1,0,0:0:0:0:
448,192,5669,1,0,0:0:0:0:
192,192,5819,1,0,0:0:0:0:
320,192,5819,128,0,6416:0:0:0:0:
448,192,6117,1,0,0:0:0:0:
64,192,6266,1,0,0:0:0:0:
448,192,6416,1,0,0:0:0:0:
192,192,6416,128,0,7013:0:0:0:0:
64,192,6714,1,0,0:0:0:0:
448,192,6863,1,0,0:0:0:0:
320,192,7013,1,0,0:0:0:0:
64,192,7013,128,0,7311:0:0:0:0:
448,192,7162,1,0,0:0:0:0:
192,192,7311,1,0,0:0:0:0:
320,192,7311,1,0,0:0:0:0:
320,192,7460,1,0,0:0:0:0:
448,192,7460,1,0,0:0:0:0:
192,192,7460,1,0,0:0:0:0:
320,192,7610,1,0,0:0:0:0:
448,192,7610,1,0,0:0:0:0:
64,192,7610,1,0,0:0:0:0:
192,192,7610,1,0,0:0:0:0:
64,192,8057,1,0,0:0:0:0:
320,192,8057,1,0,0:0:0:0:
448,192,8057,1,0,0:0:0:0:
64,192,8207,1,0,0:0:0:0:
320,192,8207,1,0,0:0:0:0:
192,192,8207,1,0,0:0:0:0:
448,192,8207,1,0,0:0:0:0:
192,192,8505,1,0,0:0:0:0:
320,192,8505,1,0,0:0:0:0:
192,192,8654,1,0,0:0:0:0:
320,192,8654,1,0,0:0:0:0:
448,192,8654,1,0,0:0:0:0:
192,192,8804,1,0,0:0:0:0:
320,192,8804,1,0,0:0:0:0:
64,192,8804,1,0,0:0:0:0:
448,192,8804,1,0,0:0:0:0:
192,192,9102,1,0,0:0:0:0:
64,192,9251,1,0,0:0:0:0:
320,192,9326,1,0,0:0:0:0:
448,192,9401,1,0,0:0:0:0:
320,192,9475,1,0,0:0:0:0:
192,192,9550,1,0,0:0:0:0:
64,192,9550,1,0,0:0:0:0:
448,192,9550,1,0,0:0:0:0:
64,192,9848,1,0,0:0:0:0:
192,192,9923,1,0,0:0:0:0:
320,192,9998,128,0,10595:0:0:0:0:
64,192,9998,128,0,11192:0:0:0:0:
448,192,10296,1,0,0:0:0:0:
448,192,10595,128,0,11192:0:0:0:0:
192,192,10893,1,0,0:0:0:0:
192,192,11192,128,0,12386:0:0:0:0:
320,192,11192,128,0,11789:0:0:0:0:
448,192,11490,1,0,0:0:0:0:
448,192,11789,128,0,12386:0:0:0:0:
64,192,11789,1,0,0:0:0:0:
320,192,12087,1,0,0:0:0:0:
64,192,12386,1,0,0:0:0:0:
320,192,12386,1,0,0:0:0:0:
320,192,12684,1,0,0:0:0:0:
448,192,12983,1,0,0:0:0:0:
192,192,12983,1,0,0:0:0:0:
64,192,13132,1,0,0:0:0:0:
320,192,13281,1,0,0:0:0:0:
64,192,13580,1,0,0:0:0:0:
192,192,13580,1,0,0:0:0:0:
192,192,13878,1,0,0:0:0:0:
448,192,13878,1,0,0:0:0:0:
64,192,14177,1,0,0:0:0:0:
320,192,14177,1,0,0:0:0:0:
192,192,14326,1,0,0:0:0:0:
448,192,14475,1,0,0:0:0:0:
64,192,14475,1,0,0:0:0:0:
320,192,14625,1,0,0:0:0:0:
64,192,14625,1,0,0:0:0:0:
448,192,14774,1,0,0:0:0:0:
192,192,14774,1,0,0:0:0:0:
320,192,14923,1,0,0:0:0:0:
320,192,15072,1,0,0:0:0:0:
320,192,15222,1,0,0:0:0:0:
64,192,15371,1,0,0:0:0:0:
448,192,15371,1,0,0:0:0:0:
192,192,15520,1,0,0:0:0:0:
192,192,15669,1,0,0:0:0:0:
192,192,15819,1,0,0:0:0:0:
448,192,15968,1,0,0:0:0:0:
320,192,15968,1,0,0:0:0:0:
64,192,16117,1,0,0:0:0:0:
64,192,16266,1,0,0:0:0:0:
64,192,16416,1,0,0:0:0:0:
320,192,16565,1,0,0:0:0:0:
192,192,16565,1,0,0:0:0:0:
448,192,16714,1,0,0:0:0:0:
448,192,16863,1,0,0:0:0:0:
448,192,17013,1,0,0:0:0:0:
64,192,17162,1,0,0:0:0:0:
192,192,17162,1,0,0:0:0:0:
192,192,17311,1,0,0:0:0:0:
448,192,17311,1,0,0:0:0:0:
320,192,17460,128,0,17610:0:0:0:0:
448,192,17460,1,0,0:0:0:0:
192,192,17610,1,0,0:0:0:0:
64,192,17610,1,0,0:0:0:0:
192,192,17759,1,0,0:0:0:0:
320,192,17759,1,0,0:0:0:0:
64,192,17908,1,0,0:0:0:0:
448,192,17908,1,0,0:0:0:0:
64,192,18057,128,0,18207:0:0:0:0:
320,192,18057,1,0,0:0:0:0:
448,192,18207,1,0,0:0:0:0:
320,192,18281,1,0,0:0:0:0:
448,192,18356,1,0,0:0:0:0:
192,192,18356,1,0,0:0:0:0:
64,192,18431,1,0,0:0:0:0:
192,192,18505,1,0,0:0:0:0:
320,192,18505,1,0,0:0:0:0:
448,192,18654,128,0,18804:0:0:0:0:
320,192,18654,1,0,0:0:0:0:
64,192,18804,1,0,0:0:0:0:
192,192,18804,1,0,0:0:0:0:
192,192,18953,1,0,0:0:0:0:
320,192,18953,1,0,0:0:0:0:
320,192,19102,1,0,0:0:0:0:
448,192,19102,1,0,0:0:0:0:
64,192,19251,128,0,19401:0:0:0:0:
192,192,19251,1,0,0:0:0:0:
448,192,19401,1,0,0:0:0:0:
320,192,19475,1,0,0:0:0:0:
448,192,19550,1,0,0:0:0:0:
192,192,19550,1,0,0:0:0:0:
64,192,19550,1,0,0:0:0:0:
448,192,19699,1,0,0:0:0:0:
320,192,19848,1,0,0:0:0:0:
64,192,19848,1,0,0:0:0:0:
192,192,19998,1,0,0:0:0:0:
320,192,20072,1,0,0:0:0:0:
448,192,20147,1,0,0:0:0:0:
320,192,20296,1,0,0:0:0:0:
192,192,20296,1,0,0:0:0:0:
192,192,20445,1,0,0:0:0:0:
448,192,20445,1,0,0:0:0:0:
64,192,20445,1,0,0:0:0:0:
320,192,20595,1,0,0:0:0:0:
192,192,20669,1,0,0:0:0:0:
64,192,20744,1,0,0:0:0:0:
320,192,20744,1,0,0:0:0:0:
192,192,20893,1,0,0:0:0:0:
320,192,20893,1,0,0:0:0:0:
320,192,21043,1,0,0:0:0:0:
64,192,21043,1,0,0:0:0:0:
448,192,21043,1,0,0:0:0:0:
192,192,21192,1,0,0:0:0:0:
320,192,21266,1,0,0:0:0:0:
448,192,21341,1,0,0:0:0:0:
320,192,21490,1,0,0:0:0:0:
192,192,21490,1,0,0:0:0:0:
448,192,21640,1,0,0:0:0:0:
320,192,21640,1,0,0:0:0:0:
64,192,21640,1,0,0:0:0:0:
192,192,21789,1,0,0:0:0:0:
320,192,21938,1,0,0:0:0:0:
448,192,21938,1,0,0:0:0:0:
64,192,22087,1,0,0:0:0:0:
192,192,22087,1,0,0:0:0:0:
448,192,22237,128,0,22535:0:0:0:0:
320,192,22237,128,0,22535:0:0:0:0:
192,192,22237,1,0,0:0:0:0:
64,192,22535,1,0,0:0:0:0:
192,192,22535,1,0,0:0:0:0:
192,192,22684,1,0,0:0:0:0:
320,192,22684,1,0,0:0:0:0:
64,192,22834,1,0,0:0:0:0:
192,192,22834,1,0,0:0:0:0:
448,192,22834,1,0,0:0:0:0:
320,192,22983,1,0,0:0:0:0:
448,192,22983,1,0,0:0:0:0:
320,192,23132,1,0,0:0:0:0:
64,192,23132,1,0,0:0:0:0:
192,192,23281,1,0,0:0:0:0:
448,192,23431,1,0,0:0:0:0:
320,192,23431,1,0,0:0:0:0:
64,192,23431,1,0,0:0:0:0:
192,192,23580,1,0,0:0:0:0:
448,192,23729,1,0,0:0:0:0:
64,192,23729,1,0,0:0:0:0:
320,192,23878,1,0,0:0:0:0:
192,192,24028,1,0,0:0:0:0:
448,192,24028,1,0,0:0:0:0:
64,192,24028,1,0,0:0:0:0:
320,192,24177,1,0,0:0:0:0:
192,192,24251,1,0,0:0:0:0:
320,192,24326,1,0,0:0:0:0:
64,192,24326,1,0,0:0:0:0:
448,192,24326,1,0,0:0:0:0:
192,192,24475,1,0,0:0:0:0:
320,192,24625,1,0,0:0:0:0:
64,192,24625,1,0,0:0:0:0:
448,192,24625,1,0,0:0:0:0:
192,192,24774,1,0,0:0:0:0:
320,192,24848,1,0,0:0:0:0:
192,192,24923,1,0,0:0:0:0:
448,192,24923,1,0,0:0:0:0:
320,192,25072,1,0,0:0:0:0:
64,192,25072,1,0,0:0:0:0:
192,192,25222,1,0,0:0:0:0:
448,192,25222,1,0,0:0:0:0:
64,192,25222,1,0,0:0:0:0:
64,192,25520,128,0,25819:0:0:0:0:
192,192,25520,1,0,0:0:0:0:
448,192,25520,1,0,0:0:0:0:
192,192,25669,1,0,0:0:0:0:
320,192,25669,1,0,0:0:0:0:
320,192,25819,128,0,26117:0:0:0:0:
448,192,25819,1,0,0:0:0:0:
192,192,25819,1,0,0:0:0:0:
448,192,26117,128,0,26416:0:0:0:0:
192,192,26117,1,0,0:0:0:0:
64,192,26117,1,0,0:0:0:0:
64,192,26266,1,0,0:0:0:0:
320,192,26266,1,0,0:0:0:0:
192,192,26416,128,0,26714:0:0:0:0:
320,192,26416,1,0,0:0:0:0:
64,192,26416,1,0,0:0:0:0:
320,192,26714,128,0,27013:0:0:0:0:
448,192,26714,1,0,0:0:0:0:
64,192,26714,1,0,0:0:0:0:
64,192,26863,1,0,0:0:0:0:
192,192,26863,1,0,0:0:0:0:
192,192,27013,1,0,0:0:0:0:
448,192,27013,128,0,27311:0:0:0:0:
64,192,27013,1,0,0:0:0:0:
64,192,27311,1,0,0:0:0:0:
192,192,27311,1,0,0:0:0:0:
320,192,27311,1,0,0:0:0:0:
192,192,27460,1,0,0:0:0:0:
64,192,27460,1,0,0:0:0:0:
64,192,27610,1,0,0:0:0:0:
320,192,27610,1,0,0:0:0:0:
448,192,27610,1,0,0:0:0:0:
320,192,27759,1,0,0:0:0:0:
448,192,27759,1,0,0:0:0:0:
64,192,27908,128,0,29102:0:0:0:0:
192,192,27908,1,0,0:0:0:0:
320,192,27908,1,0,0:0:0:0:
320,192,28207,1,0,0:0:0:0:
448,192,28207,1,0,0:0:0:0:
192,192,28505,1,0,0:0:0:0:
448,192,28505,1,0,0:0:0:0:
320,192,28804,1,0,0:0:0:0:
192,192,28804,1,0,0:0:0:0:
448,192,28953,1,0,0:0:0:0:
320,192,29028,1,0,0:0:0:0:
448,192,29102,1,0,0:0:0:0:
192,192,29102,128,0,30296:0:0:0:0:
320,192,29401,1,0,0:0:0:0:
64,192,29401,1,0,0:0:0:0:
320,192,29699,1,0,0:0:0:0:
448,192,29699,1,0,0:0:0:0:
448,192,29998,1,0,0:0:0:0:
64,192,29998,1,0,0:0:0:0:
320,192,30147,1,0,0:0:0:0:
64,192,30222,1,0,0:0:0:0:
448,192,30296,128,0,31490:0:0:0:0:
320,192,30296,1,0,0:0:0:0:
320,192,30595,1,0,0:0:0:0:
192,192,30595,1,0,0:0:0:0:
64,192,30893,1,0,0:0:0:0:
192,192,30893,1,0,0:0:0:0:
320,192,31192,1,0,0:0:0:0:
64,192,31192,1,0,0:0:0:0:
192,192,31341,1,0,0:0:0:0:
64,192,31416,1,0,0:0:0:0:
320,192,31490,128,0,32386:0:0:0:0:
192,192,31490,1,0,0:0:0:0:
192,192,31789,1,0,0:0:0:0:
64,192,31789,1,0,0:0:0:0:
448,192,32087,1,0,0:0:0:0:
192,192,32087,1,0,0:0:0:0:
64,192,32386,1,0,0:0:0:0:
192,192,32535,1,0,0:0:0:0:
320,192,32684,1,0,0:0:0:0:
448,192,32684,1,0,0:0:0:0:
64,192,32684,128,0,33281:0:0:0:0:
192,192,32983,1,0,0:0:0:0:
320,192,32983,1,0,0:0:0:0:
448,192,33132,1,0,0:0:0:0:
320,192,33281,1,0,0:0:0:0:
192,192,33281,1,0,0:0:0:0:
448,192,33431,1,0,0:0:0:0:
64,192,33580,1,0,0:0:0:0:
320,192,33580,1,0,0:0:0:0:
448,192,33729,1,0,0:0:0:0:
320,192,33804,1,0,0:0:0:0:
192,192,33878,1,0,0:0:0:0:
64,192,33878,128,0,34475:0:0:0:0:
320,192,34177,1,0,0:0:0:0:
448,192,34177,1,0,0:0:0:0:
320,192,34475,1,0,0:0:0:0:
192,192,34475,1,0,0:0:0:0:
320,192,34774,1,0,0:0:0:0:
448,192,34774,1,0,0:0:0:0:
64,192,35072,1,0,0:0:0:0:
448,192,35072,1,0,0:0:0:0:
448,192,35222,1,0,0:0:0:0:
192,192,35222,1,0,0:0:0:0:
64,192,35371,1,0,0:0:0:0:
320,192,35371,1,0,0:0:0:0:
192,192,35520,1,0,0:0:0:0:
64,192,35520,1,0,0:0:0:0:
448,192,35669,1,0,0:0:0:0:
320,192,35669,1,0,0:0:0:0:
192,192,35819,1,0,0:0:0:0:
320,192,35819,1,0,0:0:0:0:
448,192,35968,1,0,0:0:0:0:
64,192,35968,1,0,0:0:0:0:
64,192,36117,1,0,0:0:0:0:
320,192,36117,1,0,0:0:0:0:
192,192,36266,1,0,0:0:0:0:
448,192,36266,1,0,0:0:0:0:
320,192,36341,1,0,0:0:0:0:
448,192,36416,1,0,0:0:0:0:
192,192,36565,1,0,0:0:0:0:
64,192,36565,1,0,0:0:0:0:
320,192,36640,1,0,0:0:0:0:
448,192,36714,1,0,0:0:0:0:
320,192,36789,1,0,0:0:0:0:
192,192,36863,1,0,0:0:0:0:
448,192,36863,1,0,0:0:0:0:
64,192,36938,1,0,0:0:0:0:
320,192,37013,1,0,0:0:0:0:
192,192,37087,1,0,0:0:0:0:
64,192,37162,1,0,0:0:0:0:
448,192,37162,1,0,0:0:0:0:
320,192,37237,1,0,0:0:0:0:
192,192,37311,1,0,0:0:0:0:
448,192,37311,1,0,0:0:0:0:
64,192,37386,1,0,0:0:0:0:
320,192,37460,128,0,37759:0:0:0:0:
192,192,37460,128,0,37759:0:0:0:0:
64,192,37759,1,0,0:0:0:0:
448,192,37759,1,0,0:0:0:0:
192,192,37834,1,0,0:0:0:0:
320,192,37908,1,0,0:0:0:0:
192,192,37983,1,0,0:0:0:0:
64,192,38057,1,0,0:0:0:0:
320,192,38132,1,0,0:0:0:0:
192,192,38207,1,0,0:0:0:0:
448,192,38281,1,0,0:0:0:0:
64,192,38356,1,0,0:0:0:0:
192,192,38431,1,0,0:0:0:0:
448,192,38505,1,0,0:0:0:0:
320,192,38580,1,0,0:0:0:0:
64,192,38654,1,0,0:0:0:0:
192,192,38654,1,0,0:0:0:0:
192,192,38804,1,0,0:0:0:0:
320,192,38804,1,0,0:0:0:0:
64,192,38953,1,0,0:0:0:0:
320,192,38953,1,0,0:0:0:0:
448,192,38953,1,0,0:0:0:0:
192,192,39028,1,0,0:0:0:0:
320,192,39102,1,0,0:0:0:0:
192,192,39177,1,0,0:0:0:0:
320,192,39251,1,0,0:0:0:0:
64,192,39326,1,0,0:0:0:0:
320,192,39401,1,0,0:0:0:0:
448,192,39401,1,0,0:0:0:0:
64,192,39475,1,0,0:0:0:0:
192,192,39550,1,0,0:0:0:0:
448,192,39550,1,0,0:0:0:0:
320,192,39625,1,0,0:0:0:0:
448,192,39699,1,0,0:0:0:0:
320,192,39774,1,0,0:0:0:0:
192,192,39848,1,0,0:0:0:0:
64,192,39848,1,0,0:0:0:0:
192,192,39998,1,0,0:0:0:0:
320,192,39998,1,0,0:0:0:0:
448,192,40147,1,0,0:0:0:0:
320,192,40147,1,0,0:0:0:0:
192,192,40147,1,0,0:0:0:0:
64,192,40222,1,0,0:0:0:0:
192,192,40296,1,0,0:0:0:0:
320,192,40371,1,0,0:0:0:0:
448,192,40445,1,0,0:0:0:0:
64,192,40445,1,0,0:0:0:0:
192,192,40520,1,0,0:0:0:0:
448,192,40595,1,0,0:0:0:0:
64,192,40595,1,0,0:0:0:0:
192,192,40669,1,0,0:0:0:0:
320,192,40744,1,0,0:0:0:0:
448,192,40744,1,0,0:0:0:0:
192,192,40819,1,0,0:0:0:0:
64,192,40893,1,0,0:0:0:0:
192,192,40968,1,0,0:0:0:0:
320,192,41043,1,0,0:0:0:0:
64,192,41043,1,0,0:0:0:0:
448,192,41117,1,0,0:0:0:0:
320,192,41192,1,0,0:0:0:0:
64,192,41192,1,0,0:0:0:0:
192,192,41266,1,0,0:0:0:0:
64,192,41341,1,0,0:0:0:0:
448,192,41341,1,0,0:0:0:0:
192,192,41416,1,0,0:0:0:0:
320,192,41490,1,0,0:0:0:0:
64,192,41565,1,0,0:0:0:0:
192,192,41640,1,0,0:0:0:0:
320,192,41640,1,0,0:0:0:0:
448,192,41714,1,0,0:0:0:0:
64,192,41789,1,0,0:0:0:0:
192,192,41789,1,0,0:0:0:0:
320,192,41863,1,0,0:0:0:0:
64,192,41938,1,0,0:0:0:0:
192,192,41938,1,0,0:0:0:0:
448,192,41938,1,0,0:0:0:0:
320,192,42087,1,0,0:0:0:0:
64,192,42237,1,0,0:0:0:0:
448,192,42237,1,0,0:0:0:0:
192,192,42237,1,0,0:0:0:0:
320,192,42386,1,0,0:0:0:0:
192,192,42386,1,0,0:0:0:0:
320,192,42535,1,0,0:0:0:0:
448,192,42535,1,0,0:0:0:0:
192,192,42610,1,0,0:0:0:0:
64,192,42684,1,0,0:0:0:0:
448,192,42759,1,0,0:0:0:0:
320,192,42834,1,0,0:0:0:0:
64,192,42834,1,0,0:0:0:0:
192,192,42908,1,0,0:0:0:0:
64,192,42983,1,0,0:0:0:0:
320,192,43132,1,0,0:0:0:0:
448,192,43132,1,0,0:0:0:0:
192,192,43281,1,0,0:0:0:0:
64,192,43431,1,0,0:0:0:0:
448,192,43431,1,0,0:0:0:0:
192,192,43431,1,0,0:0:0:0:
192,192,43580,1,0,0:0:0:0:
320,192,43729,1,0,0:0:0:0:
448,192,43729,1,0,0:0:0:0:
192,192,43804,1,0,0:0:0:0:
64,192,43878,1,0,0:0:0:0:
192,192,43953,1,0,0:0:0:0:
64,192,44028,1,0,0:0:0:0:
448,192,44028,1,0,0:0:0:0:
320,192,44102,1,0,0:0:0:0:
448,192,44177,1,0,0:0:0:0:
192,192,44326,1,0,0:0:0:0:
320,192,44326,1,0,0:0:0:0:
64,192,44475,1,0,0:0:0:0:
320,192,44625,1,0,0:0:0:0:
448,192,44625,1,0,0:0:0:0:
192,192,44625,1,0,0:0:0:0:
192,192,44774,1,0,0:0:0:0:
320,192,44774,1,0,0:0:0:0:
64,192,44923,1,0,0:0:0:0:
448,192,44923,1,0,0:0:0:0:
192,192,44998,1,0,0:0:0:0:
320,192,45072,1,0,0:0:0:0:
192,192,45147,1,0,0:0:0:0:
64,192,45222,1,0,0:0:0:0:
448,192,45222,1,0,0:0:0:0:
320,192,45296,1,0,0:0:0:0:
192,192,45371,1,0,0:0:0:0:
64,192,45520,1,0,0:0:0:0:
320,192,45520,1,0,0:0:0:0:
448,192,45520,1,0,0:0:0:0:
192,192,45669,1,0,0:0:0:0:
320,192,45819,1,0,0:0:0:0:
64,192,45819,1,0,0:0:0:0:
320,192,45968,1,0,0:0:0:0:
192,192,45968,1,0,0:0:0:0:
448,192,46117,1,0,0:0:0:0:
64,192,46117,1,0,0:0:0:0:
192,192,46117,1,0,0:0:0:0:
320,192,46266,1,0,0:0:0:0:
192,192,46416,1,0,0:0:0:0:
448,192,46416,1,0,0:0:0:0:
320,192,46416,1,0,0:0:0:0:
192,192,46565,1,0,0:0:0:0:
64,192,46565,1,0,0:0:0:0:
64,192,46714,1,0,0:0:0:0:
192,192,46714,1,0,0:0:0:0:
448,192,46714,1,0,0:0:0:0:
320,192,46863,1,0,0:0:0:0:
192,192,47013,1,0,0:0:0:0:
448,192,47013,1,0,0:0:0:0:
64,192,47013,128,0,49401:0:0:0:0:
320,192,47311,1,0,0:0:0:0:
448,192,47759,1,0,0:0:0:0:
192,192,48207,1,0,0:0:0:0:
448,192,48654,1,0,0:0:0:0:
320,192,49102,1,0,0:0:0:0:
448,192,49401,128,0,49848:0:0:0:0:
192,192,49401,1,0,0:0:0:0:
192,192,49848,128,0,50296:0:0:0:0:
320,192,49848,1,0,0:0:0:0:
64,192,50296,128,0,50744:0:0:0:0:
448,192,50296,1,0,0:0:0:0:
320,192,50744,128,0,51192:0:0:0:0:
192,192,50744,1,0,0:0:0:0:
64,192,51192,1,0,0:0:0:0:
192,192,51192,1,0,0:0:0:0:
448,192,51341,1,0,0:0:0:0:
320,192,51416,1,0,0:0:0:0:
192,192,51490,1,0,0:0:0:0:
64,192,51490,1,0,0:0:0:0:
64,192,51789,1,0,0:0:0:0:
320,192,51789,1,0,0:0:0:0:
64,192,52087,1,0,0:0:0:0:
448,192,52087,1,0,0:0:0:0:
192,192,52386,1,0,0:0:0:0:
448,192,52386,1,0,0:0:0:0:
192,192,52535,1,0,0:0:0:0:
448,192,52535,1,0,0:0:0:0:
192,192,52684,1,0,0:0:0:0:
448,192,52684,1,0,0:0:0:0:
320,192,52834,1,0,0:0:0:0:
448,192,52834,128,0,53431:0:0:0:0:
192,192,52983,1,0,0:0:0:0:
64,192,52983,1,0,0:0:0:0:
192,192,53281,1,0,0:0:0:0:
320,192,53281,1,0,0:0:0:0:
64,192,53281,1,0,0:0:0:0:
64,192,53580,1,0,0:0:0:0:
192,192,53580,1,0,0:0:0:0:
192,192,53729,1,0,0:0:0:0:
320,192,53729,1,0,0:0:0:0:
320,192,53878,1,0,0:0:0:0:
448,192,53878,1,0,0:0:0:0:
64,192,53878,1,0,0:0:0:0:
192,192,54028,1,0,0:0:0:0:
64,192,54028,1,0,0:0:0:0:
448,192,54102,1,0,0:0:0:0:
320,192,54102,1,0,0:0:0:0:
64,192,54177,1,0,0:0:0:0:
192,192,54177,1,0,0:0:0:0:
192,192,54326,1,0,0:0:0:0:
320,192,54475,1,0,0:0:0:0:
448,192,54475,1,0,0:0:0:0:
64,192,54475,1,0,0:0:0:0:
192,192,54625,1,0,0:0:0:0:
64,192,54774,1,0,0:0:0:0:
448,192,54774,1,0,0:0:0:0:
192,192,54923,1,0,0:0:0:0:
64,192,55072,1,0,0:0:0:0:
448,192,55072,1,0,0:0:0:0:
320,192,55072,1,0,0:0:0:0:
320,192,55222,1,0,0:0:0:0:
448,192,55222,1,0,0:0:0:0:
64,192,55296,1,0,0:0:0:0:
192,192,55296,1,0,0:0:0:0:
320,192,55371,1,0,0:0:0:0:
448,192,55371,1,0,0:0:0:0:
192,192,55520,1,0,0:0:0:0:
64,192,55669,1,0,0:0:0:0:
448,192,55669,1,0,0:0:0:0:
320,192,55669,1,0,0:0:0:0:
192,192,55819,1,0,0:0:0:0:
64,192,55968,1,0,0:0:0:0:
320,192,55968,1,0,0:0:0:0:
320,192,56117,1,0,0:0:0:0:
448,192,56117,128,0,56565:0:0:0:0:
64,192,56266,1,0,0:0:0:0:
192,192,56266,1,0,0:0:0:0:
192,192,56565,1,0,0:0:0:0:
320,192,56565,1,0,0:0:0:0:
64,192,56714,1,0,0:0:0:0:
192,192,56863,1,0,0:0:0:0:
448,192,56863,1,0,0:0:0:0:
64,192,56863,1,0,0:0:0:0:
320,192,57013,1,0,0:0:0:0:
448,192,57162,1,0,0:0:0:0:
64,192,57162,1,0,0:0:0:0:
192,192,57311,128,0,57759:0:0:0:0:
448,192,57311,1,0,0:0:0:0:
64,192,57460,1,0,0:0:0:0:
320,192,57460,1,0,0:0:0:0:
320,192,57759,1,0,0:0:0:0:
448,192,57759,1,0,0:0:0:0:
64,192,57908,1,0,0:0:0:0:
192,192,58057,1,0,0:0:0:0:
448,192,58057,1,0,0:0:0:0:
320,192,58057,1,0,0:0:0:0:
192,192,58207,1,0,0:0:0:0:
320,192,58356,1,0,0:0:0:0:
64,192,58356,1,0,0:0:0:0:
192,192,58505,1,0,0:0:0:0:
448,192,58505,128,0,58953:0:0:0:0:
64,192,58654,1,0,0:0:0:0:
320,192,58654,1,0,0:0:0:0:
64,192,58953,1,0,0:0:0:0:
192,192,58953,1,0,0:0:0:0:
320,192,59102,1,0,0:0:0:0:
448,192,59251,1,0,0:0:0:0:
192,192,59251,1,0,0:0:0:0:
64,192,59251,1,0,0:0:0:0:
320,192,59401,1,0,0:0:0:0:
448,192,59550,1,0,0:0:0:0:
64,192,59550,1,0,0:0:0:0:
64,192,59699,1,0,0:0:0:0:
320,192,59699,1,0,0:0:0:0:
192,192,59848,1,0,0:0:0:0:
448,192,59848,1,0,0:0:0:0:
64,192,59848,1,0,0:0:0:0:
320,192,59998,1,0,0:0:0:0:
64,192,60147,128,0,60445:0:0:0:0:
192,192,60147,128,0,60445:0:0:0:0:
448,192,60296,1,0,0:0:0:0:
320,192,60296,1,0,0:0:0:0:
320,192,60445,1,0,0:0:0:0:
448,192,60445,1,0,0:0:0:0:
192,192,60595,1,0,0:0:0:0:
448,192,60744,128,0,61043:0:0:0:0:
320,192,60744,128,0,61043:0:0:0:0:
64,192,60893,1,0,0:0:0:0:
192,192,60893,1,0,0:0:0:0:
192,192,61043,1,0,0:0:0:0:
64,192,61043,1,0,0:0:0:0:
320,192,61192,1,0,0:0:0:0:
192,192,61341,1,0,0:0:0:0:
448,192,61341,1,0,0:0:0:0:
64,192,61341,1,0,0:0:0:0:
320,192,61490,1,0,0:0:0:0:
64,192,61640,1,0,0:0:0:0:
448,192,61640,1,0,0:0:0:0:
320,192,61640,1,0,0:0:0:0:
192,192,61789,1,0,0:0:0:0:
320,192,61938,1,0,0:0:0:0:
448,192,61938,1,0,0:0:0:0:
320,192,62087,1,0,0:0:0:0:
448,192,62087,1,0,0:0:0:0:
192,192,62237,1,0,0:0:0:0:
64,192,62237,1,0,0:0:0:0:
448,192,62237,1,0,0:0:0:0:
320,192,62386,1,0,0:0:0:0:
192,192,62535,1,0,0:0:0:0:
448,192,62535,1,0,0:0:0:0:
320,192,62684,1,0,0:0:0:0:
64,192,62834,1,0,0:0:0:0:
192,192,62834,1,0,0:0:0:0:
448,192,62834,1,0,0:0:0:0:
320,192,62983,1,0,0:0:0:0:
192,192,63132,1,0,0:0:0:0:
448,192,63132,1,0,0:0:0:0:
192,192,63281,1,0,0:0:0:0:
448,192,63281,1,0,0:0:0:0:
64,192,63431,1,0,0:0:0:0:
320,192,63431,1,0,0:0:0:0:
192,192,63580,1,0,0:0:0:0:
320,192,63580,1,0,0:0:0:0:
64,192,63654,1,0,0:0:0:0:
448,192,63654,1,0,0:0:0:0:
192,192,63729,1,0,0:0:0:0:
320,192,63729,1,0,0:0:0:0:
448,192,63878,1,0,0:0:0:0:
320,192,64028,1,0,0:0:0:0:
64,192,64028,1,0,0:0:0:0:
192,192,64028,1,0,0:0:0:0:
448,192,64177,1,0,0:0:0:0:
320,192,64326,1,0,0:0:0:0:
192,192,64326,1,0,0:0:0:0:
192,192,64475,1,0,0:0:0:0:
320,192,64475,1,0,0:0:0:0:
448,192,64625,1,0,0:0:0:0:
64,192,64625,1,0,0:0:0:0:
320,192,64625,1,0,0:0:0:0:
192,192,64774,1,0,0:0:0:0:
64,192,64923,128,0,65222:0:0:0:0:
320,192,64923,1,0,0:0:0:0:
320,192,65222,128,0,65520:0:0:0:0:
192,192,65222,1,0,0:0:0:0:
192,192,65520,128,0,65819:0:0:0:0:
448,192,65520,1,0,0:0:0:0:
64,192,65819,1,0,0:0:0:0:
320,192,65819,1,0,0:0:0:0:
448,192,65968,1,0,0:0:0:0:
320,192,66043,1,0,0:0:0:0:
192,192,66117,1,0,0:0:0:0:
64,192,66117,128,0,66416:0:0:0:0:
320,192,66266,1,0,0:0:0:0:
448,192,66266,1,0,0:0:0:0:
320,192,66416,1,0,0:0:0:0:
448,192,66416,1,0,0:0:0:0:
192,192,66565,1,0,0:0:0:0:
320,192,66714,1,0,0:0:0:0:
448,192,66714,1,0,0:0:0:0:
192,192,66863,1,0,0:0:0:0:
320,192,66863,1,0,0:0:0:0:
64,192,67013,1,0,0:0:0:0:
448,192,67013,1,0,0:0:0:0:
64,192,67162,1,0,0:0:0:0:
192,192,67237,1,0,0:0:0:0:
320,192,67311,1,0,0:0:0:0:
448,192,67311,1,0,0:0:0:0:
192,192,67460,1,0,0:0:0:0:
64,192,67460,1,0,0:0:0:0:
64,192,67610,1,0,0:0:0:0:
320,192,67610,1,0,0:0:0:0:
192,192,67759,1,0,0:0:0:0:
320,192,67834,1,0,0:0:0:0:
448,192,67908,1,0,0:0:0:0:
192,192,67908,1,0,0:0:0:0:
320,192,68057,1,0,0:0:0:0:
64,192,68057,1,0,0:0:0:0:
192,192,68207,1,0,0:0:0:0:
448,192,68207,1,0,0:0:0:0:
64,192,68356,1,0,0:0:0:0:
192,192,68431,1,0,0:0:0:0:
448,192,68505,128,0,69102:0:0:0:0:
320,192,68505,128,0,69102:0:0:0:0:
64,192,68654,1,0,0:0:0:0:
192,192,68654,1,0,0:0:0:0:
64,192,68804,1,0,0:0:0:0:
192,192,68804,1,0,0:0:0:0:
64,192,69102,1,0,0:0:0:0:
192,192,69102,1,0,0:0:0:0:
192,192,69251,1,0,0:0:0:0:
320,192,69251,1,0,0:0:0:0:
320,192,69401,1,0,0:0:0:0:
448,192,69401,1,0,0:0:0:0:
320,192,69550,1,0,0:0:0:0:
64,192,69550,1,0,0:0:0:0:
64,192,69699,1,0,0:0:0:0:
192,192,69699,1,0,0:0:0:0:
192,192,69848,1,0,0:0:0:0:
320,192,69848,1,0,0:0:0:0:
448,192,69848,1,0,0:0:0:0:
64,192,69998,1,0,0:0:0:0:
192,192,69998,1,0,0:0:0:0:
320,192,69998,1,0,0:0:0:0:
448,192,70147,1,0,0:0:0:0:
320,192,70296,1,0,0:0:0:0:
64,192,70296,1,0,0:0:0:0:
192,192,70445,1,0,0:0:0:0:
320,192,70595,1,0,0:0:0:0:
448,192,70669,1,0,0:0:0:0:
320,192,70744,1,0,0:0:0:0:
192,192,70819,1,0,0:0:0:0:
320,192,70893,1,0,0:0:0:0:
64,192,70893,1,0,0:0:0:0:
448,192,71192,1,0,0:0:0:0:
448,192,71490,1,0,0:0:0:0:
192,192,71490,1,0,0:0:0:0:
320,192,71789,1,0,0:0:0:0:
64,192,71938,1,0,0:0:0:0:
192,192,72087,1,0,0:0:0:0:
320,192,72087,1,0,0:0:0:0:
64,192,72386,1,0,0:0:0:0:
192,192,72460,1,0,0:0:0:0:
320,192,72535,1,0,0:0:0:0:
448,192,72610,1,0,0:0:0:0:
320,192,72684,1,0,0:0:0:0:
64,192,72684,1,0,0:0:0:0:
320,192,72983,1,0,0:0:0:0:
64,192,73132,1,0,0:0:0:0:
192,192,73281,1,0,0:0:0:0:
448,192,73281,1,0,0:0:0:0:
448,192,73580,1,0,0:0:0:0:
320,192,73654,1,0,0:0:0:0:
192,192,73729,1,0,0:0:0:0:
320,192,73804,1,0,0:0:0:0:
192,192,73878,1,0,0:0:0:0:
448,192,73878,1,0,0:0:0:0:
64,192,74177,1,0,0:0:0:0:
192,192,74326,1,0,0:0:0:0:
320,192,74475,1,0,0:0:0:0:
448,192,74475,1,0,0:0:0:0:
64,192,74774,1,0,0:0:0:0:
192,192,74774,1,0,0:0:0:0:
320,192,75072,1,0,0:0:0:0:
448,192,75072,1,0,0:0:0:0:
64,192,75371,1,0,0:0:0:0:
192,192,75371,1,0,0:0:0:0:
448,192,75669,128,0,75968:0:0:0:0:
192,192,75968,1,0,0:0:0:0:
64,192,76266,128,0,76565:0:0:0:0:
320,192,76565,1,0,0:0:0:0:
64,192,76863,1,0,0:0:0:0:
192,192,76863,1,0,0:0:0:0:
320,192,76963,1,0,0:0:0:0:
448,192,76963,1,0,0:0:0:0:
64,192,77062,1,0,0:0:0:0:
192,192,77062,1,0,0:0:0:0:
448,192,77162,1,0,0:0:0:0:
320,192,77162,1,0,0:0:0:0:
320,192,77460,1,0,0:0:0:0:
448,192,77460,1,0,0:0:0:0:
64,192,77560,1,0,0:0:0:0:
192,192,77560,1,0,0:0:0:0:
448,192,77659,1,0,0:0:0:0:
320,192,77659,1,0,0:0:0:0:
192,192,77759,1,0,0:0:0:0:
64,192,77759,1,0,0:0:0:0:
448,192,77908,1,0,0:0:0:0:
320,192,78057,1,0,0:0:0:0:
192,192,78356,1,0,0:0:0:0:
448,192,78654,1,0,0:0:0:0:
320,192,78953,1,0,0:0:0:0:
64,192,79251,1,0,0:0:0:0:
448,192,79251,1,0,0:0:0:0:
320,192,79351,1,0,0:0:0:0:
192,192,79351,1,0,0:0:0:0:
448,192,79450,1,0,0:0:0:0:
64,192,79450,1,0,0:0:0:0:
192,192,79550,1,0,0:0:0:0:
320,192,79550,1,0,0:0:0:0:
320,192,79848,1,0,0:0:0:0:
192,192,79848,1,0,0:0:0:0:
64,192,79948,1,0,0:0:0:0:
448,192,79948,1,0,0:0:0:0:
192,192,80047,1,0,0:0:0:0:
320,192,80047,1,0,0:0:0:0:
448,192,80147,1,0,0:0:0:0:
64,192,80147,1,0,0:0:0:0:
64,192,80371,1,0,0:0:0:0:
192,192,80371,1,0,0:0:0:0:
320,192,80445,1,0,0:0:0:0:
448,192,80445,1,0,0:0:0:0:
192,192,80744,1,0,0:0:0:0:
64,192,80819,1,0,0:0:0:0:
192,192,80893,1,0,0:0:0:0:
320,192,80968,1,0,0:0:0:0:
64,192,81043,1,0,0:0:0:0:
448,192,81043,1,0,0:0:0:0:
320,192,81341,1,0,0:0:0:0:
192,192,81416,1,0,0:0:0:0:
448,192,81490,1,0,0:0:0:0:
320,192,81565,1,0,0:0:0:0:
192,192,81640,1,0,0:0:0:0:
448,192,81640,1,0,0:0:0:0:
64,192,81938,1,0,0:0:0:0:
192,192,82013,1,0,0:0:0:0:
64,192,82087,1,0,0:0:0:0:
320,192,82162,1,0,0:0:0:0:
192,192,82237,1,0,0:0:0:0:
448,192,82237,1,0,0:0:0:0:
64,192,82535,1,0,0:0:0:0:
192,192,82535,1,0,0:0:0:0:
448,192,82610,1,0,0:0:0:0:
320,192,82684,1,0,0:0:0:0:
64,192,82759,1,0,0:0:0:0:
192,192,82834,1,0,0:0:0:0:
448,192,82834,1,0,0:0:0:0:
320,192,83132,1,0,0:0:0:0:
192,192,83132,1,0,0:0:0:0:
64,192,83207,1,0,0:0:0:0:
448,192,83281,1,0,0:0:0:0:
320,192,83356,1,0,0:0:0:0:
192,192,83431,1,0,0:0:0:0:
448,192,83431,1,0,0:0:0:0:
64,192,83729,1,0,0:0:0:0:
320,192,83729,1,0,0:0:0:0:
192,192,83804,1,0,0:0:0:0:
448,192,83878,1,0,0:0:0:0:
320,192,83953,1,0,0:0:0:0:
192,192,84028,1,0,0:0:0:0:
64,192,84028,1,0,0:0:0:0:
192,192,84326,1,0,0:0:0:0:
320,192,84326,1,0,0:0:0:0:
448,192,84401,1,0,0:0:0:0:
320,192,84475,1,0,0:0:0:0:
192,192,84550,1,0,0:0:0:0:
320,192,84625,1,0,0:0:0:0:
64,192,84625,1,0,0:0:0:0:
320,192,84923,1,0,0:0:0:0:
448,192,84923,1,0,0:0:0:0:
64,192,85222,128,0,87311:0:0:0:0:
192,192,85222,128,0,87311:0:0:0:0:
320,192,87311,128,0,87610:0:0:0:0:
448,192,87311,128,0,87610:0:0:0:0:
64,192,87610,1,0,0:0:0:0:
192,192,87610,1,0,0:0:0:0:
192,192,87908,1,0,0:0:0:0:
320,192,87908,1,0,0:0:0:0:
320,192,88207,1,0,0:0:0:0:
448,192,88207,1,0,0:0:0:0:
64,192,88505,1,0,0:0:0:0:
192,192,88605,1,0,0:0:0:0:
448,192,88605,1,0,0:0:0:0:
448,192,88704,1,0,0:0:0:0:
320,192,88704,1,0,0:0:0:0:
192,192,88804,1,0,0:0:0:0:
64,192,88804,1,0,0:0:0:0:
192,192,88903,1,0,0:0:0:0:
320,192,88903,1,0,0:0:0:0:
448,192,89003,1,0,0:0:0:0:
320,192,89003,1,0,0:0:0:0:
64,192,89102,1,0,0:0:0:0:
320,192,89102,1,0,0:0:0:0:
448,192,89202,1,0,0:0:0:0:
192,192,89202,1,0,0:0:0:0:
320,192,89301,1,0,0:0:0:0:
64,192,89401,128,0,89699:0:0:0:0:
192,192,89401,128,0,89699:0:0:0:0:
448,192,89699,1,0,0:0:0:0:
320,192,89774,1,0,0:0:0:0:
192,192,89848,1,0,0:0:0:0:
64,192,89923,1,0,0:0:0:0:
192,192,89998,1,0,0:0:0:0:
448,192,89998,1,0,0:0:0:0:
320,192,89998,1,0,0:0:0:0:
64,192,90147,1,0,0:0:0:0:
192,192,90296,1,0,0:0:0:0:
448,192,90296,1,0,0:0:0:0:
320,192,90445,1,0,0:0:0:0:
448,192,90595,1,0,0:0:0:0:
320,192,90744,1,0,0:0:0:0:
64,192,90744,1,0,0:0:0:0:
192,192,90893,1,0,0:0:0:0:
448,192,90893,1,0,0:0:0:0:
320,192,91043,1,0,0:0:0:0:
64,192,91192,1,0,0:0:0:0:
448,192,91192,1,0,0:0:0:0:
320,192,91341,1,0,0:0:0:0:
64,192,91490,1,0,0:0:0:0:
192,192,91490,1,0,0:0:0:0:
448,192,91490,1,0,0:0:0:0:
320,192,91640,1,0,0:0:0:0:
448,192,91789,1,0,0:0:0:0:
64,192,91938,1,0,0:0:0:0:
192,192,91938,1,0,0:0:0:0:
192,192,92087,1,0,0:0:0:0:
320,192,92087,1,0,0:0:0:0:
64,192,92087,1,0,0:0:0:0:
448,192,92237,1,0,0:0:0:0:
320,192,92386,1,0,0:0:0:0:
192,192,92535,1,0,0:0:0:0:
64,192,92535,1,0,0:0:0:0:
64,192,92684,1,0,0:0:0:0:
320,192,92684,1,0,0:0:0:0:
448,192,92684,1,0,0:0:0:0:
192,192,92834,1,0,0:0:0:0:
320,192,92834,1,0,0:0:0:0:
448,192,92983,1,0,0:0:0:0:
320,192,92983,1,0,0:0:0:0:
192,192,93132,1,0,0:0:0:0:
448,192,93132,1,0,0:0:0:0:
192,192,93281,1,0,0:0:0:0:
64,192,93281,1,0,0:0:0:0:
448,192,93281,1,0,0:0:0:0:
320,192,93431,1,0,0:0:0:0:
192,192,93580,1,0,0:0:0:0:
448,192,93580,1,0,0:0:0:0:
192,192,93729,1,0,0:0:0:0:
64,192,93729,1,0,0:0:0:0:
192,192,93878,1,0,0:0:0:0:
320,192,93878,1,0,0:0:0:0:
448,192,93878,1,0,0:0:0:0:
64,192,94028,1,0,0:0:0:0:
192,192,94177,1,0,0:0:0:0:
448,192,94177,1,0,0:0:0:0:
192,192,94326,1,0,0:0:0:0:
448,192,94326,1,0,0:0:0:0:
448,192,94475,1,0,0:0:0:0:
192,192,94475,1,0,0:0:0:0:
64,192,94475,1,0,0:0:0:0:
320,192,94625,1,0,0:0:0:0:
64,192,94774,1,0,0:0:0:0:
192,192,94774,1,0,0:0:0:0:
64,192,94923,1,0,0:0:0:0:
192,192,94923,1,0,0:0:0:0:
64,192,95072,1,0,0:0:0:0:
192,192,95072,1,0,0:0:0:0:
320,192,95072,1,0,0:0:0:0:
448,192,95147,1,0,0:0:0:0:
320,192,95222,1,0,0:0:0:0:
448,192,95296,1,0,0:0:0:0:
64,192,95371,1,0,0:0:0:0:
192,192,95371,1,0,0:0:0:0:
192,192,95520,1,0,0:0:0:0:
448,192,95520,1,0,0:0:0:0:
64,192,95669,1,0,0:0:0:0:
192,192,95669,1,0,0:0:0:0:
320,192,95744,1,0,0:0:0:0:
192,192,95819,1,0,0:0:0:0:
448,192,95893,1,0,0:0:0:0:
320,192,95968,1,0,0:0:0:0:
64,192,95968,1,0,0:0:0:0:
192,192,96117,1,0,0:0:0:0:
448,192,96117,1,0,0:0:0:0:
320,192,96266,1,0,0:0:0:0:
64,192,96266,1,0,0:0:0:0:
448,192,96266,1,0,0:0:0:0:
192,192,96341,1,0,0:0:0:0:
320,192,96416,1,0,0:0:0:0:
64,192,96490,1,0,0:0:0:0:
192,192,96565,1,0,0:0:0:0:
448,192,96565,1,0,0:0:0:0:
192,192,96714,1,0,0:0:0:0:
448,192,96714,1,0,0:0:0:0:
64,192,96863,1,0,0:0:0:0:
192,192,96863,1,0,0:0:0:0:
448,192,96863,1,0,0:0:0:0:
320,192,97013,1,0,0:0:0:0:
192,192,97162,1,0,0:0:0:0:
64,192,97162,1,0,0:0:0:0:
320,192,97311,1,0,0:0:0:0:
448,192,97311,1,0,0:0:0:0:
64,192,97460,1,0,0:0:0:0:
192,192,97460,1,0,0:0:0:0:
320,192,97460,1,0,0:0:0:0:
448,192,97610,1,0,0:0:0:0:
64,192,97759,1,0,0:0:0:0:
192,192,97759,1,0,0:0:0:0:
192,192,97908,1,0,0:0:0:0:
320,192,97908,1,0,0:0:0:0:
64,192,98057,1,0,0:0:0:0:
192,192,98057,1,0,0:0:0:0:
448,192,98207,1,0,0:0:0:0:
320,192,98207,1,0,0:0:0:0:
192,192,98356,1,0,0:0:0:0:
320,192,98356,1,0,0:0:0:0:
64,192,98505,1,0,0:0:0:0:
192,192,98654,1,0,0:0:0:0:
448,192,98654,1,0,0:0:0:0:
64,192,98654,1,0,0:0:0:0:
320,192,98804,1,0,0:0:0:0:
64,192,98953,128,0,99251:0:0:0:0:
320,192,99102,1,0,0:0:0:0:
448,192,99102,1,0,0:0:0:0:
320,192,99251,1,0,0:0:0:0:
448,192,99251,1,0,0:0:0:0:
192,192,99326,1,0,0:0:0:0:
320,192,99401,1,0,0:0:0:0:
192,192,99475,1,0,0:0:0:0:
64,192,99550,1,0,0:0:0:0:
448,192,99550,1,0,0:0:0:0:
320,192,99699,1,0,0:0:0:0:
448,192,99848,1,0,0:0:0:0:
192,192,99848,1,0,0:0:0:0:
64,192,99848,1,0,0:0:0:0:
320,192,99998,1,0,0:0:0:0:
192,192,100147,1,0,0:0:0:0:
64,192,100296,1,0,0:0:0:0:
448,192,100296,1,0,0:0:0:0:
64,192,100445,1,0,0:0:0:0:
192,192,100445,1,0,0:0:0:0:
448,192,100445,1,0,0:0:0:0:
320,192,100595,1,0,0:0:0:0:
192,192,100744,1,0,0:0:0:0:
448,192,100744,1,0,0:0:0:0:
320,192,100893,1,0,0:0:0:0:
64,192,101043,1,0,0:0:0:0:
192,192,101043,1,0,0:0:0:0:
448,192,101043,1,0,0:0:0:0:
320,192,101192,1,0,0:0:0:0:
192,192,101341,1,0,0:0:0:0:
448,192,101341,1,0,0:0:0:0:
320,192,101490,1,0,0:0:0:0:
64,192,101640,1,0,0:0:0:0:
192,192,101640,1,0,0:0:0:0:
448,192,101640,1,0,0:0:0:0:
192,192,101789,1,0,0:0:0:0:
448,192,101789,128,0,102834:0:0:0:0:
320,192,101938,1,0,0:0:0:0:
64,192,102087,1,0,0:0:0:0:
192,192,102087,1,0,0:0:0:0:
192,192,102237,1,0,0:0:0:0:
64,192,102237,1,0,0:0:0:0:
320,192,102237,1,0,0:0:0:0:
192,192,102535,1,0,0:0:0:0:
320,192,102535,1,0,0:0:0:0:
192,192,102684,1,0,0:0:0:0:
320,192,102684,1,0,0:0:0:0:
320,192,102834,1,0,0:0:0:0:
64,192,102834,1,0,0:0:0:0:
192,192,102908,1,0,0:0:0:0:
192,192,102983,1,0,0:0:0:0:
320,192,103057,1,0,0:0:0:0:
192,192,103132,1,0,0:0:0:0:
448,192,103132,1,0,0:0:0:0:
320,192,103281,1,0,0:0:0:0:
192,192,103431,1,0,0:0:0:0:
448,192,103431,1,0,0:0:0:0:
64,192,103431,1,0,0:0:0:0:
320,192,103580,1,0,0:0:0:0:
448,192,103729,1,0,0:0:0:0:
192,192,103729,1,0,0:0:0:0:
64,192,103878,1,0,0:0:0:0:
320,192,103878,1,0,0:0:0:0:
192,192,104028,1,0,0:0:0:0:
448,192,104028,1,0,0:0:0:0:
64,192,104028,1,0,0:0:0:0:
192,192,104177,1,0,0:0:0:0:
320,192,104326,1,0,0:0:0:0:
64,192,104326,1,0,0:0:0:0:
192,192,104426,1,0,0:0:0:0:
320,192,104525,1,0,0:0:0:0:
320,192,104625,1,0,0:0:0:0:
64,192,104625,1,0,0:0:0:0:
448,192,104625,1,0,0:0:0:0:
192,192,104724,1,0,0:0:0:0:
320,192,104824,1,0,0:0:0:0:
192,192,104923,1,0,0:0:0:0:
320,192,104923,1,0,0:0:0:0:
448,192,105023,1,0,0:0:0:0:
320,192,105122,1,0,0:0:0:0:
320,192,105222,1,0,0:0:0:0:
448,192,105222,1,0,0:0:0:0:
64,192,105222,1,0,0:0:0:0:
192,192,105321,1,0,0:0:0:0:
320,192,105421,1,0,0:0:0:0:
320,192,105520,1,0,0:0:0:0:
64,192,105520,1,0,0:0:0:0:
192,192,105620,1,0,0:0:0:0:
64,192,105719,1,0,0:0:0:0:
64,192,105819,1,0,0:0:0:0:
320,192,105819,1,0,0:0:0:0:
448,192,105819,1,0,0:0:0:0:
192,192,105918,1,0,0:0:0:0:
320,192,106018,1,0,0:0:0:0:
64,192,106117,1,0,0:0:0:0:
320,192,106117,1,0,0:0:0:0:
192,192,106217,1,0,0:0:0:0:
448,192,106316,1,0,0:0:0:0:
192,192,106416,1,0,0:0:0:0:
64,192,106416,1,0,0:0:0:0:
448,192,106416,1,0,0:0:0:0:
320,192,106515,1,0,0:0:0:0:
192,192,106615,1,0,0:0:0:0:
448,192,106714,1,0,0:0:0:0:
192,192,106714,1,0,0:0:0:0:
448,192,106863,1,0,0:0:0:0:
320,192,106863,1,0,0:0:0:0:
64,192,107013,1,0,0:0:0:0:
192,192,107013,1,0,0:0:0:0:
320,192,107013,1,0,0:0:0:0:
192,192,107311,1,0,0:0:0:0:
320,192,107311,1,0,0:0:0:0:
192,192,107460,1,0,0:0:0:0:
320,192,107460,1,0,0:0:0:0:
64,192,107610,1,0,0:0:0:0:
192,192,107610,1,0,0:0:0:0:
448,192,107610,1,0,0:0:0:0:
320,192,107684,1,0,0:0:0:0:
448,192,107759,1,0,0:0:0:0:
192,192,107834,1,0,0:0:0:0:
320,192,107908,1,0,0:0:0:0:
64,192,107908,1,0,0:0:0:0:
192,192,108207,1,0,0:0:0:0:
320,192,108207,1,0,0:0:0:0:
448,192,108207,1,0,0:0:0:0:
64,192,108505,1,0,0:0:0:0:
192,192,108505,1,0,0:0:0:0:
448,192,108505,1,0,0:0:0:0:
64,192,108654,1,0,0:0:0:0:
192,192,108654,1,0,0:0:0:0:
192,192,108804,1,0,0:0:0:0:
448,192,108804,1,0,0:0:0:0:
320,192,108953,1,0,0:0:0:0:
64,192,109102,128,0,111490:0:0:0:0:
192,192,109102,1,0,0:0:0:0:
448,192,109102,1,0,0:0:0:0:
448,192,109401,1,0,0:0:0:0:
320,192,109699,1,0,0:0:0:0:
448,192,109998,1,0,0:0:0:0:
192,192,110296,1,0,0:0:0:0:
320,192,110595,1,0,0:0:0:0:
192,192,110893,1,0,0:0:0:0:
320,192,111192,1,0,0:0:0:0:
448,192,111490,128,0,112983:0:0:0:0:
320,192,111490,1,0,0:0:0:0:
192,192,111490,1,0,0:0:0:0:
64,192,111789,1,0,0:0:0:0:
320,192,112087,1,0,0:0:0:0:
192,192,112386,1,0,0:0:0:0:
320,192,112684,1,0,0:0:0:0:
64,192,112684,128,0,113281:0:0:0:0:
192,192,113281,1,0,0:0:0:0:
448,192,113281,1,0,0:0:0:0:
64,192,113356,1,0,0:0:0:0:
320,192,113356,1,0,0:0:0:0:
192,192,113431,1,0,0:0:0:0:
448,192,113431,1,0,0:0:0:0:
64,192,113505,1,0,0:0:0:0:
320,192,113505,1,0,0:0:0:0:
192,192,113580,1,0,0:0:0:0:
448,192,113580,1,0,0:0:0:0:
64,192,113878,1,0,0:0:0:0:
192,192,113878,1,0,0:0:0:0:
448,192,113878,128,0,114774:0:0:0:0:
64,192,114774,1,0,0:0:0:0:
192,192,114774,1,0,0:0:0:0:
320,192,114923,1,0,0:0:0:0:
448,192,114923,1,0,0:0:0:0:
192,192,114923,128,0,115669:0:0:0:0:
320,192,115669,1,0,0:0:0:0:
448,192,115669,1,0,0:0:0:0:
192,192,115968,1,0,0:0:0:0:
320,192,115968,1,0,0:0:0:0:
64,192,116266,1,0,0:0:0:0:
192,192,116266,1,0,0:0:0:0:
448,192,116266,128,0,116714:0:0:0:0:
64,192,116714,1,0,0:0:0:0:
192,192,116714,1,0,0:0:0:0:
64,192,116863,1,0,0:0:0:0:
192,192,116863,1,0,0:0:0:0:
320,192,116863,128,0,117460:0:0:0:0:
64,192,117460,1,0,0:0:0:0:
448,192,117460,1,0,0:0:0:0:
192,192,117535,1,0,0:0:0:0:
64,192,117610,1,0,0:0:0:0:
192,192,117684,1,0,0:0:0:0:
320,192,117759,1,0,0:0:0:0:
448,192,117759,1,0,0:0:0:0:
64,192,117759,1,0,0:0:0:0:
192,192,117834,1,0,0:0:0:0:
448,192,117908,1,0,0:0:0:0:
320,192,117983,1,0,0:0:0:0:
192,192,118057,1,0,0:0:0:0:
448,192,118057,1,0,0:0:0:0:
64,192,118057,1,0,0:0:0:0:
320,192,118132,1,0,0:0:0:0:
192,192,118207,1,0,0:0:0:0:
320,192,118281,1,0,0:0:0:0:
448,192,118356,1,0,0:0:0:0:
320,192,118431,1,0,0:0:0:0:
192,192,118505,1,0,0:0:0:0:
64,192,118580,1,0,0:0:0:0:
192,192,118654,1,0,0:0:0:0:
320,192,118654,1,0,0:0:0:0:
448,192,118654,1,0,0:0:0:0:
64,192,118953,1,0,0:0:0:0:
192,192,118953,1,0,0:0:0:0:
320,192,118953,1,0,0:0:0:0:
448,192,119102,1,0,0:0:0:0:
320,192,119251,1,0,0:0:0:0:
64,192,119401,1,0,0:0:0:0:
192,192,119401,1,0,0:0:0:0:
192,192,119550,1,0,0:0:0:0:
448,192,119550,1,0,0:0:0:0:
320,192,119550,1,0,0:0:0:0:
64,192,119699,1,0,0:0:0:0:
192,192,119848,1,0,0:0:0:0:
320,192,119848,1,0,0:0:0:0:
448,192,119998,1,0,0:0:0:0:
320,192,120147,1,0,0:0:0:0:
192,192,120147,1,0,0:0:0:0:
64,192,120147,1,0,0:0:0:0:
448,192,120296,1,0,0:0:0:0:
64,192,120445,1,0,0:0:0:0:
192,192,120445,1,0,0:0:0:0:
64,192,120595,1,0,0:0:0:0:
192,192,120595,1,0,0:0:0:0:
64,192,120744,1,0,0:0:0:0:
192,192,120744,1,0,0:0:0:0:
320,192,120744,1,0,0:0:0:0:
320,192,120893,1,0,0:0:0:0:
448,192,120893,1,0,0:0:0:0:
192,192,121043,1,0,0:0:0:0:
320,192,121043,1,0,0:0:0:0:
64,192,121192,1,0,0:0:0:0:
192,192,121192,1,0,0:0:0:0:
192,192,121341,1,0,0:0:0:0:
320,192,121341,1,0,0:0:0:0:
448,192,121341,1,0,0:0:0:0:
64,192,121490,1,0,0:0:0:0:
320,192,121640,1,0,0:0:0:0:
192,192,121640,1,0,0:0:0:0:
64,192,121789,1,0,0:0:0:0:
192,192,121789,1,0,0:0:0:0:
192,192,121938,1,0,0:0:0:0:
320,192,121938,1,0,0:0:0:0:
448,192,121938,1,0,0:0:0:0:
64,192,122087,1,0,0:0:0:0:
192,192,122237,1,0,0:0:0:0:
320,192,122237,1,0,0:0:0:0:
320,192,122386,1,0,0:0:0:0:
448,192,122386,1,0,0:0:0:0:
192,192,122535,1,0,0:0:0:0:
320,192,122684,1,0,0:0:0:0:
448,192,122684,1,0,0:0:0:0:
192,192,122759,1,0,0:0:0:0:
320,192,122834,1,0,0:0:0:0:
448,192,122834,1,0,0:0:0:0:
192,192,122983,1,0,0:0:0:0:
64,192,122983,1,0,0:0:0:0:
320,192,123132,1,0,0:0:0:0:
448,192,123281,1,0,0:0:0:0:
320,192,123431,128,0,125222:0:0:0:0:
64,192,123431,128,0,125819:0:0:0:0:
192,192,123431,128,0,125520:0:0:0:0:
