osu file format v9

[General]
AudioFilename: perditusparadisus.mp3
AudioLeadIn: 0
PreviewTime: 30742
Countdown: 0
SampleSet: Soft
StackLeniency: 0.7
Mode: 0
LetterboxInBreaks: 1

[Editor]
DistanceSpacing: 0.5
BeatDivisor: 4
GridSize: 16

[Metadata]
Title:perditus paradisus
Artist:iconoclasm
Creator:Sharp
Version:Another
Source:Beatmania IIDX 18 Resort Anthem
Tags:Dj taka wac wakita jun gowww

[Difficulty]
HPDrainRate:8
CircleSize:4
OverallDifficulty:7
ApproachRate:8
SliderMultiplier:2
SliderTickRate:1

[Events]
//Background and Video events
0,0,"BG.jpg"
//Break Periods
2,75418,78480
2,103499,108131
//Storyboard Layer 0 (Background)
//Storyboard Layer 1 (Fail)
//Storyboard Layer 2 (Pass)
//Storyboard Layer 3 (Foreground)
//Storyboard Sound Samples
//Background Colour Transformations
3,100,163,162,255

[TimingPoints]
44,348.837209302326,4,2,0,100,1,0
1439,-200,4,2,0,30,0,0
12601,-100,4,1,0,100,0,0
12775,-100,4,2,0,100,0,0
18182,-100,4,1,0,100,0,0
18356,-100,4,2,0,100,0,0
23763,-100,4,2,1,80,0,0
29345,-100,4,2,0,20,0,0
30566,-100,4,2,0,0,0,0
30740,-100,4,2,1,100,0,0
40507,-100,4,2,1,50,0,0
41728,-100,4,2,1,0,0,0
41903,-100,4,2,1,100,0,0
68414,-100,4,1,0,70,0,0
69810,-100,4,2,1,100,0,0
92135,-100,4,2,1,80,0,0
108880,-100,4,2,1,80,0,0
114461,-100,4,2,1,100,0,0

[Colours]
Combo1 : 0,64,128
Combo2 : 180,188,205
Combo3 : 128,0,64
Combo4 : 128,128,128

[HitObjects]
104,64,1439,6,0,B|168:144|168:144|232:64,1,200
408,64,2834,2,0,B|344:144|344:144|280:64,1,200
176,176,4230,2,0,B|96:240|96:240|176:304,1,200
256,240,5276,1,0
336,176,5625,2,0,B|416:240|416:240|336:304,1,200
416,160,7020,6,0,B|352:80|352:80|256:80,1,200
256,192,8067,1,0
96,160,8416,2,0,B|160:80|160:80|256:80,1,200
256,192,9462,1,0
288,304,9811,2,0,B|192:256,1,100
96,208,10509,2,0,B|266:77,1,200
254,86,11904,1,0
336,128,12602,5,0
384,192,12776,2,0,B|464:272,1,100,2|0
304,256,13125,2,0,B|336:368,1,100,2|0
208,256,13474,2,0,B|176:352,1,100,2|0
128,192,13823,2,0,B|48:272,1,100,2|0
160,288,14171,5,2
256,336,14346,1,0
352,288,14520,1,2
352,96,14869,5,2
256,48,15044,1,0
160,96,15218,1,2
432,144,15567,5,2
400,224,15741,1,0
336,160,15916,1,2
304,240,16090,1,0
240,176,16264,1,2
208,256,16439,1,0
176,336,16613,1,2
160,96,16962,5,2
256,48,17137,1,0
352,96,17311,1,2
352,288,17660,5,2
256,336,17834,1,0
160,288,18009,1,2
80,144,18183,5,4
80,144,18357,2,0,B|160:64,1,100,2|0
160,160,18706,2,0,B|256:112,1,100,2|0
237,198,19055,2,0,B|349:198,1,100,2|0
280,267,19404,2,0,B|376:315,1,100,2|0
432,144,19753,6,0,B|352:64,1,100,2|0
352,160,20102,2,0,B|256:112,1,100,2|0
275,198,20450,2,0,B|163:198,1,100,2|0
232,267,20799,2,0,B|136:315,1,100,2|0
48,192,21148,5,2
256,48,21497,1,2
464,192,21846,1,2
256,336,22195,1,2
160,96,22543,5,2
352,96,22892,1,2
352,288,23241,1,2
160,288,23590,1,2
256,192,23764,6,0,B|304:192,15,50,12|8|8|8|8|8|8|8|8|8|8|8|8|8|8|8
256,192,25160,2,0,B|256:144,15,50,12|8|8|8|8|8|8|8|8|8|8|8|8|8|8|8
256,192,26555,6,0,B|192:192,7,50,12|8|8|8|8|8|8|8
256,192,27253,2,0,B|256:240,7,50,12|8|8|8|8|8|8|8
256,192,27950,22,0,B|304:192,3,50,12|8|8|8
256,192,28299,2,0,B|256:144,3,50,12|8|8|8
256,192,28648,6,0,B|208:192,1,50,12|8
256,192,28823,2,0,B|256:240,1,50,12|8
256,192,28997,2,0,B|304:192,1,50,12|8
256,192,29171,2,0,B|256:144,1,50,12|8
256,192,29346,12,0,30654
112,176,30741,5,8
137,160,30828,1,0
162,144,30916,1,0
187,128,31003,1,0
213,113,31090,2,0,B|244:92|273:92,3,50
288,89,31439,1,8
317,93,31526,1,0
344,104,31613,1,0
368,120,31700,1,0
388,142,31788,2,0,B|411:172|419:198,3,50
416,208,32137,6,0,B|416:320,1,100,8|0
256,304,32485,2,0,B|256:176,1,100
336,64,32834,2,0,B|336:176,1,100,8|0
176,160,33183,2,0,B|176:48,1,100,8|0
96,192,33532,5,8
101,221,33619,1,0
115,247,33706,1,0
137,266,33793,1,0
165,277,33881,2,0,B|195:284|225:279,3,50
244,274,34230,1,8
270,259,34317,1,0
290,237,34404,1,0
306,212,34491,1,0
309,182,34578,2,0,B|319:142|306:120,3,50,0|0|0|0
304,112,34927,6,0,B|192:112,1,100,8|0
208,272,35276,2,0,B|336:272,1,100
448,192,35625,2,0,B|320:192,1,100,8|0
352,352,35974,2,0,B|464:352,1,100,8|0
224,336,36323,5,8
195,326,36410,1,0
170,309,36497,1,0
153,284,36584,1,0
140,256,36671,2,0,B|125:217|142:194,3,50
147,179,37020,1,8
165,155,37107,1,0
188,135,37195,1,0
216,124,37282,1,0
245,123,37369,2,0,B|281:120|301:139,3,50
336,176,37718,5,8
336,176,37805,1,0
336,176,37892,1,0
336,176,37980,1,0
336,176,38067,1,0
336,176,38154,1,0
336,176,38241,1,0
336,176,38328,1,0
336,176,38416,6,0,B|320:240|256:256,1,100,8|0
176,176,38764,2,0,B|192:112|256:96,1,100
144,160,39113,6,0,B|160:96|224:80,1,100,8|0
368,192,39462,2,0,B|352:256|288:272,1,100
400,208,39811,6,0,B|384:272|320:288,1,100,8|0
112,144,40160,2,0,B|128:80|192:64,1,100
256,192,40509,12,0,41817
112,288,41904,5,4
139,298,41991,1,0
168,303,42078,1,0
197,304,42166,1,0
227,301,42253,1,0
256,295,42340,1,0
284,285,42427,1,0
310,271,42514,1,0
335,254,42602,2,0,B|363:229|378:206,4,50,2|0|0|0|0
253,40,43299,5,2
224,49,43387,1,0
199,66,43474,1,0
182,91,43561,1,0
173,119,43648,2,0,B|156:160|180:196,3,50
177,196,43997,1,2
193,221,44084,1,0
214,241,44171,1,0
239,256,44259,1,0
267,264,44346,2,0,B|297:271|329:262,3,50
345,254,44695,5,2
370,238,44782,1,0
391,216,44869,1,0
408,191,44956,1,0
421,164,45043,1,4
342,96,45218,1,0
266,164,45392,1,2
253,191,45480,1,0
236,216,45567,1,0
215,237,45654,1,0
189,252,45741,1,4
102,206,45916,1,0
64,112,46090,5,2
80,96,46177,1,0
96,112,46264,1,0
112,96,46352,1,0
128,112,46439,1,0
144,96,46526,1,0
160,112,46613,1,0
192,240,46788,5,2
176,256,46875,1,0
160,240,46962,1,0
144,256,47049,1,0
128,240,47137,1,0
112,256,47224,1,0
96,240,47311,1,0
192,144,47485,6,0,B|240:192,3,50,2|0|0|0
256,192,47834,2,0,B|304:144,3,50,2|0|0|0
320,144,48183,2,0,B|368:192,3,50,2|0|0|0
384,192,48532,2,0,B|432:144,3,50,2|0|0|0
432,128,48881,6,0,B|400:80,1,50,2|0
368,80,49055,2,0,B|336:128,1,50,2|0
304,128,49230,2,0,B|272:80,1,50,2|0
240,80,49404,2,0,B|208:128,1,50,2|0
192,160,49578,2,0,B|224:208,3,50,2|0|0|0
224,240,49927,2,0,B|192:288,3,50,2|0|0|0
192,320,50276,5,2
224,320,50363,1,0
256,320,50450,1,0
288,320,50538,1,0
320,320,50625,1,4
416,128,50974,5,2
384,128,51061,1,0
352,128,51148,1,0
320,128,51235,1,0
288,128,51323,1,4
112,224,51671,5,2
144,224,51759,1,0
176,224,51846,1,0
208,224,51933,1,0
240,224,52020,2,0,B|288:224,2,50
352,128,52369,5,2
320,128,52456,1,0
288,128,52543,1,0
256,128,52631,1,0
224,128,52718,2,0,B|192:128,5,33.3333333333333
160,128,53067,6,0,B|96:144|80:208,1,100,4|0
144,304,53416,2,0,B|208:288|224:224,1,100,2|0
352,128,53764,2,0,B|416:144|432:208,1,100,2|0
368,304,54113,2,0,B|304:288|288:224,1,100,2|0
256,112,54462,5,2
240,128,54549,1,0
224,144,54637,1,0
208,160,54724,1,0
192,176,54811,1,2
176,192,54898,1,0
160,208,54985,1,0
144,224,55073,1,0
128,240,55160,2,0,B|80:288,4,50,2|0|0|0|2
304,112,55857,6,0,B|368:80|368:80|400:80,1,100,2|0
336,176,56206,2,0,B|368:240|368:240|368:272,1,100,6|0
208,272,56555,2,0,B|144:304|144:304|112:304,1,100,2|0
176,208,56904,2,0,B|144:144|144:144|144:112,1,100,6|0
272,48,57253,5,0
280,72,57340,1,0
288,96,57427,1,0
296,120,57514,1,0
304,144,57602,1,0
312,168,57689,1,0
320,192,57776,1,0
208,288,57950,5,0
272,208,58125,1,0
208,128,58299,1,0
288,64,58474,1,0
320,160,58648,5,0
328,188,58735,1,0
328,217,58823,1,0
318,245,58910,1,0
303,271,58997,1,0
280,290,59084,1,0
251,298,59171,1,0
221,297,59259,1,0
192,288,59346,2,0,B|157:277|146:249,3,50
135,234,59695,2,0,B|116:194|122:167,3,50
121,156,60043,5,0
128,126,60131,1,0
139,98,60218,1,0
159,75,60305,1,0
184,58,60392,1,0
211,47,60480,1,0
241,43,60567,1,0
270,48,60654,1,0
296,61,60741,2,0,B|324:75|334:95,3,50
347,120,61090,2,0,B|362:152|358:177,3,50
352,192,61439,6,0,B|336:256|336:256|304:288,1,100
160,192,61788,2,0,B|176:128|176:128|208:96,1,100,4|0
352,192,62137,2,0,B|336:128|336:128|304:96,1,100
160,192,62485,2,0,B|176:256|176:256|208:288,1,100,4|0
352,288,62834,5,0
384,288,62921,1,0
416,288,63009,1,0
448,288,63096,1,0
416,288,63183,1,0
384,288,63270,1,0
352,288,63357,1,0
192,288,63532,6,0,B|144:288,4,50
80,160,64230,5,4
144,96,64404,1,0
208,160,64578,1,0
272,96,64753,1,0
272,96,64927,1,0
336,160,65102,1,0
336,160,65276,1,0
336,160,65450,1,0
304,240,65625,5,2
288,248,65712,1,0
272,256,65799,1,0
240,176,65974,5,2
224,184,66061,1,0
208,192,66148,1,0
176,112,66323,5,2
160,120,66410,1,0
144,128,66497,1,0
112,48,66671,5,2
96,56,66759,1,0
80,64,66846,1,0
48,144,67020,5,2
112,208,67195,1,0
176,144,67369,1,4
240,208,67543,1,0
400,144,67718,5,2
336,80,67892,1,0
272,144,68067,1,4
208,80,68241,1,0
144,144,68416,5,0
160,160,68503,1,0
176,176,68590,1,0
192,192,68677,1,0
208,208,68764,1,0
224,224,68852,1,0
240,240,68939,1,0
256,256,69026,1,0
272,272,69113,2,0,B|320:320,7,50
336,336,69811,5,4
400,272,69985,1,0
336,208,70160,1,0
400,144,70334,1,0
400,144,70509,1,0
336,80,70683,1,0
336,80,70857,1,0
336,80,71032,1,0
256,80,71206,5,2
224,96,71293,1,0
208,128,71381,1,0
224,160,71468,1,0
256,176,71555,1,0
336,176,71730,1,6
416,176,71904,1,2
448,192,71991,1,0
464,224,72078,1,0
448,256,72166,1,0
416,272,72253,1,0
336,272,72427,1,6
256,272,72602,6,2,B|176:352,1,100
240,240,72950,2,2,B|128:240,1,100
256,208,73299,2,2,B|176:128,1,100
288,192,73648,2,2,B|288:80,1,100
400,128,73997,5,2
384,120,74084,1,0
368,112,74171,1,0
336,192,74346,5,2
320,184,74433,1,0
304,176,74520,1,0
272,256,74695,5,2
256,248,74782,1,0
240,240,74869,1,0
208,320,75044,5,2
192,312,75131,1,0
176,304,75218,1,0
128,80,79230,6,0,B|96:48,3,33.3333333333333
384,80,79578,2,0,B|416:48,3,33.3333333333333
256,288,79927,2,0,B|256:320,18,33.3333333333333,0|0|0|0|0|0|0|0|0|0|0|0|0|0|0|0|0|0|4
224,272,81061,5,0
208,240,81148,1,0
224,208,81235,1,0
256,192,81323,1,2
352,304,81671,6,0,B|352:256,3,50
350,223,82020,2,0,B|348:191|327:162,3,50
317,151,82369,1,0
294,131,82456,1,0
268,114,82544,1,0
239,102,82631,1,0
208,97,82718,1,4
416,304,83067,6,0,B|416:256,3,50
414,223,83416,2,0,B|412:191|391:162,3,50
381,151,83764,1,0
358,131,83852,1,0
332,114,83939,1,0
303,102,84026,1,0
272,97,84113,1,4
480,304,84462,6,0,B|480:256,3,50
478,223,84811,2,0,B|476:191|455:162,3,50
445,151,85160,1,0
422,131,85247,1,0
396,114,85334,1,0
367,102,85421,1,0
336,96,85509,1,0
306,94,85596,1,0
276,96,85683,1,0
246,100,85770,1,0
217,109,85857,2,0,B|181:126|169:139,7,50
160,160,86555,6,2,B|112:256,1,100
208,216,86904,2,2,B|208:328,1,100
276,240,87253,2,2,B|324:336,1,100
348,232,87602,2,2,B|428:312,1,100
352,224,87950,6,2,B|400:128,1,100
304,168,88299,2,2,B|304:56,1,100
236,144,88648,2,2,B|188:48,1,100
164,152,88997,2,2,B|84:72,1,100
96,192,89346,6,2,B|112:256|176:272,1,100
288,208,89695,2,2,B|272:144|208:128,1,100
144,256,90044,2,2,B|160:320|224:336,1,100
336,288,90392,2,2,B|320:224|256:208,1,100
128,304,90741,6,0,B|96:336,3,33.3333333333333
384,304,91090,2,0,B|416:336,3,33.3333333333333
256,96,91439,2,0,B|256:64,11,33.3333333333333
256,96,92137,5,12
272,208,92311,1,8
320,112,92485,1,8
336,224,92660,1,8
384,128,92834,1,8
400,240,93009,1,8
448,144,93183,1,8
464,256,93357,1,8
448,144,93532,1,8
400,240,93706,1,8
384,128,93881,1,8
336,224,94055,1,8
320,112,94230,1,8
272,208,94404,1,8
256,96,94578,1,8
256,96,94753,1,8
144,112,94927,6,8,B|112:112|112:112|48:144,1,100,12|8
208,144,95276,2,8,B|176:144|176:144|112:176,1,100
272,176,95625,2,8,B|240:176|240:176|176:208,1,100
336,208,95974,2,8,B|304:208|304:208|240:240,1,100
112,304,96323,2,8,B|208:256,1,100
336,192,96671,2,8,B|240:144,1,100
112,80,97020,2,8,B|208:128,1,100
336,192,97369,2,8,B|240:240,1,100
112,304,97718,5,12
104,280,97805,1,8
96,256,97892,1,8
192,256,98067,5,8
184,232,98154,1,8
176,208,98241,1,8
272,208,98416,5,8
264,184,98503,1,8
256,160,98590,1,8
352,160,98764,5,8
344,136,98852,1,8
336,112,98939,1,8
240,112,99113,6,8,B|192:80|192:80|128:80,1,100
176,208,99462,2,8,B|144:256|144:256|144:320,1,100
272,272,99811,2,8,B|320:304|320:304|384:304,1,100
336,176,100160,2,8,B|368:128|368:128|368:64,1,100
112,80,100509,5,12
104,104,100596,1,8
96,128,100683,1,8
192,128,100857,5,8
184,152,100945,1,8
176,176,101032,1,8
272,176,101206,5,8
264,200,101294,1,8
256,224,101381,1,8
352,224,101555,5,8
344,248,101642,1,8
336,272,101730,1,8
256,320,101904,6,8,B|208:320|208:320|176:272,1,100
288,224,102253,2,8,B|288:176|288:176|336:144,1,100
432,80,102602,5,8
344,160,102776,1,8
256,80,102950,1,8
168,160,103125,1,8
80,80,103299,1,12
80,304,108881,5,8
99,298,108968,1,8
118,292,109055,1,8
136,285,109142,1,8
154,276,109230,1,8
171,266,109317,1,8
187,254,109404,1,8
201,239,109491,1,8
212,222,109578,1,8
217,202,109666,1,8
220,182,109753,1,8
217,162,109840,1,8
209,143,109927,1,8
195,127,110014,1,8
177,116,110102,1,8
157,110,110189,1,8
137,111,110276,5,8
117,116,110363,1,8
100,127,110450,1,8
89,144,110538,1,8
84,163,110625,1,8
83,182,110712,1,8
87,201,110799,1,8
96,218,110887,1,8
109,232,110974,1,8
126,241,111061,1,8
145,246,111148,1,8
164,248,111235,1,8
183,244,111323,1,8
201,236,111410,1,8
216,223,111497,1,8
229,208,111584,1,8
241,192,111671,5,8
255,178,111759,1,8
273,170,111846,1,8
292,167,111933,1,8
311,169,112020,1,8
329,175,112107,1,8
345,186,112195,1,8
358,200,112282,1,8
365,218,112369,1,8
366,237,112456,1,8
363,256,112544,1,8
353,273,112631,1,8
338,286,112718,1,8
320,295,112805,1,8
301,302,112892,1,8
281,304,112980,1,8
256,304,113067,2,8,B|233:306|212:295,32,25,8|8|8|8|8|8|8|8|8|8|8|8|8|8|8|8|8|8|8|8|8|8|8|8|8|8|8|8|8|8|8|8|12
144,256,114637,5,2
144,128,114811,1,2
256,80,114985,1,0
256,80,115160,1,0
256,80,115334,1,0
256,80,115509,2,2,B|256:208,1,100
256,304,115857,5,2
368,256,116032,1,2
368,128,116206,1,2
256,80,116381,1,0
256,80,116555,1,0
256,80,116730,1,0
256,80,116904,2,2,B|256:192,1,100
256,304,117253,5,2
144,256,117427,1,2
144,128,117602,1,2
256,80,117776,1,0
368,128,117950,1,0
368,256,118125,1,0
256,304,118299,2,2,B|256:192,1,100
256,80,118648,5,2
368,128,118823,1,2
368,256,118997,1,2
256,304,119171,1,2
256,192,119346,1,0
224,176,119433,1,0
192,160,119520,1,0
160,144,119607,1,0
128,128,119695,2,0,B|64:96,3,50
64,80,120044,5,6
144,32,120218,1,2
224,112,120392,1,2
336,48,120567,1,2
384,144,120741,5,0
383,168,120828,1,0
372,190,120916,1,0
356,210,121003,1,0
333,220,121090,1,0
309,228,121177,1,0
284,226,121264,1,0
128,208,121439,5,6
208,256,121613,1,2
288,176,121788,1,2
400,240,121962,1,2
320,320,122137,5,0
295,313,122224,1,0
274,298,122311,1,0
259,277,122398,1,0
248,254,122485,1,0
241,230,122573,1,0
244,205,122660,1,0
464,112,122834,5,8
368,48,123009,1,8
272,112,123183,1,8
368,176,123357,1,8
272,240,123532,1,8
176,176,123706,1,8
80,240,123881,1,8
176,304,124055,1,8
272,240,124230,5,8
288,232,124317,1,8
304,224,124404,1,8
320,216,124491,1,8
336,208,124578,1,8
352,200,124666,1,8
368,192,124753,1,8
384,184,124840,1,8
400,176,124927,2,8,B|432:160,16,25
