osu file format v5

[General]
AudioFilename: Votum stellarum -forest #25 RMX- (DDR RMX).mp3
AudioLeadIn: 3000
PreviewTime: -1
Countdown: 1
SampleSet: Normal
StackLeniency: 0.7
Mode: 0
LetterboxInBreaks: 1

[Metadata]
Title:Votum stellarum -forest 25 DDR RMX-
Artist:iconoclasm
Creator:silasw
Version:Normal
Source:
Tags:dj taka

[Difficulty]
HPDrainRate:5
CircleSize:4
OverallDifficulty:5
SliderMultiplier:1.5
SliderTickRate:2

[Events]
//Background and Video events
0,0,"horsehead_nebula_1024x768.jpg"
//Break Periods
2,37892,40777
2,68749,81920
//Storyboard Layer 0 (Background)
//Storyboard Layer 1 (Failing)
//Storyboard Layer 2 (Passing)
//Storyboard Layer 3 (Foreground)
//Storyboard Sound Samples
//Background Colour Transformations
3,100,163,162,255

[TimingPoints]
835,428.571428571429,4,1,0,100

[Colours]
Combo1 : 100,100,100
Combo2 : 11,0,138
Combo3 : 107,52,52

[HitObjects]
80,192,834,1,0
168,112,1263,1,0
264,40,1692,1,0
360,112,2120,1,0
448,192,2549,1,0
368,272,2977,1,0
272,344,3406,1,0
176,272,3835,1,0
88,192,4263,1,0
208,192,4692,1,0
328,192,5120,1,0
448,192,5549,1,0
320,192,7263,5,0
200,192,7692,1,0
256,48,9406,1,0
256,344,11120,1,0
432,72,12835,6,0,C|432:152,1,75
432,208,13263,2,0,C|336:208,1,75
296,208,13692,2,0,C|296:288,1,75
296,344,14120,1,0
176,344,14549,6,0,C|48:256|129:208|136:88|231:149|392:96,2,600
312,312,18406,1,0
432,312,18834,1,0
432,192,19263,1,0
432,72,19692,6,0,C|335:112|248:40|248:120,2,300
432,128,21620,2,2,C|432:208,1,75
368,200,22049,2,2,C|288:200,1,75
232,200,22477,2,2,C|144:200,1,75
96,200,22906,2,2,C|96:120,1,75
96,64,23334,2,2,C|184:64,1,75
288,72,23977,6,0,C|197:134|249:219|168:264,1,300
296,240,25263,1,0
376,328,25692,1,0
456,240,26120,1,0
456,120,26549,5,0
336,120,26977,1,0
216,120,27406,2,0,C|148:202|148:308|56:256,1,300
104,152,28692,1,0
152,48,29120,6,0,C|304:48|352:200,1,300
168,336,30834,6,0,C|176:184|24:224,1,300
200,40,32549,6,2,C|384:56|280:144,1,300
280,248,33835,1,2
400,248,34263,1,2
400,128,34692,1,2
280,128,35120,6,0,C|64:128|72:224,1,300
168,264,36406,1,0
264,336,36835,2,0,C|456:336|472:232,1,300
416,64,41977,5,0
240,64,42620,1,0
184,64,42835,2,0,C|184:208,1,112.5
272,176,43477,1,0
328,176,43692,2,0,C|328:304,1,112.5
240,288,44335,2,0,C|152:288,3,75
40,288,45406,6,0,C|40:160,1,112.5
128,176,46049,1,0
192,176,46263,2,0,C|192:320,1,112.5
280,288,46906,1,0
336,288,47120,6,0,C|336:152,1,112.5
336,88,47763,2,0,C|240:88,3,75
136,88,48835,6,2,C|136:224,1,112.5
224,200,49477,1,0
280,200,49692,2,2,C|280:336,1,112.5
192,312,50335,1,0
128,312,50549,6,2,C|128:176,1,112.5
128,112,51192,2,2,C|32:112,3,75
112,216,52263,5,0
200,216,52585,1,0
288,216,52906,1,0
352,216,53120,1,0
440,216,53442,1,0
440,64,53977,5,2
320,64,54406,1,2
200,64,54835,2,2,C|88:64|96:152,1,150
200,320,55692,6,0,C|72:232|152:56|384:112,1,600
376,200,57727,1,0
376,288,58049,1,2
376,288,58263,1,2
376,288,58477,1,2
376,288,58692,1,2
184,288,59120,6,0,C|448:160|320:40|216:88,1,600
144,144,61156,1,0
144,232,61477,1,2
144,232,61692,1,2
144,232,61906,1,2
144,232,62120,1,2
256,192,62549,12,0,64263
344,192,64906,1,0
288,192,65120,1,0
232,192,65335,1,0
176,192,65549,1,0
176,72,65977,6,2,C|296:72,1,112.5
376,72,66620,1,0
440,72,66835,2,2,C|440:200,1,112.5
368,240,67477,5,0
312,240,67692,1,0
312,120,68120,1,0
192,120,68549,1,4
240,64,83120,6,0,C|400:56|480:176,1,300
376,240,84406,1,0
280,304,84835,2,0,C|120:312|40:192,1,300
152,144,86120,1,0
256,88,86549,6,0,C|178:218|96:88,1,300
168,200,87835,1,0
248,288,88263,6,0,C|326:158|408:288,1,300
328,184,89549,1,0
256,88,89977,6,0,C|384:208|272:296,1,300
56,296,91692,5,2
160,240,92120,1,2
56,176,92549,1,2
160,120,92977,1,2
56,56,93406,1,2
256,192,93835,12,4,96835
