osu file format v10

[General]
AudioFilename: YU-MU.mp3
AudioLeadIn: 0
PreviewTime: 67330
Countdown: 0
SampleSet: Normal
StackLeniency: 0.7
Mode: 0
LetterboxInBreaks: 1

[Editor]
Bookmarks: 16171,21796,133171,147983
DistanceSpacing: 1
BeatDivisor: 12
GridSize: 4

[Metadata]
Title:YU-MU
TitleUnicode:
Artist:ichigo
ArtistUnicode:
Creator:Louis Cyphre
Version:Normal
Source:Touhou
Tags:Reiji-RJ IceBeam Collab Collaboration Yuuka Kazami OnosakiHito [Ryuu] Vass_Bass
BeatmapID:132798
BeatmapSetID:40348

[Difficulty]
HPDrainRate:2
CircleSize:3
OverallDifficulty:2
ApproachRate:4
SliderMultiplier:1
SliderTickRate:1

[Events]
//Background and Video events
0,0,"bg.jpg"
//Break Periods
2,16370,20850
2,133371,146850
2,232371,236100
//Storyboard Layer 0 (Background)
//Storyboard Layer 1 (Fail)
//Storyboard Layer 2 (Pass)
//Storyboard Layer 3 (Foreground)
//Storyboard Sound Samples
//Background Colour Transformations
3,100,163,162,255

[TimingPoints]
7170,375,4,2,1,45,1,0
22170,-100,4,1,1,45,0,0
22357,-100,4,1,2,45,0,0
22732,-100,4,1,1,45,0,0
41857,-100,4,1,2,45,0,0
42232,-100,4,1,1,45,0,0
43357,-100,4,1,2,45,0,0
43732,-100,4,1,1,45,0,0
46357,-100,4,1,2,45,0,0
46732,-100,4,1,1,45,0,0
52357,-100,4,1,2,45,0,0
52732,-100,4,1,1,45,0,0
62857,-100,4,1,2,45,0,0
63232,-100,4,1,1,45,0,0
65857,-100,4,1,2,45,0,0
66232,-100,4,1,1,45,0,0
70170,-100,4,1,1,45,0,1
70357,-100,4,1,2,45,0,1
70732,-100,4,1,1,45,0,1
71857,-100,4,1,2,45,0,1
72232,-100,4,1,1,45,0,1
76357,-100,4,1,2,45,0,1
76732,-100,4,1,1,45,0,1
83107,-100,4,1,2,45,0,1
83482,-100,4,1,1,45,0,1
83857,-100,4,1,2,45,0,1
84232,-100,4,1,1,45,0,1
88357,-100,4,1,2,45,0,1
88732,-100,4,1,1,45,0,1
91357,-100,4,1,2,45,0,1
91732,-100,4,1,1,45,0,1
92107,-100,4,1,2,45,0,1
92482,-100,4,1,1,45,0,1
94170,-100,4,1,1,45,0,0
94357,-100,4,1,2,45,0,0
94732,-100,4,1,1,45,0,0
104857,-100,4,1,2,45,0,0
105232,-100,4,1,1,45,0,0
106357,-100,4,1,2,45,0,0
106732,-100,4,1,1,45,0,0
113295,-100,4,2,1,45,0,0
113482,-100,4,1,1,45,0,0
115732,-100,4,1,2,45,0,0
116107,-100,4,1,1,45,0,0
116482,-100,4,1,2,45,0,0
116857,-100,4,1,1,45,0,0
132420,-100,4,1,2,45,0,0
132451,-100,4,1,1,45,0,0
133170,375,5,1,1,45,1,0
148170,375,4,1,1,45,1,0
148357,-100,4,1,2,45,0,0
148732,-100,4,1,1,45,0,0
154357,-100,4,1,2,45,0,0
154732,-100,4,1,1,45,0,0
155857,-100,4,1,2,45,0,0
156232,-100,4,1,1,45,0,0
158857,-100,4,1,2,45,0,0
159232,-100,4,1,1,45,0,0
161857,-100,4,1,2,45,0,0
162232,-100,4,1,1,45,0,0
169357,-100,4,1,2,45,0,0
169732,-100,4,1,1,45,0,0
170107,-100,4,1,2,45,0,0
170482,-100,4,1,1,45,0,0
193357,-100,4,1,2,45,0,0
193732,-100,4,1,1,45,0,0
201232,-100,4,1,2,45,0,0
201607,-100,4,1,1,45,0,0
203482,-100,4,1,2,45,0,0
203857,-100,4,1,1,45,0,0
205732,-100,4,1,2,45,0,0
206107,-100,4,1,1,45,0,0
212670,-100,4,1,1,45,0,1
221107,-100,4,1,2,45,0,1
221482,-100,4,1,1,45,0,1
221857,-100,4,1,2,45,0,1
222232,-100,4,1,1,45,0,1
223357,-100,4,1,2,45,0,1
223732,-100,4,1,1,45,0,1
226357,-100,4,1,2,45,0,1
226732,-100,4,1,1,45,0,1
232170,-100,4,2,1,45,0,0
237607,-100,4,2,2,45,0,0
237982,-100,4,2,1,45,0,0
238545,-100,4,1,1,45,0,0
248670,-100,4,2,1,5,0,0

[Colours]
Combo1 : 122,74,16
Combo2 : 221,43,123
Combo3 : 235,220,37
Combo4 : 205,163,18

[HitObjects]
256,104,7170,1,0,0:0:0
152,272,7920,1,0,0:0:0
352,272,8670,1,0,0:0:0
256,232,9045,1,0,0:0:0
336,168,9420,1,0,0:0:0
200,312,10170,6,0,B|72:300,1,100,2|0,0:0|0:0,0:0:0
64,208,10920,2,0,B|168:216,1,100
224,136,11670,1,2,0:0:0
312,80,12045,2,0,B|280:36|228:16|168:36|136:80,1,200,0|0,0:0|0:0,0:0:0
40,92,13170,6,0,B|64:132|72:188,1,100,2|0,0:0|0:0,0:0:0
44,284,13920,1,0,0:0:0
136,264,14295,2,0,B|172:304|224:312,2,100,0|2|0,0:0|0:0|0:0,0:0:0
220,212,15420,2,8,P|308:160|404:164,1,200,8|12,0:0|0:0,0:0:0
200,208,22170,6,0,B|224:248|288:272|352:256|396:208,1,200,4|0,0:0|0:0,0:0:0
296,168,23295,2,0,B|360:160|384:88,1,100,8|0,0:0|0:0,0:0:0
440,40,24045,2,0,B|480:72|472:136,2,100,8|0|8,0:0|0:0|0:0,0:0:0
376,112,25170,5,2,0:0:0
304,40,25545,2,0,B|192:40|192:40,1,100,8|0,0:0|0:0,0:0:0
104,40,26295,2,0,B|56:72|36:128|56:184|96:212,2,200,8|8|8,0:0|0:0|0:0,0:0:0
148,128,28170,5,2,0:0:0
232,64,28545,2,0,B|344:88,1,100,8|0,0:0|0:0,0:0:0
352,184,29295,2,0,B|248:160,1,100,8|0,0:0|0:0,0:0:0
152,152,30045,6,8,B|112:192|104:256|132:304|188:332,2,200
216,232,31920,1,8,0:0:0
256,140,32295,2,8,B|297:159|325:207|317:271|277:311,1,200
216,232,33420,5,0,0:0:0
256,140,33795,2,0,B|256:80|312:56,1,100,8|4,0:0|0:0,0:0:0
368,136,34545,2,8,B|408:208|408:256|368:336,2,200
272,168,36420,1,0,0:0:0
224,80,36795,6,8,B|192:36|136:64|136:88|80:112|44:68,1,200
40,168,37920,1,0,0:0:0
120,232,38295,2,8,B|208:296|336:280,2,200,8|8|4,0:0|0:0|0:0,0:0:0
200,176,40170,6,0,B|200:120|248:80,1,100,4|8,0:0|0:0,0:0:0
336,112,40920,2,0,B|328:168|294:202,1,100,0|8,0:0|0:0,0:0:0
368,256,41670,2,0,B|400:224|418:192|429:142|426:100,2,150,0|0|8,0:0|0:0|0:0,0:0:0
328,168,43170,6,0,B|280:200|256:256|272:312|328:352,1,200,0|0,0:0|0:0,0:0:0
368,256,44295,1,0,0:0:0
420,172,44670,2,0,B|424:108|364:84,1,100,0|4,0:0|0:0,0:0:0
288,44,45420,2,0,B|192:100,1,100,0|12,0:0|0:0,0:0:0
88,88,46170,6,0,B|312:100,1,200,4|0,0:0|0:0,0:0:0
364,163,47295,2,0,B|324:211|260:195,1,100,8|0,0:0|0:0,0:0:0
285,98,48045,1,8,0:0:0
88,88,48795,6,8,B|56:112|24:160|16:216|48:280,2,200
168,24,50670,2,0,B|208:64|184:136,1,100,0|8,0:0|0:0,0:0:0
272,176,51420,2,0,B|240:224|160:224,1,100,0|8,0:0|0:0,0:0:0
128,304,52170,6,0,B|56:248|112:144,2,150,4|0|12,0:0|0:0|0:0,0:0:0
224,320,53670,2,0,B|272:272|264:216,1,100,0|8,0:0|0:0,0:0:0
200,160,54420,2,0,B|256:112|328:160,1,100,0|8,0:0|0:0,0:0:0
352,224,55170,5,0,0:0:0
416,144,55545,2,8,B|380:50,2,100,8|0|8,0:0|0:0|0:0,0:0:0
352,224,56670,1,4,0:0:0
256,232,57045,2,0,B|220:332,1,100,4|0,0:0|0:0,0:0:0
320,328,57795,1,8,0:0:0
416,328,58170,6,0,B|472:120|472:120,2,200,4|0|0,0:0|0:0|0:0,0:0:0
320,328,60045,2,0,B|280:336|240:304|240:256,1,100,8|0,0:0|0:0,0:0:0
328,224,60795,1,0,0:0:0
360,128,61170,1,4,0:0:0
360,32,61545,6,0,B|312:20|272:60|276:96,1,100,8|0,0:0|0:0,0:0:0
360,128,62295,2,0,B|302:193|224:152,2,150,2|0|2,0:0|0:0|0:0,0:0:0
432,200,63795,2,0,B|456:152|480:104,1,100,4|12,0:0|0:0,0:0:0
384,64,64545,6,0,B|168:64|168:64,1,200,8|0,0:0|0:0,0:0:0
88,64,65670,2,0,B|48:136|104:208,2,150,8|0|8,0:0|0:0|0:0,0:0:0
168,128,67170,1,4,0:0:0
264,160,67545,6,0,B|311:173|359:189,1,100,8|0,0:0|0:0,0:0:0
408,104,68295,1,8,0:0:0
464,184,68670,1,0,0:0:0
432,280,69045,1,8,0:0:0
336,296,69420,1,4,0:0:0
256,232,69795,1,8,0:0:0
248,136,70170,6,0,B|240:96|216:56|152:40|120:56,2,150,4|0|8,0:0|0:0|0:0,0:0:0
344,168,71670,2,8,B|312:224|232:248|160:192,1,200,0|0,0:0|0:0,0:0:0
88,136,72795,1,8,0:0:0
184,96,73170,6,0,B|164:36|96:32,2,100,0|8|0,0:0|0:0|0:0,0:0:0
288,88,74295,1,8,0:0:0
352,168,74670,2,0,B|416:144|476:120,1,100,0|8,0:0|0:0,0:0:0
448,232,75420,2,0,B|392:248|343:266,1,100,0|8,0:0|0:0,0:0:0
264,216,76170,6,0,B|232:256|168:280|120:264|72:224,1,200
168,168,77295,1,8,0:0:0
104,88,77670,2,0,B|144:56|200:72,1,100,0|8,0:0|0:0,0:0:0
168,168,78420,1,0,0:0:0
256,216,78795,1,8,0:0:0
328,288,79170,6,0,B|368:248|352:192,1,100,0|8,0:0|0:0,0:0:0
344,96,79920,2,0,B|400:88|432:136,1,100,0|8,0:0|0:0,0:0:0
352,196,80670,1,0,0:0:0
436,252,81045,1,8,0:0:0
344,292,81420,2,0,B|288:284|248:244|240:196|264:132,1,200,0|4,0:0|0:0,0:0:0
160,144,82545,1,4,0:0:0
187,47,82920,6,0,B|96:32|44:108|68:176,2,200
160,144,84795,1,8,0:0:0
128,240,85170,2,0,B|88:276|36:264,2,100
136,340,86295,2,8,B|192:324|224:284|232:228|212:180,2,200
124,240,88170,6,0,B|84:192|92:128|132:88|176:80,1,200,4|0,0:0|0:0,0:0:0
196,176,89295,1,8,0:0:0
288,220,89670,2,0,B|264:276|204:280,1,100,0|8,0:0|0:0,0:0:0
124,236,90420,1,0,0:0:0
96,140,90795,1,8,0:0:0
52,52,91170,6,0,B|104:32|156:48|188:92|188:152,2,200
92,144,93045,2,0,B|92:192|92:256,2,100,8|0|8,0:0|0:0|0:0,0:0:0
192,128,94170,6,0,B|224:84|276:64|332:80|368:112,1,200,4|0,0:0|0:0,0:0:0
464,136,95295,1,8,0:0:0
392,208,95670,2,8,B|392:264|337:288,1,100,0|8,0:0|0:0,0:0:0
296,200,96420,1,12,0:0:0
104,136,97170,5,4,0:0:0
192,80,97545,2,8,B|200:56|232:32|264:24|296:40,1,100,8|0,0:0|0:0,0:0:0
280,136,98295,2,8,B|312:168|336:224|320:280|272:320,1,200
216,232,99420,1,0,0:0:0
136,288,99795,2,0,B|112:264|104:216|128:176|168:152|168:152|168:88,1,200,8|8,0:0|0:0,0:0:0
144,16,100920,2,0,B|176:8|208:16|236:41,1,100,0|8,0:0|0:0,0:0:0
168,112,101670,5,0,0:0:0
232,184,102045,2,0,B|264:216|264:216|264:216|304:256,1,100,8|0,0:0|0:0,0:0:0
376,324,102795,1,8,0:0:0
476,340,103170,2,0,B|480:320|480:288|464:260|440:248,1,100,0|8,0:0|0:0,0:0:0
348,224,103920,1,0,0:0:0
412,148,104295,1,8,0:0:0
488,84,104670,6,0,B|463:44|408:36|368:52|326:80,2,150,0|0|8,0:0|0:0|0:0,0:0:0
412,148,106170,2,0,B|396:204|356:244|292:252|228:220,1,200
308,144,107295,1,8,0:0:0
244,68,107670,5,0,0:0:0
144,64,108045,2,0,B|120:68|92:80|80:120|80:148,1,100,4|0,0:0|0:0,0:0:0
84,232,108795,1,0,0:0:0
16,304,109170,6,8,B|46:327|78:343|123:332|156:300|156:300|204:300,2,200,4|8|8,0:0|0:0|0:0,0:0:0
84,232,111045,1,0,0:0:0
172,184,111420,2,0,B|284:184,1,100,8|0,0:0|0:0,0:0:0
360,232,112170,1,4,0:0:0
448,280,112545,6,0,B|472:248|471:216|463:192|440:160,1,100,0|8,0:0|0:0,0:0:0
428,88,113295,1,4,0:0:0
340,40,113670,2,0,B|284:52|264:104,1,100,8|0,0:0|0:0,0:0:0
356,144,114420,2,0,B|391:172|383:236,1,100,8|0,0:0|0:0,0:0:0
288,212,115170,1,4,0:0:0
220,280,115545,6,0,B|164:328|100:320|52:296|28:232,2,200
144,212,117420,2,0,B|128:164|144:140|160:124|192:100,1,100,8|0,0:0|0:0,0:0:0
268,120,118170,1,4,0:0:0
352,176,118545,6,0,B|296:288,2,100,0|8|0,0:0|0:0|0:0,0:0:0
396,84,119670,1,8,0:0:0
256,192,120420,12,8,121920,0:0:0
312,120,122670,38,0,B|336:96|368:88|408:96,1,100,2|0,0:0|0:0,0:0:0
372,188,123420,2,0,B|340:220|292:220|276:204,1,100,2|0,0:0|0:0,0:0:0
212,280,124170,6,0,B|180:248|172:208|180:172|204:144,2,150,2|8|0,0:0|0:0|0:0,0:0:0
296,332,125670,2,0,B|416:316,1,100,2|0,0:0|0:0,0:0:0
428,224,126420,2,0,B|316:240,1,100,2|0,0:0|0:0,0:0:0
276,152,127170,5,6,0:0:0
176,132,127545,1,0,0:0:0
84,87,127920,2,0,B|92:68|104:40|144:28|158:31,2,100,0|0|2,0:0|0:0|0:0,0:0:0
56,184,129045,2,0,B|44:240|76:308|128:320|176:320,1,200,0|0,0:0|0:0,0:0:0
156,220,130170,6,0,B|248:258,1,100,4|0,0:0|0:0,0:0:0
264,160,130920,2,0,B|355:199,1,100,8|0,0:0|0:0,0:0:0
364,100,131670,2,0,B|196:28,2,150,2|2|2,0:0|0:0|0:0,0:0:0
456,144,133170,5,4,0:0:0
80,56,148170,6,0,B|128:32|192:40|224:64|256:128,1,200,4|0,0:0|0:0,0:0:0
296,208,149295,2,8,B|224:240|168:216|144:176|120:128,1,200
48,208,150420,1,12,0:0:0
112,280,150795,1,8,0:0:0
200,320,151170,6,0,B|224:328|256:336|288:320|312:304,1,100,0|8,0:0|0:0,0:0:0
396,328,151920,2,0,B|404:300|388:256|360:240,1,100,0|8,0:0|0:0,0:0:0
420,160,152670,1,0,0:0:0
400,64,153045,2,0,B|376:64|344:80|328:104|328:144,1,100,8|0,0:0|0:0,0:0:0
336,224,153795,1,8,0:0:0
356,320,154170,6,0,B|308:328|260:312|236:264|228:216|260:168|260:168|212:96,1,300,0|8,0:0|0:0,0:0:0
176,20,155670,2,0,B|141:40|120:68|120:116|136:156,2,150,0|0|8,0:0|0:0|0:0,0:0:0
224,108,157170,5,0,0:0:0
228,208,157545,2,0,B|268:216|292:200|324:168|308:128,1,100,8|0,0:0|0:0,0:0:0
404,200,158295,1,8,0:0:0
436,296,158670,2,0,B|220:296|220:296,1,200
144,332,159795,1,8,0:0:0
148,232,160170,6,0,B|268:168,1,100,4|8,0:0|0:0,0:0:0
156,124,160920,2,0,B|268:68,1,100,0|8,0:0|0:0,0:0:0
320,144,161670,2,0,B|320:304,2,150,0|0|8,0:0|0:0|0:0,0:0:0
320,48,163170,5,0,0:0:0
416,80,163545,1,8,0:0:0
432,176,163920,1,0,0:0:0
456,272,164295,6,8,B|384:288|328:224|328:184|336:136,1,200,0|0,0:0|0:0,0:0:0
432,176,165420,2,0,B|496:96|496:96,2,100,0|8|0,0:0|0:0|0:0,0:0:0
432,272,166545,2,0,B|432:320|400:344|360:344,1,100,8|0,0:0|0:0,0:0:0
336,248,167295,1,8,0:0:0
400,168,167670,2,0,B|368:136|320:136|280:160,1,100,0|8,0:0|0:0,0:0:0
256,64,168420,2,0,B|216:104|216:152,1,100,0|8,0:0|0:0,0:0:0
136,216,169170,6,0,B|152:248|224:272|272:256|312:184,2,200
216,160,171045,1,8,0:0:0
204,60,171420,1,0,0:0:0
404,56,172170,5,4,0:0:0
460,140,172545,1,0,0:0:0
448,240,172920,2,0,B|440:256|416:280|384:288|360:288,1,100
264,288,173670,2,0,B|232:288|200:280|176:256|160:224,1,100
72,248,174420,1,0,0:0:0
40,152,174795,6,0,B|84:112|144:152|184:192|228:148,2,200
44,252,176670,1,0,0:0:0
100,336,177045,1,0,0:0:0
200,340,177420,1,4,0:0:0
292,304,177795,1,4,0:0:0
228,228,178170,6,0,B|252:204|292:196|332:204|348:236,1,100
420,212,178920,2,0,B|420:172|404:148|380:124|340:116,1,100
280,92,179670,2,0,B|296:52|328:20|396:20|424:60,2,150
184,116,181170,5,0,0:0:0
164,216,181545,2,0,B|188:232|220:224|252:208|260:184,1,100
352,220,182295,1,0,0:0:0
320,124,182670,2,0,B|364:104|404:116|444:152|448:184,2,150
256,48,184170,5,4,0:0:0
156,56,184545,1,8,0:0:0
76,116,184920,1,0,0:0:0
168,152,185295,2,8,B|112:176|84:232|104:300|144:328,1,200
204,248,186420,1,0,0:0:0
236,344,186795,2,8,B|300:320|316:260|312:192|260:168,1,200,8|4,0:0|0:0,0:0:0
228,92,187920,6,0,B|260:68|292:68|332:92|348:124,1,100,0|8,0:0|0:0,0:0:0
380,172,188670,1,0,0:0:0
328,256,189045,2,0,B|340:272|368:284|404:280|440:244,2,100,8|0|8,0:0|0:0|0:0,0:0:0
380,172,190170,6,0,B|356:156|324:148|300:156|268:188,1,100,4|8,0:0|0:0,0:0:0
200,132,190920,1,0,0:0:0
112,172,191295,1,8,0:0:0
32,108,191670,2,0,B|48:76|72:60|104:60|136:76,1,100,0|8,0:0|0:0,0:0:0
112,172,192420,1,0,0:0:0
200,132,192795,1,8,0:0:0
200,228,193170,6,0,B|248:224|288:196|296:148|288:108,2,150,0|0|8,0:0|0:0|0:0,0:0:0
152,140,194670,2,0,B|112:156|96:196|96:220|112:252,2,100,0|4|0,0:0|0:0|0:0,0:0:0
216,60,195795,1,0,0:0:0
300,112,196170,6,0,B|460:256,2,200,4|8|8,0:0|0:0|0:0,0:0:0
216,60,198045,1,0,0:0:0
200,160,198420,1,8,0:0:0
272,228,198795,1,8,0:0:0
208,304,199170,6,0,B|168:352|88:352|40:304|24:264,2,200,4|4|8,0:0|0:0|0:0,0:0:0
224,204,201045,2,0,B|280:220|312:252|320:316|288:372,1,200
208,308,202170,1,4,0:0:0
120,260,202545,6,0,B|42:323,1,100,0|8,0:0|0:0,0:0:0
28,224,203295,2,0,B|188:96,1,200
196,200,204420,2,0,B|292:112,1,100,8|0,0:0|0:0,0:0:0
348,68,205170,1,4,0:0:0
436,120,205545,6,0,B|380:184|420:216|492:240|420:328,1,200
336,300,206670,1,8,0:0:0
248,348,207045,1,0,0:0:0
248,244,207420,1,8,0:0:0
164,296,207795,1,0,0:0:0
64,300,208170,6,0,B|64:236|88:188|136:172|224:188,2,200,4|0|0,0:0|0:0|0:0,0:0:0
164,284,210045,2,0,B|212:292|268:284|300:236|308:164,1,200
380,112,211170,6,0,B|340:72|284:72|260:88|236:112,2,150
304,176,212670,2,0,B|336:192|360:224|360:264|344:288,1,100,4|0,0:0|0:0,0:0:0
256,248,213420,2,0,B|224:272|216:304|232:336|248:352,1,100,4|8,0:0|0:0,0:0:0
144,296,214170,5,0,0:0:0
48,304,214545,2,8,B|-8:240|40:200|88:160|48:104,1,200
88,24,215670,2,0,B|120:32|144:56|152:88|152:120,1,100,0|8,0:0|0:0,0:0:0
140,196,216420,1,0,0:0:0
228,152,216795,1,8,0:0:0
256,56,217170,6,0,B|280:56|316:76|328:108|324:144,1,100,0|8,0:0|0:0,0:0:0
408,68,217920,2,0,B|432:92|432:156|400:176|400:176,1,100,0|8,0:0|0:0,0:0:0
328,220,218670,2,0,B|320:252|308:272|280:288|244:284|244:284,1,100,0|8,0:0|0:0,0:0:0
168,240,219420,2,0,B|137:277|148:327|191:351,2,100,0|8|0,0:0|0:0|0:0,0:0:0
240,168,220545,1,4,0:0:0
332,212,220920,6,0,B|348:140|324:84|276:68|212:68,2,200
284,300,222795,1,8,0:0:0
192,256,223170,2,0,B|8:304,2,150,0|0|8,0:0|0:0|0:0,0:0:0
288,228,224670,2,0,B|388:204,1,100,0|8,0:0|0:0,0:0:0
324,124,225420,2,0,B|196:156,1,100,0|8,0:0|0:0,0:0:0
164,72,226170,6,0,B|108:112|108:168|124:216|180:240,1,200
224,152,227295,1,8,0:0:0
324,148,227670,2,0,B|332:180|316:220|292:236|260:244,1,100,0|8,0:0|0:0,0:0:0
216,304,228420,1,0,0:0:0
120,272,228795,1,8,0:0:0
32,228,229170,6,0,B|40:204|64:180|88:172|128:172,1,100,0|8,0:0|0:0,0:0:0
108,72,229920,2,0,B|148:64|192:96|204:136,1,100,0|8,0:0|0:0,0:0:0
204,212,230670,1,0,0:0:0
284,268,231045,2,0,B|268:287|252:307|210:315|188:311,2,100,8|0|8,0:0|0:0|0:0,0:0:0
204,212,232170,5,4,0:0:0
404,196,237420,6,0,B|388:244|324:268|260:260|220:204,1,200,8|4,0:0|0:0,0:0:0
152,160,238545,2,0,B|160:144|192:120|216:120|256:128,1,100,8|0,0:0|0:0,0:0:0
332,164,239295,1,8,0:0:0
372,256,239670,2,0,B|332:280|276:264|260:224,1,100,0|8,0:0|0:0,0:0:0
232,160,240420,2,0,B|200:176|176:200|168:232|168:272,1,100,0|8,0:0|0:0,0:0:0
208,328,241170,5,0,0:0:0
108,316,241545,1,8,0:0:0
48,236,241920,1,0,0:0:0
44,136,242295,1,8,0:0:0
112,60,242670,1,4,0:0:0
276,176,243420,5,8,0:0:0
256,192,244170,12,0,248670,0:0:0
