osu file format v10

[General]
AudioFilename: YU-MU.mp3
AudioLeadIn: 0
PreviewTime: 67330
Countdown: 0
SampleSet: Normal
StackLeniency: 0.7
Mode: 0
LetterboxInBreaks: 1

[Editor]
Bookmarks: 10054,58054,82054,109054,133054,148054,151799,172054,196054,220054,244054
DistanceSpacing: 1
BeatDivisor: 3
GridSize: 4

[Metadata]
Title:YU-MU
TitleUnicode:
Artist:ichigo
ArtistUnicode:
Creator:Louis Cyphre
Version:Hard
Source:Touhou
Tags:Reiji-RJ IceBeam Collab Collaboration Yuuka Kazami OnosakiHito [Ryuu] Vass_Bass
BeatmapID:137198
BeatmapSetID:40348

[Difficulty]
HPDrainRate:5
CircleSize:4
OverallDifficulty:6
ApproachRate:7
SliderMultiplier:1.4
SliderTickRate:1

[Events]
//Background and Video events
0,0,"Bg (2).jpg"
//Break Periods
2,16371,21270
2,133370,145957
2,172371,183270
2,232371,236520
//Storyboard Layer 0 (Background)
//Storyboard Layer 1 (Fail)
//Storyboard Layer 2 (Pass)
//Storyboard Layer 3 (Foreground)
//Storyboard Sound Samples
//Background Colour Transformations
3,100,163,162,255

[TimingPoints]
7170,375,4,2,0,11,1,0
10170,-100,4,2,0,35,0,0
22170,-100,4,1,0,60,0,0
22638,-100,4,2,0,60,0,0
22826,-100,4,1,0,60,0,0
23388,-100,4,2,0,60,0,0
23576,-100,4,1,0,60,0,0
25638,-100,4,2,0,60,0,0
25826,-100,4,1,0,60,0,0
26388,-100,4,2,0,60,0,0
26576,-100,4,1,0,60,0,0
28357,-100,4,2,0,60,0,0
28638,-100,4,1,0,60,0,0
30232,-100,4,2,0,60,0,0
30326,-100,4,1,0,60,0,0
31451,-100,4,2,0,60,0,0
31638,-100,4,1,0,60,0,0
34263,-100,4,2,1,60,0,0
39701,-100,4,1,1,50,0,0
39888,-100,4,2,1,60,0,0
40076,-100,4,1,1,50,0,0
40263,-100,4,2,1,60,0,0
45138,-100,4,1,1,50,0,0
45513,-100,4,2,1,60,0,0
45701,-100,4,1,1,50,0,0
46263,-100,4,2,1,60,0,0
51701,-100,4,1,1,50,0,0
51888,-100,4,2,1,60,0,0
52076,-100,4,1,1,50,0,0
52263,-100,4,2,1,60,0,0
57326,-100,4,1,1,50,0,0
58170,-133.333333333333,4,1,1,50,0,0
60138,-133.333333333333,4,2,1,50,0,0
60326,-133.333333333333,4,1,1,50,0,0
60513,-133.333333333333,4,2,1,50,0,0
60795,-133.333333333333,4,1,1,50,0,0
60888,-133.333333333333,4,2,1,50,0,0
61076,-133.333333333333,4,1,1,50,0,0
63138,-133.333333333333,4,2,1,50,0,0
63326,-133.333333333333,4,1,1,50,0,0
63888,-133.333333333333,4,2,1,50,0,0
64076,-133.333333333333,4,1,1,50,0,0
64638,-133.333333333333,4,2,1,50,0,0
64826,-133.333333333333,4,1,1,50,0,0
65388,-133.333333333333,4,2,1,50,0,0
65576,-133.333333333333,4,1,1,50,0,0
66138,-133.333333333333,4,2,1,50,0,0
66326,-133.333333333333,4,1,1,50,0,0
67545,-133.333333333333,4,1,1,50,0,0
68388,-100,4,2,1,60,0,0
68576,-100,4,1,1,70,0,0
69888,-100,4,1,1,45,0,0
70170,-100,4,1,1,50,0,1
94170,-100,4,1,1,50,0,0
97170,-100,4,2,1,60,0,0
103170,-100,4,1,1,60,0,0
103263,-100,4,2,1,60,0,0
104670,-100,4,1,1,60,0,0
104763,-100,4,2,1,60,0,0
106170,-100,4,1,1,60,0,0
106263,-100,4,2,1,60,0,0
107670,-100,4,1,1,50,0,0
109170,-133.333333333333,4,1,1,50,0,0
109263,-133.333333333333,4,2,1,60,0,0
112076,-133.333333333333,4,1,1,50,0,0
112263,-133.333333333333,4,2,1,60,0,0
114701,-133.333333333333,4,1,1,50,0,0
115263,-133.333333333333,4,2,1,60,0,0
118076,-133.333333333333,4,1,1,50,0,0
118263,-133.333333333333,4,2,1,60,0,0
119576,-133.333333333333,4,1,1,50,0,0
119763,-100,4,2,1,60,0,0
120420,-133.333333333333,4,2,1,60,0,0
123045,-100,4,1,1,60,0,0
124451,-100,4,2,1,60,0,0
124638,-100,4,1,1,50,0,0
127451,-100,4,2,1,60,0,0
127638,-100,4,1,1,50,0,0
130451,-100,4,2,1,60,0,0
130638,-100,4,1,1,50,0,0
131201,-100,4,2,1,60,0,0
131388,-100,4,1,1,50,0,0
133170,375,5,1,1,50,1,0
148170,375,4,1,1,70,1,0
172170,-133.333333333333,4,1,1,60,0,0
184170,-100,4,1,1,80,0,0
184263,-100,4,2,1,70,0,0
189701,-100,4,1,1,70,0,0
189888,-100,4,2,1,70,0,0
190076,-100,4,1,1,70,0,0
190263,-100,4,2,1,70,0,0
194670,-100,4,1,1,60,0,0
196263,-100,4,2,1,60,0,0
196545,-133.333333333333,4,1,1,60,0,0
197388,-133.333333333333,4,2,1,60,0,0
197576,-133.333333333333,4,1,1,60,0,0
198138,-133.333333333333,4,2,1,60,0,0
198326,-133.333333333333,4,1,1,60,0,0
199357,-133.333333333333,4,2,1,60,0,0
199545,-133.333333333333,4,1,1,60,0,0
199732,-133.333333333333,4,2,1,60,0,0
199920,-133.333333333333,4,1,1,60,0,0
200388,-133.333333333333,4,2,1,60,0,0
200670,-133.333333333333,4,1,1,60,0,0
200951,-133.333333333333,4,2,1,60,0,0
201420,-133.333333333333,4,1,1,60,0,0
201982,-133.333333333333,4,2,1,60,0,0
202170,-133.333333333333,4,1,1,60,0,0
202732,-133.333333333333,4,2,1,60,0,0
202920,-133.333333333333,4,1,1,60,0,0
203201,-133.333333333333,4,2,1,60,0,0
203670,-133.333333333333,4,1,1,60,0,0
204232,-133.333333333333,4,2,1,60,0,0
204420,-133.333333333333,4,1,1,60,0,0
204982,-133.333333333333,4,2,1,60,0,0
205170,-133.333333333333,4,1,1,60,0,0
205357,-133.333333333333,4,2,1,60,0,0
205545,-133.333333333333,4,1,1,60,0,0
205920,-133.333333333333,4,1,1,60,0,0
206201,-100,4,2,1,60,0,0
206670,-133.333333333333,4,1,1,60,0,0
208263,-200,4,2,1,60,0,0
212670,-100,4,1,1,60,0,1
213607,-100,4,1,1,60,0,1
213982,-100,4,2,1,60,0,1
214170,-100,4,1,1,60,0,1
232170,-100,4,2,1,60,0,0
237420,-100,4,1,1,60,0,0
238263,-100,4,1,1,40,0,0
238451,-100,4,2,1,60,0,0
239576,-100,4,1,1,40,0,0
239951,-100,4,2,1,60,0,0
241076,-100,4,1,1,40,0,0
241451,-100,4,2,1,60,0,0
242763,-100,4,1,1,40,0,0
243701,-100,4,1,1,70,0,0
244170,-100,4,2,1,70,0,0
244357,-100,4,2,1,65,0,0
244545,-100,4,2,1,60,0,0
244732,-100,4,2,1,55,0,0
244920,-100,4,2,1,50,0,0
245107,-100,4,2,1,45,0,0
245295,-100,4,2,1,40,0,0
245482,-100,4,2,1,35,0,0
245670,-100,4,2,1,30,0,0
245857,-100,4,2,1,25,0,0
246045,-100,4,2,1,20,0,0
246232,-100,4,2,1,15,0,0
246420,-100,4,2,1,10,0,0
246607,-100,4,2,1,5,0,0

[Colours]
Combo1 : 122,74,16
Combo2 : 221,43,123
Combo3 : 235,220,37
Combo4 : 24,155,199

[HitObjects]
256,64,7170,1,2,0:0:0
248,88,7920,1,2,0:0:0
260,112,8670,5,2,0:0:0
268,288,9045,1,2,0:0:0
408,196,9420,1,2,0:0:0
408,196,10170,6,0,B|428:112|352:72,1,140,0|2,0:0|0:0,0:0:0
328,156,10732,1,0,0:0:0
256,112,10920,2,0,B|224:188|296:236,1,140,0|2,0:0|0:0,0:0:0
292,233,11670,6,0,B|244:300,1,70,0|2,0:0|0:0,0:0:0
168,276,12045,2,0,B|216:212,1,70,0|2,0:0|0:0,0:0:0
168,148,12420,2,0,B|120:216,1,70,0|2,0:0|0:0,0:0:0
48,176,12795,1,0,0:0:0
48,176,13170,6,0,B|112:108|56:44,1,140,0|2,0:0|0:0,0:0:0
8,104,13732,1,0,0:0:0
8,104,13920,2,0,B|148:132,1,140,0|2,0:0|0:0,0:0:0
352,72,14670,2,0,B|216:120,1,140,0|2,0:0|0:0,0:0:0
240,320,15420,2,0,B|196:180,1,140,0|2,0:0|0:0,0:0:0
52,88,16170,5,4,0:0:0
116,60,22170,6,0,B|160:124|132:204,1,140,6|0,0:0|0:0,0:0:0
80,248,22732,1,2,0:0:0
80,248,22920,2,0,B|128:320,1,70,2|0,0:0|0:0,0:0:0
192,268,23295,1,2,0:0:0
192,268,23482,2,0,B|232:332,1,70,2|0,0:0|0:0,0:0:0
296,276,23857,1,2,0:0:0
296,276,24045,2,2,B|340:344,1,70,2|0,0:0|0:0,0:0:0
420,340,24420,2,2,B|408:268|428:200,1,140
484,44,25170,6,0,B|420:80|332:72,1,140,6|0,0:0|0:0,0:0:0
268,44,25732,1,2,0:0:0
268,44,25920,2,0,B|188:68,1,70,2|0,0:0|0:0,0:0:0
128,104,26295,1,2,0:0:0
92,180,26482,1,2,0:0:0
92,180,26670,2,0,B|108:256|80:340,1,140,0|0,0:0|0:0,0:0:0
164,348,27232,1,2,0:0:0
164,348,27420,2,2,B|240:304|308:348,1,140
408,212,28170,6,2,B|392:284,1,70,6|0,0:0|0:0,0:0:0
328,228,28545,2,0,B|348:152,1,70,2|0,0:0|0:0,0:0:0
428,136,28920,2,2,B|397:59|315:77,1,140
248,36,29482,2,0,B|213:105|129:77,1,140,2|2,0:0|0:0,0:0:0
52,116,30045,2,2,B|72:200,1,70,2|2,0:0|0:0,0:0:0
48,264,30420,2,2,B|128:232|172:308,1,140
336,336,31170,6,0,B|416:316,1,70,6|0,0:0|0:0,0:0:0
416,236,31545,2,0,B|324:256,1,70,2|0,0:0|0:0,0:0:0
292,188,31920,2,2,B|440:152,1,140
424,72,32482,2,2,B|272:112,1,140
204,120,33045,1,2,0:0:0
168,196,33232,1,0,0:0:0
220,260,33420,2,0,B|232:300,7,35,4|0|0|0|0|0|0|0,0:0|0:0|0:0|0:0|0:0|0:0|0:0|0:0,0:0:0
220,260,34170,6,0,B|300:224|348:308,1,140,4|8,0:0|0:0,0:0:0
380,372,34732,2,0,B|448:320|408:244,1,140,2|2,0:0|0:0,0:0:0
380,172,35295,2,0,B|376:80|460:76,2,140,8|2|8,0:0|0:0|0:0,0:0:0
300,140,36232,1,2,0:0:0
224,176,36420,1,0,0:0:0
184,248,36607,1,2,0:0:0
184,248,36795,2,0,B|148:268|104:256,1,70,0|2,0:0|0:0,0:0:0
80,336,37170,6,0,B|112:264|64:200,1,140,0|8,0:0|0:0,0:0:0
36,124,37732,2,0,B|124:124|128:28,1,140,2|2,0:0|0:0,0:0:0
196,88,38295,1,8,0:0:0
264,40,38482,1,0,0:0:0
264,40,38670,6,0,B|376:28,2,105,2|4|0,0:0|0:0|0:0,0:0:0
196,88,39420,1,0,0:0:0
196,88,39607,1,2,0:0:0
248,156,39795,2,0,B|232:232,1,70,0|2,0:0|0:0,0:0:0
304,272,40170,6,0,B|332:120,1,140,4|8,0:0|0:0,0:0:0
412,128,40732,2,0,B|386:265,1,140,2|0,0:0|0:0,0:0:0
452,320,41295,2,0,B|368:284|320:372,1,140,8|0,0:0|0:0,0:0:0
248,348,41857,6,0,B|164:340,1,70,2|8,0:0|0:0,0:0:0
96,352,42232,2,0,B|144:276|76:224,1,140,2|0,0:0|0:0,0:0:0
80,227,42795,2,0,B|96:72,1,140,8|0,0:0|0:0,0:0:0
176,72,43357,1,2,0:0:0
176,72,43545,2,0,B|168:148,1,70,8|0,0:0|0:0,0:0:0
240,184,43920,5,2,0:0:0
240,184,44295,1,8,0:0:0
240,184,44670,5,0,0:0:0
320,164,44857,1,2,0:0:0
400,132,45045,1,4,0:0:0
400,132,45232,2,0,B|392:50|460:16,1,140,0|2,0:0|0:0,0:0:0
496,96,45795,2,0,B|506:175|437:212,1,140,0|4,0:0|0:0,0:0:0
372,264,46357,6,0,B|324:320,2,70,2|8|2,0:0|0:0|0:0,0:0:0
340,188,46920,2,0,B|236:296,1,140,0|8,0:0|0:0,0:0:0
140,156,47670,2,0,B|244:48,1,140,0|8,0:0|0:0,0:0:0
316,32,48232,1,2,0:0:0
400,28,48420,1,0,0:0:0
316,32,48607,1,2,0:0:0
236,56,48795,6,0,B|152:64,1,70,8|2,0:0|0:0,0:0:0
92,32,49170,2,0,B|152:88|112:160,1,140,0|8,0:0|0:0,0:0:0
72,232,49732,2,0,B|12:176|52:104,1,140,2|0,0:0|0:0,0:0:0
132,132,50295,2,0,B|216:148,1,70,8|2,0:0|0:0,0:0:0
284,148,50670,2,0,B|396:128,2,105
132,132,51607,5,2,0:0:0
200,232,51795,1,0,0:0:0
284,148,51982,1,2,0:0:0
284,148,52170,2,0,B|360:192|412:140,1,140,4|8,0:0|0:0,0:0:0
352,84,52732,2,0,B|280:44|220:88,1,140,2|2,0:0|0:0,0:0:0
148,140,53295,1,8,0:0:0
148,140,53670,6,0,B|104:216|152:272,1,140,0|8,0:0|0:0,0:0:0
332,228,54232,2,0,B|272:176|200:212,1,140,2|2,0:0|0:0,0:0:0
148,140,54795,1,8,0:0:0
148,140,55170,6,0,B|184:68|264:80,1,140,0|8,0:0|0:0,0:0:0
416,84,55732,2,0,B|384:156|292:144,1,140,2|2,0:0|0:0,0:0:0
228,184,56295,1,8,0:0:0
228,184,56670,5,4,0:0:0
160,236,56857,1,2,0:0:0
216,300,57045,1,8,0:0:0
284,252,57232,2,0,B|316:268,2,35,0|0|0,0:0|0:0|0:0,0:0:0
228,184,57607,1,0,0:0:0
252,104,57795,1,0,0:0:0
252,104,58170,5,4,0:0:0
152,68,58545,1,0,0:0:0
68,132,58920,2,0,B|40:192|72:252,1,104.999996870756
148,296,59670,2,0,B|176:240|152:192,1,104.999996870756
144,144,60232,1,2,0:0:0
168,100,60420,1,0,0:0:0
168,100,60795,5,0,0:0:0
216,80,60982,1,2,0:0:0
268,88,61170,2,0,B|328:104|372:72,1,104.999996870756
448,4,61920,2,0,B|432:68|472:104,1,104.999996870756
472,208,62670,2,0,B|468:276|412:296,1,104.999996870756
368,284,63232,1,2,0:0:0
316,296,63420,2,0,B|252:344|156:312,1,157.499995306134,12|2,0:0|0:0,0:0:0
136,272,64170,6,0,B|98:228|119:173,1,105.000004005432
120,174,64732,1,2,0:0:0
68,112,64920,2,0,B|120:80|168:112,1,104.999996870756
232,156,65482,1,2,0:0:0
232,156,65670,2,0,B|300:152|308:92,1,104.999996870756
376,60,66232,1,2,0:0:0
376,60,66420,2,0,B|517:56|489:212,1,209.999993741512
400,232,67545,5,0,0:0:0
336,328,67920,1,0,0:0:0
268,228,68295,1,0,0:0:0
228,284,68482,1,2,0:0:0
192,224,68670,2,0,B|196:140|140:100,1,140,0|0,0:0|0:0,0:0:0
60,128,69232,1,0,0:0:0
60,128,69420,2,0,B|56:211|112:252,1,140
236,364,70170,6,2,B|272:292|356:292,1,140,6|2,0:0|0:0,0:0:0
396,224,70732,1,0,0:0:0
324,184,70920,1,2,0:0:0
396,140,71107,1,0,0:0:0
396,140,71295,2,0,B|348:76,1,70,0|0,0:0|0:0,0:0:0
284,128,71670,6,2,B|332:192,1,70
332,268,72045,1,0,0:0:0
308,348,72232,1,2,0:0:0
248,292,72420,2,2,B|188:336|116:332,1,140,2|0,0:0|0:0,0:0:0
68,264,72982,1,0,0:0:0
68,264,73170,6,2,B|84:213|76:152,1,105,6|0,0:0|0:0,0:0:0
77,160,73545,1,0,0:0:0
40,84,73732,1,2,0:0:0
40,84,73920,2,0,B|192:56,1,140,2|0,0:0|0:0,0:0:0
256,88,74482,1,2,0:0:0
228,168,74670,6,0,B|208:200|200:236,1,70,2|0,0:0|0:0,0:0:0
284,252,75045,2,2,B|292:296|308:320,1,70
368,192,75420,2,0,B|372:288|456:300,1,140,2|0,0:0|0:0,0:0:0
452,212,75982,1,0,0:0:0
452,212,76170,6,2,B|424:108,1,105,6|0,0:0|0:0,0:0:0
400,76,76545,1,2,0:0:0
316,60,76732,1,0,0:0:0
264,128,76920,2,2,B|252:196,1,70,2|0,0:0|0:0,0:0:0
168,180,77295,2,2,B|152:252,1,70,0|2,0:0|0:0,0:0:0
68,248,77670,6,2,B|104:104,1,140,6|2,0:0|0:0,0:0:0
180,84,78232,1,0,0:0:0
180,84,78420,2,2,B|254:84|310:40,1,140,2|2,0:0|0:0,0:0:0
310,39,79170,6,2,B|320:124|412:156,1,140,6|0,0:0|0:0,0:0:0
440,216,79732,1,0,0:0:0
440,216,79920,2,2,B|432:296|384:312,1,105,6|0,0:0|0:0,0:0:0
395,306,80295,1,0,0:0:0
316,284,80482,1,2,0:0:0
256,340,80670,6,2,B|244:300|224:280,1,70,6|0,0:0|0:0,0:0:0
112,228,81045,2,0,B|120:271|144:287,1,70,0|0,0:0|0:0,0:0:0
188,184,81420,2,2,B|180:140|148:120,1,70,6|0,0:0|0:0,0:0:0
44,68,81795,2,2,B|48:104|76:128,1,70,6|0,0:0|0:0,0:0:0
124,60,82170,6,2,B|168:32|228:88|264:48,1,140,6|0,0:0|0:0,0:0:0
340,40,82732,1,0,0:0:0
424,40,82920,2,2,B|464:88|440:144,1,105,2|0,0:0|0:0,0:0:0
442,137,83295,1,0,0:0:0
368,180,83482,1,0,0:0:0
444,220,83670,2,2,B|456:300|392:352,1,140,2|0,0:0|0:0,0:0:0
332,296,84232,1,2,0:0:0
332,296,84420,2,2,B|284:224|204:260,1,140
164,336,84982,1,0,0:0:0
164,336,85170,6,2,B|76:340,1,70,6|0,0:0|0:0,0:0:0
68,260,85545,2,2,B|140:256,1,70
168,176,85920,2,2,B|28:184,1,140
44,100,86482,5,2,0:0:0
144,92,86670,1,4,0:0:0
168,176,86857,1,0,0:0:0
224,240,87045,1,2,0:0:0
308,228,87232,1,0,0:0:0
348,152,87420,2,2,B|320:100|348:48,1,105,2|0,0:0|0:0,0:0:0
346,51,87795,1,2,0:0:0
416,96,87982,5,0,0:0:0
416,96,88170,2,2,B|344:112|268:96,1,140,6|2,0:0|0:0,0:0:0
72,60,88732,1,0,0:0:0
72,60,88920,2,2,B|136:96|224:84,1,140
240,240,89482,1,0,0:0:0
240,240,89670,6,2,B|248:200|240:168,1,70,6|0,0:0|0:0,0:0:0
164,204,90045,2,2,B|156:240|168:276,1,70,2|2,0:0|0:0,0:0:0
240,316,90420,2,2,B|164:284|100:336,1,140
68,172,91170,6,2,B|112:212|168:204,1,105,6|0,0:0|0:0,0:0:0
204,196,91545,1,0,0:0:0
276,152,91732,1,0,0:0:0
344,104,91920,2,2,B|392:72|444:80,2,105,6|0|0,0:0|0:0|0:0,0:0:0
276,152,92670,2,2,B|264:240|336:264,1,140,4|0,0:0|0:0,0:0:0
356,184,93232,5,0,0:0:0
276,152,93420,1,2,0:0:0
196,172,93607,1,0,0:0:0
120,140,93795,1,2,0:0:0
120,140,94170,5,0,0:0:0
196,172,94357,1,0,0:0:0
276,152,94545,1,0,0:0:0
369,103,94826,2,0,P|380:67,1,35
295,71,95107,1,0,0:0:0
276,152,95295,1,0,0:0:0
256,320,95670,5,0,0:0:0
204,256,95857,1,0,0:0:0
329,254,96138,2,0,P|360:238,1,35,0|4,0:0|2:0,0:0:0
443,251,96420,1,0,0:0:0
188,72,97170,6,0,B|256:36|328:72,1,140,0|8,0:0|0:0,0:0:0
400,40,97732,2,0,B|332:84|368:168,1,140
448,148,98295,2,0,B|468:228|396:272,2,140,8|0|8,0:0|0:0|0:0,0:0:0
365,163,99232,1,2,0:0:0
284,144,99420,1,0,0:0:0
212,180,99607,1,2,0:0:0
212,180,99795,6,0,B|208:136|176:104,1,70,8|0,0:0|0:0,0:0:0
104,124,100170,2,0,B|100:76|124:44|156:28|192:32,1,140,0|8,0:0|0:0,0:0:0
268,40,100732,2,0,B|416:68,1,140
405,66,101295,2,0,B|392:140,1,70,8|0,0:0|0:0,0:0:0
460,188,101670,2,0,B|480:76,2,105,0|0|0,0:0|0:0|0:0,0:0:0
364,328,102607,6,0,B|296:344,1,70,2|8,0:0|0:0,0:0:0
248,276,102982,1,2,0:0:0
248,276,103170,2,0,B|392:240,1,140,0|8,0:0|0:0,0:0:0
388,160,103732,2,0,B|248:192,1,140,2|0,0:0|0:0,0:0:0
204,120,104295,1,8,0:0:0
204,120,104670,6,0,B|128:172|176:256,1,140,0|8,0:0|0:0,0:0:0
252,224,105232,2,0,B|388:196,1,140,2|0,0:0|0:0,0:0:0
440,128,105795,1,8,0:0:0
440,128,106170,6,0,B|416:56,1,70,0|2,0:0|0:0,0:0:0
336,52,106545,1,8,0:0:0
336,52,106732,2,0,B|300:132|212:92,1,140,2|0,0:0|0:0,0:0:0
136,64,107295,2,0,B|176:8|236:16|264:36,1,140,8|0,0:0|0:0,0:0:0
220,96,107857,5,0,0:0:0
164,160,108045,1,0,0:0:0
216,228,108232,2,0,B|228:272,2,35
272,164,108607,1,0,0:0:0
332,104,108795,1,0,0:0:0
400,148,108982,1,0,0:0:0
400,148,109170,6,0,B|384:208|416:260,1,104.999996870756
412,324,109732,1,2,0:0:0
412,324,109920,2,0,B|324:296|256:352,1,157.499995306134,0|2,0:0|0:0,0:0:0
188,352,110670,2,0,B|184:320|172:296,1,52.4999984353781,0|2,0:0|0:0,0:0:0
92,220,111045,2,0,B|96:252|108:276,1,52.4999984353781,0|0,0:0|0:0,0:0:0
168,208,111420,2,0,B|168:144|144:96,1,104.999996870756
284,48,112170,1,0,0:0:0
284,48,112545,5,0,0:0:0
356,52,112732,1,2,0:0:0
284,48,112920,2,0,B|284:112|308:160,1,104.999996870756
368,184,113482,1,2,0:0:0
368,184,113670,2,0,B|332:168|276:164|240:212|232:260|264:304,1,209.999993741512
324,252,114607,1,2,0:0:0
328,332,114795,2,0,B|360:364,2,26.2499992176891
256,296,115170,6,0,B|100:344,1,157.499995306134,0|2,0:0|0:0,0:0:0
84,272,115920,2,0,B|236:224,1,157.499995306134,0|2,0:0|0:0,0:0:0
248,152,116670,2,0,B|232:104|256:72,2,78.7499976530672
312,116,117420,2,0,B|340:100|388:124|416:104,1,104.999996870756
414,104,118170,5,0,0:0:0
452,168,118357,1,2,0:0:0
408,228,118545,1,0,0:0:0
428,300,118732,1,2,0:0:0
428,300,118920,2,0,B|308:328,1,104.999996870756
256,304,119482,1,0,0:0:0
186,323,119670,2,0,B|72:300,2,104.999996870756
256,304,120607,5,0,0:0:0
256,248,120795,1,0,0:0:0
256,192,120982,1,0,0:0:0
256,192,121170,12,0,122670,0:0:0
128,192,123045,6,0,B|84:52,2,140,0|8|0,0:0|0:0|0:0,0:0:0
80,260,123982,1,0,0:0:0
80,260,124170,2,0,B|120:292|184:280|200:224,1,140,0|2,0:0|0:0,0:0:0
244,164,124732,1,0,0:0:0
308,108,124920,2,0,B|321:60|392:48|424:84,1,140,8|0,0:0|0:0,0:0:0
380,156,125482,1,0,0:0:0
380,156,125670,6,0,B|400:236,1,70
332,276,126045,2,0,B|312:192,1,70,8|0,0:0|0:0,0:0:0
240,244,126420,2,0,B|226:291|164:308|122:271,2,140,8|0|4,0:0|0:0|0:0,0:0:0
168,200,127357,5,0,0:0:0
200,124,127545,1,2,0:0:0
280,96,127732,1,0,0:0:0
360,76,127920,2,0,B|448:72|448:172,1,140,8|0,0:0|0:0,0:0:0
364,156,128482,5,0,0:0:0
364,156,128670,2,0,B|296:208,1,70
340,276,129045,2,0,B|404:224,1,70
468,276,129420,2,0,B|352:372,1,140,8|0,0:0|0:0,0:0:0
256,352,129982,1,0,0:0:0
151,365,130170,6,0,B|44:276,1,140,4|2,0:0|0:0,0:0:0
76,200,130732,1,0,0:0:0
76,200,130920,2,0,B|183:289,1,140,8|2,0:0|0:0,0:0:0
240,228,131482,1,0,0:0:0
240,228,131670,6,0,B|172:172,1,70
232,112,132045,2,0,B|288:160,1,70
360,116,132420,2,0,B|448:124|456:208,2,140,8|0|4,0:0|0:0|0:0,0:0:0
68,240,146857,5,0,0:0:0
68,240,148170,6,2,B|96:316|176:312,1,140,6|2,0:0|0:0,0:0:0
224,244,148732,2,2,B|196:167|116:172,1,140
84,92,149295,1,0,0:0:0
84,92,149670,6,2,B|107:64|140:53,2,70,2|0|0,0:0|0:0|0:0,0:0:0
116,172,150232,1,0,0:0:0
104,256,150420,2,2,B|192:260|204:176,1,140
204,180,150982,1,0,0:0:0
252,108,151170,6,2,B|263:27|351:31,1,140,6|2,0:0|0:0,0:0:0
336,116,151732,1,2,0:0:0
336,116,151920,2,2,B|368:140|404:144,1,70,2|0,0:0|0:0,0:0:0
348,212,152295,2,0,B|340:252|348:280,1,70
496,240,152670,6,2,B|460:252|424:244,1,70
348,280,153045,1,0,0:0:0
284,336,153232,1,0,0:0:0
200,328,153420,2,2,B|156:264|200:192,1,140
276,40,153982,1,0,0:0:0
276,40,154170,6,2,B|320:104|276:176,1,140,6|2,0:0|0:0,0:0:0
232,116,154732,2,2,B|264:92|308:92|344:116|356:148,1,140
320,220,155295,2,2,B|288:244|244:244|207:220|196:188,2,140
404,200,156232,2,0,B|456:188,6,35
372,280,156982,1,2,0:0:0
372,280,157170,6,2,B|328:340|244:324,1,140
212,248,157732,2,2,B|256:188|339:204,1,140
352,120,158295,2,0,B|372:32,1,70,2|0,0:0|0:0,0:0:0
284,32,158670,2,2,B|268:104|268:104|208:136,1,140,0|2,0:0|0:0,0:0:0
128,116,159232,1,0,0:0:0
208,136,159420,1,0,0:0:0
188,216,159607,1,0,0:0:0
108,236,159795,2,0,B|76:272,4,35,0|0|0|0|4,0:0|0:0|0:0|0:0|0:0,0:0:0
108,236,160545,5,0,0:0:0
188,216,160732,1,0,0:0:0
264,220,160920,2,2,B|276:136|360:136,1,140
344,212,161482,1,0,0:0:0
344,212,161670,2,2,B|404:260,1,70
368,328,162045,1,0,0:0:0
368,328,162232,2,2,B|256:240,1,140
280,168,162795,6,2,B|284:124|308:92,2,70,2|2|0,0:0|0:0|0:0,0:0:0
212,216,163357,1,0,0:0:0
144,268,163545,1,2,0:0:0
144,268,163732,2,2,B|84:328|16:264,1,140
79,363,164295,2,0,B|84:220,1,140,2|0,0:0|0:0,0:0:0
92,140,164857,6,2,B|104:56,1,70,2|2,0:0|0:0,0:0:0
184,56,165232,2,0,B|172:132,1,70,2|0,0:0|0:0,0:0:0
248,160,165607,2,2,B|260:76,1,70,2|2,0:0|0:0,0:0:0
372,216,166170,6,2,B|380:140,2,70,2|0|2,0:0|0:0|0:0,0:0:0
403,295,166732,2,2,B|367:318|330:286,2,70,2|0|2,0:0|0:0|0:0,0:0:0
372,216,167295,1,0,0:0:0
290,225,167482,2,2,B|230:287|278:350,1,140,2|0,0:0|0:0,0:0:0
240,172,168045,2,2,B|280:96|216:48,1,140,2|0,0:0|0:0,0:0:0
172,120,168607,1,0,0:0:0
96,152,168795,1,0,0:0:0
96,320,169170,5,0,0:0:0
172,288,169357,1,0,0:0:0
248,256,169545,1,2,0:0:0
396,180,169920,1,0,0:0:0
372,100,170107,1,0,0:0:0
344,20,170295,1,2,0:0:0
256,192,170670,12,4,172170,0:0:0
80,228,184170,6,0,B|56:200|64:160,2,70,4|0|8,0:0|0:0|0:0,0:0:0
148,176,184732,2,0,B|192:152|248:200|284:176,1,140
348,232,185295,2,0,B|392:156|328:104,2,140,8|0|8,0:0|0:0|0:0,0:0:0
368,312,186232,1,2,0:0:0
288,336,186420,1,0,0:0:0
208,312,186607,1,2,0:0:0
208,312,186795,2,0,B|120:336,1,70,8|0,0:0|0:0,0:0:0
80,272,187170,6,0,B|236:224,1,140,0|8,0:0|0:0,0:0:0
272,120,187732,2,0,B|138:161,1,140,2|2,0:0|0:0,0:0:0
52,168,188295,1,8,0:0:0
32,88,188482,1,2,0:0:0
52,168,188670,2,0,B|80:276,2,105
200,248,189607,5,2,0:0:0
200,248,189795,2,0,B|220:316,1,70
304,324,190170,2,0,B|260:164,1,140,4|8,0:0|0:0,0:0:0
348,200,190732,2,0,B|385:334,1,140,2|2,0:0|0:0,0:0:0
385,334,191295,1,8,0:0:0
224,288,191670,5,0,0:0:0
140,288,191857,1,2,0:0:0
80,348,192045,1,8,0:0:0
80,348,192232,2,0,B|24:284|88:216,1,140,2|0,0:0|0:0,0:0:0
84,140,192795,1,8,0:0:0
84,140,193170,6,0,B|96:48,1,70,0|2,0:0|0:0,0:0:0
176,52,193545,1,8,0:0:0
176,52,193732,2,0,B|160:196,1,140,2|2,0:0|0:0,0:0:0
244,212,194295,2,0,B|259:72,1,140,8|0,0:0|0:0,0:0:0
336,36,194857,1,0,0:0:0
420,48,195045,1,8,0:0:0
420,132,195232,2,0,B|408:180,2,35
336,120,195607,1,0,0:0:0
312,200,195795,2,0,B|284:284|352:324,1,140,8|4,0:0|0:0,0:0:0
388,248,196357,5,2,0:0:0
388,248,196545,2,0,B|276:284,1,104.999996870756
128,332,197295,1,0,0:0:0
80,252,197482,1,2,0:0:0
148,188,197670,2,0,B|136:140|160:100,2,78.7499976530672,0|0|2,0:0|0:0|0:0,0:0:0
224,148,198420,2,0,B|260:120|296:164|324:136,1,104.999996870756
392,84,198982,1,0,0:0:0
392,84,199170,6,0,B|412:140,2,52.4999984353781,0|2|0,0:0|0:0|0:0,0:0:0
316,52,199732,1,2,0:0:0
316,52,199920,2,0,B|264:36|212:64,1,104.999996870756
124,136,200482,1,2,0:0:0
124,136,200670,2,0,B|128:68|72:36,1,104.999996870756
44,120,201232,1,2,0:0:0
44,120,201420,2,0,B|32:236,1,104.999996870756
40,308,201982,2,0,B|52:348,2,26.2499992176891,2|0|0,0:0|0:0|0:0,0:0:0
204,344,202545,6,0,B|264:340,1,52.4999984353781,0|2,0:0|0:0,0:0:0
276,260,202920,2,0,B|168:268,1,104.999996870756
164,184,203482,1,2,0:0:0
164,184,203670,2,0,B|116:192|96:248,2,78.7499976530672,0|0|0,0:0|0:0|0:0,0:0:0
244,156,204420,2,0,B|288:116|276:60,1,104.999996870756
196,84,204982,1,2,0:0:0
124,44,205170,1,0,0:0:0
124,44,205545,5,0,0:0:0
196,84,205732,1,0,0:0:0
244,156,205920,2,0,B|272:220|228:264,1,104.999996870756
152,256,206482,1,2,0:0:0
152,256,206670,2,0,B|280:252|320:384,2,209.999993741512
84,168,208545,5,0,0:0:0
136,52,208920,2,0,B|176:68|192:100,1,70,0|0,0:0|0:0,0:0:0
336,192,209670,2,0,B|296:175|280:143,1,70
276,92,210232,1,2,0:0:0
304,44,210420,1,0,0:0:0
284,284,211170,6,0,B|316:276|340:268,2,52.5,0|0|2,0:0|0:0|0:0,0:0:0
228,284,211920,2,0,B|160:268,1,70
108,200,212482,1,2,0:0:0
116,112,212670,2,0,P|184:44,1,93.3333333333333
320,76,213170,2,0,P|252:144,1,93.3333333333333
116,232,213795,6,0,B|160:248|192:236,1,70
256,268,214170,2,2,B|292:316|348:304,1,105,6|0,0:0|0:0,0:0:0
368,312,214545,1,2,0:0:0
432,272,214732,1,0,0:0:0
432,272,214920,2,2,B|444:232|440:200,1,70
404,64,215295,2,0,B|392:96|392:136,1,70,0|2,0:0|0:0,0:0:0
460,132,215670,6,2,B|396:84|324:120,1,140,6|2,0:0|0:0,0:0:0
260,80,216232,1,0,0:0:0
204,136,216420,2,2,B|176:160|136:164,1,70,2|0,0:0|0:0,0:0:0
12,104,216795,2,2,B|40:79|80:75,1,70,0|2,0:0|0:0,0:0:0
56,176,217170,6,2,B|80:236|44:280,1,105,6|0,0:0|0:0,0:0:0
47,275,217545,1,0,0:0:0
24,348,217732,1,2,0:0:0
24,348,217920,2,2,B|64:304|120:320,1,105,4|0,0:0|0:0,0:0:0
152,336,218295,1,0,0:0:0
228,344,218482,1,2,0:0:0
284,292,218670,6,2,B|316:220|284:152,1,140,4|0,0:0|0:0,0:0:0
216,120,219232,1,2,0:0:0
216,120,219420,2,2,B|136:120,1,70,6|0,0:0|0:0,0:0:0
300,200,219795,2,2,B|384:200,1,70
396,128,220170,6,2,B|376:212|452:248,1,140,4|0,0:0|0:0,0:0:0
468,172,220732,1,0,0:0:0
468,172,220920,2,2,B|476:80,1,70,2|0,0:0|0:0,0:0:0
404,60,221295,2,2,B|396:136,1,70
324,156,221670,2,2,B|272:196|220:160,1,105,6|0,0:0|0:0,0:0:0
204,132,222045,1,2,0:0:0
268,92,222232,1,0,0:0:0
200,56,222420,2,2,B|144:8|64:48,1,140,2|0,0:0|0:0,0:0:0
44,120,222982,1,0,0:0:0
44,120,223170,6,2,B|40:164|56:188,1,70,6|0,0:0|0:0,0:0:0
160,280,223545,2,2,B|164:236|148:212,1,70
80,248,223920,2,2,B|156:272|216:224,1,140,2|0,0:0|0:0,0:0:0
272,176,224482,1,2,0:0:0
324,116,224670,2,2,B|336:48|392:40,2,105,4|2|0,0:0|0:0|0:0,0:0:0
400,112,225420,2,2,B|388:232,1,105,2|0,0:0|0:0,0:0:0
364,248,225795,1,2,0:0:0
400,316,225982,1,0,0:0:0
324,316,226170,6,2,B|216:328,2,105,6|0|2,0:0|0:0|0:0,0:0:0
292,248,226920,2,2,B|152:264,1,140,0|2,0:0|0:0,0:0:0
88,220,227482,1,0,0:0:0
88,220,227670,2,2,B|64:184|76:152,1,70,6|0,0:0|0:0,0:0:0
136,104,228045,2,2,B|160:139|148:171,1,70
224,152,228420,2,2,B|392:136,1,140
452,264,229170,6,2,B|344:276,1,105,6|0,0:0|0:0,0:0:0
308,276,229545,1,0,0:0:0
240,240,229732,1,0,0:0:0
232,316,229920,2,2,B|168:304|164:236,2,105,6|2|0,0:0|0:0|0:0,0:0:0
240,240,230670,2,2,B|244:148|160:136,1,140,6|0,0:0|0:0,0:0:0
108,188,231232,5,0,0:0:0
60,128,231420,1,2,0:0:0
116,76,231607,1,0,0:0:0
168,136,231795,1,2,0:0:0
320,108,232170,5,4,0:0:0
196,184,237420,5,0,0:0:0
196,184,237795,1,8,0:0:0
196,184,238170,5,4,0:0:0
152,120,238357,1,0,0:0:0
108,56,238545,2,0,B|164:24|208:68,1,105,8|0,0:0|0:0,0:0:0
244,60,238920,2,0,B|336:52,1,70,0|2,0:0|0:0,0:0:0
380,16,239295,2,0,B|340:92|400:144,1,140,8|0,0:0|0:0,0:0:0
440,76,239857,5,0,0:0:0
440,76,240045,2,0,B|388:88|348:128,1,105,8|0,0:0|0:0,0:0:0
336,164,240420,2,0,B|324:236,1,70,8|2,0:0|0:0,0:0:0
260,272,240795,2,0,B|320:332|388:280,1,140,8|0,0:0|0:0,0:0:0
452,320,241357,5,0,0:0:0
448,244,241545,2,0,B|444:176|464:132,1,105,0|8,0:0|0:0,0:0:0
456,104,241920,2,0,B|388:48,1,70,0|2,0:0|0:0,0:0:0
336,112,242295,1,8,0:0:0
264,96,242482,1,0,0:0:0
240,168,242670,6,0,B|248:232,8,35
92,208,243795,5,0,0:0:0
256,192,244076,12,0,248670,0:0:0
