osu file format v10

[General]
AudioFilename: YU-MU.mp3
AudioLeadIn: 0
PreviewTime: 67330
Countdown: 0
SampleSet: Normal
StackLeniency: 0.7
Mode: 0
LetterboxInBreaks: 1

[Editor]
Bookmarks: 10054,34054,58054,82054,109054,133054,148054,151799,172054,196054,220054,244054
DistanceSpacing: 1
BeatDivisor: 3
GridSize: 4

[Metadata]
Title:YU-MU
TitleUnicode:
Artist:ichigo
ArtistUnicode:
Creator:Louis Cyphre
Version:Extra
Source:Touhou
Tags:Reiji-RJ IceBeam Collab Collaboration Yuuka Kazami OnosakiHito [Ryuu] Vass_Bass
BeatmapID:128074
BeatmapSetID:40348

[Difficulty]
HPDrainRate:7
CircleSize:4
OverallDifficulty:7
ApproachRate:8
SliderMultiplier:1.6
SliderTickRate:1

[Events]
//Background and Video events
0,0,"bg.jpg"
//Break Periods
2,16370,21420
2,133370,147420
2,232370,236670
//Storyboard Layer 0 (Background)
//Storyboard Layer 1 (Fail)
//Storyboard Layer 2 (Pass)
//Storyboard Layer 3 (Foreground)
//Storyboard Sound Samples
//Background Colour Transformations
3,100,163,162,255

[TimingPoints]
7170,375,4,2,0,40,1,0
10170,-100,4,2,0,35,0,0
15326,-100,4,1,0,60,0,0
15607,-100,4,1,0,55,0,0
15701,-100,4,1,0,50,0,0
15795,-100,4,1,0,45,0,0
15888,-100,4,1,0,40,0,0
15982,-100,4,1,0,35,0,0
16076,-100,4,1,0,30,0,0
16170,-100,4,2,0,60,0,0
22170,-100,4,1,0,60,0,0
22638,-100,4,2,0,60,0,0
22826,-100,4,1,0,60,0,0
23388,-100,4,2,0,60,0,0
23576,-100,4,1,0,60,0,0
25638,-100,4,2,0,60,0,0
25826,-100,4,1,0,60,0,0
26388,-100,4,2,0,60,0,0
26576,-100,4,1,0,60,0,0
28638,-100,4,2,0,60,0,0
28826,-100,4,1,0,60,0,0
29388,-100,4,2,0,60,0,0
29576,-100,4,1,0,60,0,0
31638,-100,4,2,0,60,0,0
31826,-100,4,1,0,60,0,0
32388,-100,4,2,0,60,0,0
32576,-100,4,1,0,60,0,0
34263,-100,4,2,1,60,0,0
39701,-100,4,1,1,50,0,0
39888,-100,4,2,1,60,0,0
40076,-100,4,1,1,50,0,0
40263,-100,4,2,1,60,0,0
45138,-100,4,1,1,50,0,0
45513,-100,4,2,1,60,0,0
45701,-100,4,1,1,50,0,0
46263,-100,4,2,1,60,0,0
51701,-100,4,1,1,50,0,0
51888,-100,4,2,1,60,0,0
52076,-100,4,1,1,50,0,0
52263,-100,4,2,1,60,0,0
57326,-100,4,1,1,50,0,0
58263,-100,4,2,1,50,0,0
58451,-100,4,1,1,50,0,0
58638,-100,4,2,1,50,0,0
58826,-100,4,1,1,50,0,0
59013,-100,4,2,1,50,0,0
59201,-100,4,1,1,50,0,0
59388,-100,4,2,1,50,0,0
59576,-100,4,1,1,50,0,0
59857,-100,4,2,1,50,0,0
60045,-100,4,1,1,50,0,0
60138,-100,4,2,1,50,0,0
60326,-100,4,1,1,50,0,0
60513,-100,4,2,1,50,0,0
60795,-100,4,1,1,50,0,0
60888,-100,4,2,1,50,0,0
61076,-100,4,1,1,50,0,0
61263,-100,4,2,1,50,0,0
61451,-100,4,1,1,50,0,0
61638,-100,4,2,1,50,0,0
61826,-100,4,1,1,50,0,0
62013,-100,4,2,1,50,0,0
62201,-100,4,1,1,50,0,0
62388,-100,4,2,1,50,0,0
62576,-100,4,1,1,50,0,0
62857,-100,4,2,1,50,0,0
63045,-100,4,1,1,50,0,0
63138,-100,4,2,1,50,0,0
63326,-100,4,1,1,50,0,0
63513,-100,4,2,1,50,0,0
63795,-100,4,1,1,50,0,0
63888,-100,4,2,1,50,0,0
64076,-100,4,1,1,50,0,0
64263,-100,4,2,1,50,0,0
64451,-100,4,1,1,50,0,0
64638,-100,4,2,1,50,0,0
64826,-100,4,1,1,50,0,0
65013,-100,4,2,1,50,0,0
65201,-100,4,1,1,50,0,0
65388,-100,4,2,1,50,0,0
65576,-100,4,1,1,50,0,0
65857,-100,4,2,1,50,0,0
66045,-100,4,1,1,50,0,0
66138,-100,4,2,1,50,0,0
66326,-100,4,1,1,50,0,0
66513,-100,4,2,1,50,0,0
66795,-100,4,1,1,50,0,0
66888,-100,4,2,1,50,0,0
67076,-100,4,1,1,30,0,0
67263,-100,4,2,1,30,0,0
67451,-100,4,1,1,40,0,0
67638,-100,4,2,1,40,0,0
67826,-100,4,1,1,50,0,0
68013,-100,4,2,1,50,0,0
68201,-100,4,1,1,60,0,0
68388,-100,4,2,1,60,0,0
68576,-100,4,1,1,70,0,0
68857,-100,4,1,1,50,0,0
69232,-100,4,1,1,30,0,0
69513,-100,4,1,1,35,0,0
69701,-100,4,1,1,40,0,0
69888,-100,4,1,1,45,0,0
70170,-100,4,1,1,50,0,1
70270,-100,4,1,1,50,0,1
94170,-100,4,1,1,50,0,0
97170,-100,4,2,1,60,0,0
107670,-100,4,1,1,50,0,0
109263,-100,4,2,1,60,0,0
112076,-100,4,1,1,50,0,0
112263,-100,4,2,1,60,0,0
114701,-100,4,1,1,50,0,0
115263,-100,4,2,1,60,0,0
118076,-100,4,1,1,50,0,0
118263,-100,4,2,1,60,0,0
119576,-100,4,1,1,50,0,0
119763,-100,4,2,1,60,0,0
120420,-133.333333333333,4,2,1,60,0,0
121170,-100,4,1,1,50,0,0
121451,-100,4,2,1,60,0,0
121638,-100,4,1,1,50,0,0
124451,-100,4,2,1,60,0,0
124638,-100,4,1,1,50,0,0
127451,-100,4,2,1,60,0,0
127638,-100,4,1,1,50,0,0
130451,-100,4,2,1,60,0,0
130638,-100,4,1,1,50,0,0
131201,-100,4,2,1,60,0,0
131388,-100,4,1,1,50,0,0
133170,375,5,1,1,50,1,0
148170,375,4,1,1,80,1,0
172170,-133.333333333333,4,1,1,60,0,0
175545,-133.333333333333,4,2,1,60,0,0
175920,-133.333333333333,4,1,1,60,0,0
176857,-133.333333333333,4,2,1,60,0,0
177045,-133.333333333333,4,1,1,60,0,0
177138,-133.333333333333,4,2,1,60,0,0
177701,-133.333333333333,4,1,1,60,0,0
177888,-133.333333333333,4,2,1,60,0,0
178076,-133.333333333333,4,1,1,60,0,0
178263,-133.333333333333,4,2,1,60,0,0
178451,-133.333333333333,4,1,1,60,0,0
178638,-133.333333333333,4,2,1,60,0,0
179201,-133.333333333333,4,1,1,60,0,0
179763,-133.333333333333,4,2,1,60,0,0
179951,-133.333333333333,4,1,1,60,0,0
180138,-133.333333333333,4,2,1,60,0,0
180701,-133.333333333333,4,1,1,60,0,0
181263,-133.333333333333,4,2,1,60,0,0
181451,-133.333333333333,4,1,1,60,0,0
181638,-133.333333333333,4,2,1,60,0,0
182201,-133.333333333333,4,1,1,60,0,0
184170,-100,4,1,1,80,0,0
184263,-100,4,2,1,70,0,0
194670,-100,4,1,1,60,0,0
196732,-100,4,2,1,60,0,0
196920,-100,4,1,1,60,0,0
197482,-100,4,2,1,60,0,0
197670,-100,4,1,1,60,0,0
197857,-100,4,2,1,60,0,0
198045,-100,4,1,1,60,0,0
198232,-100,4,2,1,60,0,0
198420,-100,4,1,1,60,0,0
199357,-100,4,2,1,60,0,0
199545,-100,4,1,1,60,0,0
199732,-100,4,2,1,60,0,0
199920,-100,4,1,1,60,0,0
200201,-100,4,2,1,60,0,0
200670,-100,4,1,1,60,0,0
200951,-100,4,2,1,60,0,0
201420,-100,4,1,1,60,0,0
201982,-100,4,2,1,60,0,0
202170,-100,4,1,1,60,0,0
202732,-100,4,2,1,60,0,0
202920,-100,4,1,1,60,0,0
203201,-100,4,2,1,60,0,0
203670,-100,4,1,1,60,0,0
204232,-100,4,2,1,60,0,0
204420,-100,4,1,1,60,0,0
204982,-100,4,2,1,60,0,0
205170,-100,4,1,1,60,0,0
205357,-100,4,2,1,60,0,0
205545,-100,4,1,1,60,0,0
205920,-100,4,1,1,60,0,0
206201,-100,4,2,1,60,0,0
206670,-100,4,1,1,60,0,0
208263,-100,4,2,1,60,0,0
212670,-100,4,1,1,60,0,1
213607,-100,4,1,1,60,0,1
213982,-100,4,2,1,60,0,1
214170,-100,4,1,1,60,0,1
214732,-100,4,2,1,60,0,1
214920,-100,4,1,1,60,0,1
215857,-100,4,2,1,60,0,1
216045,-100,4,1,1,60,0,1
216232,-100,4,2,1,60,0,1
216420,-100,4,1,1,60,0,1
217732,-100,4,2,1,60,0,1
217920,-100,4,1,1,60,0,1
218107,-100,4,2,1,60,0,1
218295,-100,4,1,1,60,0,1
218482,-100,4,2,1,60,0,1
218670,-100,4,1,1,60,0,1
218857,-100,4,2,1,60,0,1
219045,-100,4,1,1,60,0,1
232170,-100,4,2,1,60,0,0
237420,-100,4,1,1,60,0,0
238263,-100,4,1,1,40,0,0
238451,-100,4,2,1,60,0,0
239576,-100,4,1,1,40,0,0
239951,-100,4,2,1,60,0,0
241076,-100,4,1,1,40,0,0
241451,-100,4,2,1,60,0,0
242763,-100,4,1,1,40,0,0
243701,-100,4,1,1,70,0,0
244170,-100,4,2,1,70,0,0
244357,-100,4,2,1,65,0,0
244545,-100,4,2,1,60,0,0
244732,-100,4,2,1,55,0,0
244920,-100,4,2,1,50,0,0
245107,-100,4,2,1,45,0,0
245295,-100,4,2,1,40,0,0
245482,-100,4,2,1,35,0,0
245670,-100,4,2,1,30,0,0
245857,-100,4,2,1,25,0,0
246045,-100,4,2,1,20,0,0
246232,-100,4,2,1,15,0,0
246420,-100,4,2,1,10,0,0
246607,-100,4,2,1,5,0,0

[Colours]
Combo1 : 122,74,16
Combo2 : 221,43,123
Combo3 : 235,220,37
Combo4 : 205,163,18

[HitObjects]
144,188,7170,1,0,0:0:0
364,172,7920,1,0,0:0:0
144,188,8670,1,0,0:0:0
148,192,9045,1,0,0:0:0
152,196,9420,1,0,0:0:0
392,44,10170,5,2,0:0:0
420,132,10357,1,0,0:0:0
424,148,10451,1,0,0:0:0
428,164,10545,1,2,0:0:0
344,196,10732,1,0,0:0:0
348,212,10826,1,0,0:0:0
352,228,10920,1,0,0:0:0
332,348,11107,1,2,0:0:0
212,328,11295,1,0,0:0:0
232,208,11482,1,0,0:0:0
280,276,11670,5,2,0:0:0
160,256,11857,1,0,0:0:0
144,264,11951,1,0,0:0:0
128,272,12045,1,2,0:0:0
76,180,12232,1,0,0:0:0
84,160,12326,1,0,0:0:0
92,140,12420,1,0,0:0:0
104,48,12607,1,2,0:0:0
272,72,12795,1,0,0:0:0
164,188,12982,1,0,0:0:0
184,100,13170,5,2,0:0:0
264,168,13357,1,0,0:0:0
272,180,13451,1,0,0:0:0
280,192,13545,1,2,0:0:0
364,240,13732,1,0,0:0:0
376,232,13826,1,0,0:0:0
388,224,13920,1,0,0:0:0
440,152,14107,1,2,0:0:0
464,280,14295,1,0,0:0:0
436,140,14482,1,0,0:0:0
468,292,14670,5,2,0:0:0
380,344,14857,1,0,0:0:0
364,340,14951,1,0,0:0:0
348,336,15045,1,2,0:0:0
248,304,15232,1,0,0:0:0
96,336,15420,5,0,0:0:0
160,264,15607,1,0,0:0:0
148,240,15701,1,0,0:0:0
144,212,15795,1,0,0:0:0
148,184,15888,1,0,0:0:0
152,156,15982,1,0,0:0:0
148,128,16076,1,0,0:0:0
140,100,16170,5,4,0:0:0
432,100,22170,5,4,0:0:0
348,76,22357,1,2,0:0:0
264,92,22545,2,0,B|196:100|172:100,1,80,0|2,0:0|0:0,0:0:0
100,192,22920,2,0,B|108:276|124:356,1,160,2|0,0:0|0:0,0:0:0
208,332,23482,2,0,B|248:316|292:324,1,80,2|2,0:0|0:0,0:0:0
448,244,23857,2,0,B|408:260|364:252,1,80
280,208,24232,1,2,0:0:0
284,192,24326,1,0,0:0:0
288,176,24420,1,0,0:0:0
304,32,24607,1,0,0:0:0
376,160,24795,1,2,0:0:0
244,96,24982,1,0,0:0:0
388,72,25170,5,4,0:0:0
460,128,25357,2,0,B|484:216|432:300,1,160,2|2,0:0|0:0,0:0:0
216,340,25920,2,0,B|280:284|392:332,1,160,2|0,0:0|0:0,0:0:0
368,240,26482,1,2,0:0:0
372,244,26670,2,0,B|376:192|376:164,1,80,2|0,0:0|0:0,0:0:0
248,104,27045,2,0,B|244:156|244:184,1,80,0|2,0:0|0:0,0:0:0
248,192,27326,1,0,0:0:0
252,200,27420,1,0,0:0:0
288,292,27607,1,2,0:0:0
188,284,27795,1,0,0:0:0
372,244,27982,1,0,0:0:0
192,288,28170,6,0,B|152:284|112:284,1,80,4|2,0:0|0:0,0:0:0
168,180,28545,2,0,B|128:176|88:176,1,80,0|2,0:0|0:0,0:0:0
232,68,28920,2,0,B|160:64|72:64,1,160,2|0,0:0|0:0,0:0:0
20,128,29482,1,2,0:0:0
24,132,29670,2,0,B|28:180|32:216,1,80,2|0,0:0|0:0,0:0:0
120,252,30045,1,0,0:0:0
128,340,30232,1,2,0:0:0
128,340,30326,1,0,0:0:0
128,340,30420,1,0,0:0:0
44,304,30607,1,0,0:0:0
204,296,30795,1,2,0:0:0
320,308,30982,1,0,0:0:0
432,288,31170,5,4,0:0:0
436,292,31357,2,0,B|440:208|432:132,1,160,2|2,0:0|0:0,0:0:0
416,48,31920,1,2,0:0:0
420,52,32295,2,0,B|364:48|336:48,1,80,0|2,0:0|0:0,0:0:0
144,128,32670,2,2,B|124:88|140:32,1,80,2|0,0:0|0:0,0:0:0
192,212,33045,2,0,B|212:252|196:308,1,80,0|2,0:0|0:0,0:0:0
280,344,33420,1,0,0:0:0
372,324,33607,1,0,0:0:0
376,308,33701,1,0,0:0:0
380,288,33795,1,0,0:0:0
384,272,33888,1,0,0:0:0
388,256,33982,1,0,0:0:0
392,240,34076,1,0,0:0:0
396,224,34170,6,0,B|340:196|332:128|380:88,1,160,4|8,0:0|0:0,0:0:0
456,80,34732,2,0,B|292:96,1,160,2|2,0:0|0:0,0:0:0
128,48,35295,2,0,B|208:56,1,80,8|0,0:0|0:0,0:0:0
72,128,35670,2,0,B|36:216|100:276,1,160,2|8,0:0|0:0,0:0:0
224,252,36232,2,0,B|260:164|196:104,1,160,2|2,0:0|0:0,0:0:0
148,188,36795,1,8,0:0:0
148,188,36982,1,0,0:0:0
208,268,37170,6,0,B|372:248,1,160,2|8,0:0|0:0,0:0:0
380,112,37732,2,0,B|348:164|364:228|412:260,1,160,2|2,0:0|0:0,0:0:0
472,344,38295,2,0,B|496:304|480:260,1,80,8|0,0:0|0:0,0:0:0
368,352,38670,2,0,B|312:316|252:336,1,120,2|0,0:0|0:0,0:0:0
232,348,39045,1,8,0:0:0
104,324,39232,2,0,B|92:240|80:160,1,160,2|2,0:0|0:0,0:0:0
36,80,39795,1,4,0:0:0
132,88,39982,1,0,0:0:0
220,52,40170,6,0,B|261:48|308:44,1,80,4|0,0:0|0:0,0:0:0
384,68,40545,1,8,0:0:0
384,68,40732,2,0,B|368:164|448:204,1,160,2|2,0:0|0:0,0:0:0
428,288,41295,1,8,0:0:0
428,288,41482,1,0,0:0:0
428,288,41670,2,0,B|348:320,1,80,2|0,0:0|0:0,0:0:0
260,332,42045,1,8,0:0:0
260,332,42232,2,0,B|192:272|112:312,1,160,2|2,0:0|0:0,0:0:0
112,312,42795,2,0,B|100:228,1,80,8|0,0:0|0:0,0:0:0
60,116,43170,5,2,0:0:0
184,96,43357,1,0,0:0:0
320,112,43545,1,8,0:0:0
444,92,43732,2,0,B|488:172|432:244,1,160,2|2,0:0|0:0,0:0:0
376,352,44295,2,0,B|312:292|348:204,1,160,8|2,0:0|0:0,0:0:0
320,112,44857,1,0,0:0:0
240,60,45045,1,8,0:0:0
144,56,45232,1,0,0:0:0
144,56,45326,1,0,0:0:0
144,56,45420,1,0,0:0:0
56,92,45607,1,0,0:0:0
188,152,45795,1,4,0:0:0
188,152,46170,6,0,B|212:188|188:240,1,80,4|0,0:0|0:0,0:0:0
108,288,46545,1,8,0:0:0
108,288,46732,2,0,B|176:244|264:280,1,160,2|2,0:0|0:0,0:0:0
400,196,47295,2,0,B|432:288|358:338,1,160,8|2,0:0|0:0,0:0:0
104,104,48045,1,8,0:0:0
188,152,48232,1,2,0:0:0
276,112,48420,2,0,B|316:100|356:112,1,80,0|2,0:0|0:0,0:0:0
400,196,48795,2,0,B|360:208|320:196,1,80,8|0,0:0|0:0,0:0:0
348,304,49170,6,0,B|276:256|188:288,1,160,2|8,0:0|0:0,0:0:0
116,336,49732,2,0,B|76:264,1,80,2|0,0:0|0:0,0:0:0
100,140,50107,1,2,0:0:0
100,140,50295,2,0,B|144:208,1,80,8|0,0:0|0:0,0:0:0
194,285,50670,2,0,B|276:256|348:304,1,160,2|8,0:0|0:0,0:0:0
440,348,51232,2,0,B|412:288|452:232,1,120
440,216,51607,1,2,0:0:0
388,136,51795,1,4,0:0:0
404,40,51982,1,0,0:0:0
312,72,52170,6,0,B|272:144,2,80,4|0|8,0:0|0:0|0:0,0:0:0
200,192,52732,2,0,B|260:260|216:340,1,160,2|2,0:0|0:0,0:0:0
116,216,53295,2,0,B|96:180|112:136,1,80,8|0,0:0|0:0,0:0:0
188,28,53670,6,0,B|204:68|188:112,2,80,2|0|8,0:0|0:0|0:0,0:0:0
200,192,54232,2,0,B|272:140|352:188,1,160,2|2,0:0|0:0,0:0:0
444,168,54795,1,8,0:0:0
444,168,54982,1,0,0:0:0
416,260,55170,5,2,0:0:0
324,360,55357,1,0,0:0:0
280,232,55545,1,8,0:0:0
416,260,55732,2,0,B|416:176|408:96,1,160,2|2,0:0|0:0,0:0:0
316,44,56295,2,0,B|316:84|320:128,1,80,8|0,0:0|0:0,0:0:0
184,172,56670,5,4,0:0:0
176,316,56857,1,0,0:0:0
320,324,57045,1,4,0:0:0
328,180,57232,1,0,0:0:0
248,244,57420,5,0,0:0:0
252,248,57795,1,0,0:0:0
256,252,58170,6,0,B|304:256|336:260,1,80,4|2,0:0|0:0,0:0:0
408,184,58545,2,0,B|360:180|328:176,1,80,0|2,0:0|0:0,0:0:0
228,72,58920,6,0,B|232:120|236:152,1,80,0|2,0:0|0:0,0:0:0
160,224,59295,2,0,B|156:176|152:144,1,80,0|2,0:0|0:0,0:0:0
188,316,59670,6,0,B|268:308|340:300,1,120,0|0,0:0|0:0,0:0:0
320,308,60045,1,0,0:0:0
424,280,60232,1,2,0:0:0
332,204,60420,1,0,0:0:0
320,308,60607,1,2,0:0:0
320,308,60701,1,0,0:0:0
320,308,60795,1,0,0:0:0
432,180,60982,1,6,0:0:0
248,148,61170,6,0,B|204:144|204:144|176:120,1,80,0|2,0:0|0:0,0:0:0
136,36,61545,2,0,B|176:24|224:36,1,80,0|2,0:0|0:0,0:0:0
176,120,61920,6,0,B|172:164|172:164|148:192,1,80,0|2,0:0|0:0,0:0:0
60,232,62295,2,0,B|48:192|60:144,1,80,0|2,0:0|0:0,0:0:0
148,192,62670,6,0,B|216:200|280:208,1,120,0|0,0:0|0:0,0:0:0
272,220,63045,1,0,0:0:0
352,268,63232,2,0,B|336:312|364:352,1,80,2|4,0:0|0:0,0:0:0
436,300,63607,1,2,0:0:0
436,300,63701,1,0,0:0:0
436,300,63795,2,0,B|452:256|424:216,1,80,0|2,0:0|0:0,0:0:0
436,136,64170,5,4,0:0:0
440,128,64357,1,2,0:0:0
320,104,64545,5,0,0:0:0
324,108,64732,1,2,0:0:0
204,148,64920,5,0,0:0:0
208,152,65107,1,2,0:0:0
84,140,65295,5,0,0:0:0
76,144,65482,1,2,0:0:0
92,236,65670,6,0,B|72:304|116:356,1,120
112,352,66045,2,0,B|208:336,1,80,0|2,0:0|0:0,0:0:0
264,276,66420,1,0,0:0:0
284,360,66607,1,2,0:0:0
284,360,66701,1,0,0:0:0
284,360,66795,1,0,0:0:0
180,256,66982,1,2,0:0:0
332,224,67170,6,0,B|344:188|348:144,1,80,4|2,0:0|0:0,0:0:0
180,160,67545,2,0,B|168:196|164:240,1,80,4|2,0:0|0:0,0:0:0
408,248,67920,6,0,B|420:212|424:168,1,80,4|2,0:0|0:0,0:0:0
104,136,68295,2,0,B|92:172|88:216,1,80,4|2,0:0|0:0,0:0:0
72,300,68670,5,4,0:0:0
76,304,69045,1,0,0:0:0
80,308,69420,1,0,0:0:0
156,276,69607,1,0,0:0:0
256,264,69795,1,0,0:0:0
368,280,69982,1,0,0:0:0
372,284,70076,1,0,0:0:0
376,288,70170,5,4,0:0:0
444,232,70357,2,0,B|440:188|436:144,1,80,0|8,0:0|0:0,0:0:0
364,60,70732,1,0,0:0:0
444,48,70920,2,0,B|448:92|432:128|384:148|332:136,1,160,0|8,0:0|0:0,0:0:0
252,112,71482,1,0,0:0:0
156,104,71670,1,4,0:0:0
64,136,71857,1,0,0:0:0
64,136,71951,1,0,0:0:0
64,136,72045,2,0,B|68:184|72:220,1,80,8|0,0:0|0:0,0:0:0
212,272,72420,2,0,B|172:264|128:272,1,80
304,312,72795,2,0,B|344:320|388:312,1,80,8|0,0:0|0:0,0:0:0
368,224,73170,5,4,0:0:0
364,136,73357,1,0,0:0:0
444,100,73545,1,8,0:0:0
444,184,73732,5,0,0:0:0
284,180,73920,1,4,0:0:0
360,44,74107,1,0,0:0:0
364,136,74295,5,8,0:0:0
276,88,74482,1,0,0:0:0
196,136,74670,1,4,0:0:0
104,116,74857,1,0,0:0:0
108,120,74951,1,0,0:0:0
112,124,75045,2,0,B|68:120|32:136,1,80,8|0,0:0|0:0,0:0:0
136,212,75420,2,0,B|100:232|80:276,1,80,4|0,0:0|0:0,0:0:0
224,248,75795,2,0,B|216:292|236:332,1,80,8|0,0:0|0:0,0:0:0
340,280,76170,5,4,0:0:0
372,164,76357,1,0,0:0:0
256,132,76545,1,8,0:0:0
224,248,76732,1,0,0:0:0
224,248,76826,1,0,0:0:0
224,248,76920,1,0,0:0:0
296,208,77107,1,8,0:0:0
300,212,77295,1,8,0:0:0
136,48,77670,5,4,0:0:0
168,164,77857,1,0,0:0:0
52,196,78045,1,8,0:0:0
20,80,78232,1,0,0:0:0
20,80,78326,1,0,0:0:0
20,80,78420,1,0,0:0:0
92,120,78607,1,8,0:0:0
96,124,78795,1,8,0:0:0
316,60,79170,5,4,0:0:0
396,92,79357,2,0,B|400:132|384:180,1,80,0|8,0:0|0:0,0:0:0
300,196,79732,1,0,0:0:0
300,196,79826,1,0,0:0:0
300,196,79920,2,0,B|340:172|380:176,1,80,4|0,0:0|0:0,0:0:0
360,264,80295,2,0,B|320:288|280:284,1,80,8|0,0:0|0:0,0:0:0
212,224,80670,5,4,0:0:0
216,228,80857,2,0,B|200:180|188:148,1,80,0|4,0:0|0:0,0:0:0
116,264,81232,2,0,B|132:312|144:344,1,80,0|4,0:0|0:0,0:0:0
244,340,81607,1,0,0:0:0
264,332,81701,1,0,0:0:0
284,328,81795,1,0,0:0:0
304,328,81888,1,0,0:0:0
324,332,81982,1,0,0:0:0
344,328,82076,1,0,0:0:0
360,320,82170,6,0,B|420:264|408:168,1,160,4|8,0:0|0:0,0:0:0
240,128,82920,2,0,B|212:204,1,80
132,164,83295,1,8,0:0:0
248,112,83482,1,0,0:0:0
88,258,83670,6,0,B|88:216|120:188,1,80,4|0,0:0|0:0,0:0:0
260,264,84045,2,0,B|260:306|228:334,1,80,8|0,0:0|0:0,0:0:0
16,216,84420,2,0,B|40:136|96:76,1,160,8|12,0:0|0:0,0:0:0
272,80,85170,6,0,B|308:92|352:92,1,80
476,196,85545,2,0,B|436:192|396:204,1,80,8|0,0:0|0:0,0:0:0
152,244,85920,2,0,B|232:248|308:280,1,160,0|8,0:0|0:0,0:0:0
396,292,86482,1,8,0:0:0
248,184,86670,6,0,B|336:160,2,80,0|0|8,0:0|0:0|0:0,0:0:0
164,164,87232,1,0,0:0:0
76,156,87420,2,0,B|48:76,1,80
16,204,87795,2,0,B|64:272|44:356,1,160,0|4,0:0|0:0,0:0:0
124,320,88357,5,0,0:0:0
188,256,88545,2,0,B|232:264|256:292,1,80,8|0,0:0|0:0,0:0:0
428,292,88920,2,0,B|360:244|352:156,1,160,4|8,0:0|0:0,0:0:0
220,44,89670,6,0,B|152:84,1,80
64,88,90045,1,8,0:0:0
108,164,90232,1,0,0:0:0
20,168,90420,2,0,B|16:256|60:320,1,160,4|8,0:0|0:0,0:0:0
472,192,91170,6,0,B|432:152|432:80,1,120,4|0,0:0|0:0,0:0:0
436,64,91545,2,0,B|352:56,1,80,8|0,0:0|0:0,0:0:0
340,56,91826,1,0,0:0:0
324,56,91920,6,0,B|232:56,1,80,4|0,0:0|0:0,0:0:0
136,168,92295,2,0,B|220:168,1,80,8|0,0:0|0:0,0:0:0
412,284,92670,6,0,B|232:284,1,160,0|8,0:0|0:0,0:0:0
104,244,93232,2,0,B|120:332,2,80
52,172,93795,2,0,B|76:92|168:64,1,160,0|4,0:0|0:0,0:0:0
252,76,94357,6,0,B|348:60,1,80,0|8,0:0|0:0,0:0:0
456,188,94826,1,0,0:0:0
456,188,94920,1,0,0:0:0
392,248,95107,1,0,0:0:0
372,332,95295,1,8,0:0:0
108,336,95670,5,0,0:0:0
128,252,95857,2,0,B|136:184|104:128,2,120
472,208,97170,6,0,B|384:220|340:296,1,160,4|8,0:0|0:0,0:0:0
428,304,97732,2,0,B|388:232|304:212,1,160
220,236,98295,2,0,B|204:168|256:124|304:124,2,160,8|0|8,0:0|0:0|0:0,0:0:0
68,324,99420,5,2,0:0:0
60,300,99607,1,2,0:0:0
52,276,99795,2,0,B|80:188,1,80,8|0,0:0|0:0,0:0:0
52,44,100170,6,0,B|132:28|204:76,1,160,2|8,0:0|0:0,0:0:0
460,340,100920,2,0,B|380:356|308:308,1,160,0|8,0:0|0:0,0:0:0
440,192,101670,2,0,B|360:208,1,80
220,168,102045,2,0,B|312:148,2,80,8|0|0,0:0|0:0|0:0,0:0:0
152,112,102607,1,2,0:0:0
136,200,102795,2,0,B|96:268,1,80,8|2,0:0|0:0,0:0:0
4,272,103170,5,0,0:0:0
136,200,103357,1,2,0:0:0
136,348,103545,1,8,0:0:0
224,344,103732,2,0,B|304:332,1,80
372,276,104107,1,2,0:0:0
320,204,104295,2,0,B|360:136,1,80,8|0,0:0|0:0,0:0:0
452,132,104670,5,0,0:0:0
320,204,104857,1,2,0:0:0
320,56,105045,1,8,0:0:0
248,104,105232,2,0,B|164:116|92:76,1,160,2|2,0:0|0:0,0:0:0
164,112,105795,2,0,B|162:205|70:244,1,160,8|0,0:0|0:0,0:0:0
140,304,106357,5,2,0:0:0
32,168,106545,1,8,0:0:0
148,292,106732,2,0,B|236:284,1,80
312,312,107107,1,2,0:0:0
396,116,107295,2,0,B|316:144|292:232,1,160,8|12,0:0|0:0,0:0:0
380,248,107857,5,0,0:0:0
208,204,108045,1,8,0:0:0
380,248,108232,1,0,0:0:0
256,120,108420,5,0,0:0:0
240,104,108513,1,0,0:0:0
224,88,108607,1,0,0:0:0
208,72,108701,1,0,0:0:0
192,56,108795,6,0,B|144:48,1,40
128,60,108982,2,0,B|80:76,2,40,0|0|4,0:0|0:0|0:0,0:0:0
164,132,109357,5,0,0:0:0
68,216,109545,2,0,B|84:256|76:296,1,80,0|0,0:0|0:0,0:0:0
152,340,109920,2,0,B|236:332,1,80,8|0,0:0|0:0,0:0:0
168,256,110295,2,0,B|252:248,1,80,2|0,0:0|0:0,0:0:0
360,136,110670,2,0,B|308:204|348:288,1,160,2|2,0:0|0:0,0:0:0
440,168,111232,1,0,0:0:0
440,168,111420,2,0,B|464:132|452:84,1,80,8|0,0:0|0:0,0:0:0
372,44,111795,1,4,0:0:0
372,44,112170,6,0,B|328:32|288:48,1,80,4|0,0:0|0:0,0:0:0
220,136,112545,2,0,B|264:148|304:132,1,80
200,112,112920,2,0,B|156:100|116:116,1,80,8|0,0:0|0:0,0:0:0
48,204,113295,2,0,B|92:216|132:200,1,80,2|0,0:0|0:0,0:0:0
212,220,113670,2,0,B|220:348,1,120,2|0,0:0|0:0,0:0:0
232,356,114045,1,2,0:0:0
304,248,114232,1,0,0:0:0
304,248,114420,2,0,B|292:88,1,160,8|0,0:0|0:0,0:0:0
52,240,115170,5,4,0:0:0
152,212,115357,1,0,0:0:0
176,312,115545,1,0,0:0:0
76,340,115732,1,0,0:0:0
52,240,115920,2,0,B|84:184|48:120,1,120,8|0,0:0|0:0,0:0:0
36,120,116295,2,0,B|128:100,1,80,2|0,0:0|0:0,0:0:0
264,44,116670,2,0,B|252:92|212:104,1,80
320,192,117045,2,0,B|280:212|236:196,1,80,2|0,0:0|0:0,0:0:0
344,336,117420,2,0,B|256:352|196:284,1,160,8|4,0:0|0:0,0:0:0
76,80,118170,6,0,B|136:144|100:236,1,160,4|0,0:0|0:0,0:0:0
36,284,118732,1,0,0:0:0
36,284,118920,2,0,B|88:248|156:280,1,120,8|0,0:0|0:0,0:0:0
156,296,119295,2,0,B|228:256,1,80,4|0,0:0|0:0,0:0:0
244,344,119670,2,0,B|412:316,1,160,4|0,0:0|0:0,0:0:0
372,184,120420,6,0,B|308:160|256:180|256:204|196:216|140:184,1,239.999992847443,0|6,0:0|0:0,0:0:0
56,120,121357,5,0,0:0:0
152,80,121545,1,2,0:0:0
140,184,121732,2,2,B|196:256|148:356,1,160,2|2,0:0|0:0,0:0:0
156,336,122295,2,0,B|240:356,1,80,0|0,0:0|0:0,0:0:0
312,312,122670,2,0,B|352:324|396:308,1,80,0|0,0:0|0:0,0:0:0
436,220,123045,2,0,B|396:208|356:224,1,80,2|0,0:0|0:0,0:0:0
256,148,123420,2,0,B|241:189|261:225,1,80,2|0,0:0|0:0,0:0:0
344,128,123795,1,2,0:0:0
344,128,124170,6,0,B|360:88|340:48,1,80,4|0,0:0|0:0,0:0:0
252,56,124545,1,2,0:0:0
256,148,124732,2,2,B|216:224|264:300,1,160,2|2,0:0|0:0,0:0:0
264,300,125295,2,0,B|188:340,1,80
84,344,125670,1,0,0:0:0
36,252,125857,1,0,0:0:0
144,260,126045,1,2,0:0:0
88,284,126232,1,0,0:0:0
120,168,126420,1,2,0:0:0
208,252,126607,1,0,0:0:0
140,236,126795,6,2,B|176:192|208:188|240:184|264:132,1,160,2|6,0:0|0:0,0:0:0
256,48,127357,1,0,0:0:0
168,48,127545,1,2,0:0:0
152,136,127732,2,2,B|173:183|205:187|237:191|273:235,1,160,2|2,0:0|0:0,0:0:0
336,344,128295,2,0,B|360:312|356:264,1,80
340,180,128670,2,0,B|424:180,1,80,0|0,0:0|0:0,0:0:0
256,92,129045,2,0,B|336:92,1,80,2|0,0:0|0:0,0:0:0
188,244,129420,2,0,B|284:244,1,80,2|0,0:0|0:0,0:0:0
340,180,129795,1,2,0:0:0
48,120,130170,6,0,B|40:164|64:196,1,80,4|2,0:0|0:0,0:0:0
136,120,130545,2,0,B|144:76|120:40,1,80,2|0,0:0|0:0,0:0:0
164,220,130920,1,2,0:0:0
152,324,131107,1,0,0:0:0
256,336,131295,1,2,0:0:0
268,232,131482,1,2,0:0:0
212,280,131670,2,2,B|372:300,1,160,0|2,0:0|0:0,0:0:0
488,224,132232,2,2,B|329:204,1,160,0|2,0:0|0:0,0:0:0
244,220,132795,1,0,0:0:0
176,164,132982,1,0,0:0:0
260,136,133170,5,4,0:0:0
116,116,148170,6,0,B|92:204|160:260,1,160,4|8,0:0|0:0,0:0:0
184,336,148732,1,0,0:0:0
296,288,148920,1,0,0:0:0
408,236,149107,1,0,0:0:0
336,140,149295,6,0,B|279:196,1,80,8|0,0:0|0:0,0:0:0
372,272,149670,2,0,B|455:248|475:161,1,160,4|0,0:0|0:0,0:0:0
336,140,150232,1,0,0:0:0
312,16,150420,2,0,B|228:39|208:126,1,160,8|0,0:0|0:0,0:0:0
128,192,150982,1,0,0:0:0
326,351,151170,6,0,B|300:264|224:236,1,160,8|0,0:0|0:0,0:0:0
128,192,151732,2,0,B|88:180|68:140,1,80,0|8,0:0|0:0,0:0:0
12,88,152107,1,0,0:0:0
88,64,152295,6,0,B|196:36,1,80,4|0,0:0|0:0,0:0:0
352,104,152670,2,0,B|276:124,1,80,8|0,0:0|0:0,0:0:0
112,272,153045,2,0,B|268:228,1,160,0|8,0:0|0:0,0:0:0
364,268,153607,1,0,0:0:0
420,180,153795,1,8,0:0:0
420,180,153982,1,0,0:0:0
214,173,154170,6,0,B|305:169|352:104,1,160,12|0,0:0|0:0,0:0:0
160,124,154732,2,0,B|225:170|229:261,1,160,4|0,0:0|0:0,0:0:0
209,70,155295,2,0,B|162:135|72:140,1,160,12|0,0:0|0:0,0:0:0
140,216,155857,1,8,0:0:0
200,336,156045,6,0,B|195:294|215:258,1,80,8|0,0:0|0:0,0:0:0
331,141,156420,2,0,B|335:182|315:218,1,80,4|0,0:0|0:0,0:0:0
120,356,156795,2,0,B|111:273|151:201,1,160,8|0,0:0|0:0,0:0:0
84,120,157357,2,0,B|160:100,1,80,0|8,0:0|0:0,0:0:0
232,176,157732,5,0,0:0:0
160,100,157920,1,0,0:0:0
236,32,158107,1,0,0:0:0
308,108,158295,2,0,B|412:116,1,80,8|0,0:0|0:0,0:0:0
476,168,158670,5,0,0:0:0
468,180,158763,1,0,0:0:0
460,192,158857,1,0,0:0:0
452,204,158951,1,0,0:0:0
444,216,159045,1,8,0:0:0
368,288,159232,2,0,B|288:304,2,80,8|4|0,0:0|0:0|0:0,0:0:0
296,212,159795,5,8,0:0:0
280,208,159888,1,0,0:0:0
264,208,159982,1,0,0:0:0
248,212,160076,1,0,0:0:0
232,216,160170,1,8,0:0:0
132,204,160357,1,0,0:0:0
59,65,160545,6,0,B|44:100|48:144,1,80,4|0,0:0|0:0,0:0:0
120,282,160920,2,0,B|135:247|132:204,1,80
48,60,161295,2,0,B|136:72,1,80,8|0,0:0|0:0,0:0:0
132,288,161670,2,0,B|48:272,1,80
92,176,162045,1,8,0:0:0
148,296,162232,6,0,B|224:272|312:284,1,160,4|0,0:0|0:0,0:0:0
364,88,162795,2,0,B|288:112|200:100,1,160,12|0,0:0|0:0,0:0:0
104,76,163357,1,0,0:0:0
92,176,163545,1,8,0:0:0
192,204,163732,2,0,B|272:216|360:192,1,160,4|0,0:0|0:0,0:0:0
452,172,164295,2,0,B|416:260,1,80,12|0,0:0|0:0,0:0:0
324,280,164670,5,4,0:0:0
160,312,164857,1,0,0:0:0
132,156,165045,1,8,0:0:0
296,124,165232,1,0,0:0:0
228,216,165420,5,0,0:0:0
64,248,165607,1,0,0:0:0
36,92,165795,1,8,0:0:0
200,60,165982,1,0,0:0:0
424,28,166170,6,0,B|392:104,1,80
448,192,166545,2,0,B|412:192|368:220|360:268|372:308,1,160,4|0,0:0|0:0,0:0:0
304,228,167107,1,0,0:0:0
444,272,167295,1,8,0:0:0
300,220,167482,2,0,B|228:188|144:192,1,160
53,116,168045,6,0,B|32:40,1,80,8|0,0:0|0:0,0:0:0
172,32,168420,2,0,B|193:108,1,80
336,132,168795,2,0,B|312:56,1,80,8|0,0:0|0:0,0:0:0
432,130,169170,6,0,B|476:284,1,160,4|8,0:0|0:0,0:0:0
79,253,169920,2,0,B|36:100,1,160,8|4,0:0|0:0,0:0:0
292,156,170670,5,4,0:0:0
220,232,170857,1,0,0:0:0
324,268,171045,1,4,0:0:0
187,123,171232,1,0,0:0:0
407,191,171420,1,4,0:0:0
96,183,171607,1,0,0:0:0
256,192,171795,5,0,0:0:0
260,184,171888,1,0,0:0:0
264,196,171982,1,0,0:0:0
252,200,172076,1,0,0:0:0
248,188,172170,5,4,0:0:0
132,156,172545,1,0,0:0:0
165,40,172920,1,0,0:0:0
279,73,173295,1,0,0:0:0
248,188,173670,5,0,0:0:0
216,302,174045,1,0,0:0:0
330,335,174420,1,0,0:0:0
364,220,174795,1,0,0:0:0
340,68,175170,6,0,B|280:44|256:72|232:100|160:64,2,179.999994635582,0|2|0,0:0|0:0|0:0,0:0:0
432,176,176670,2,0,B|452:232|416:284,1,89.9999973177911,0|0,0:0|0:0,0:0:0
420,272,177045,1,0,0:0:0
344,312,177232,2,0,B|284:316|224:320,1,119.999996423721,2|2,0:0|0:0,0:0:0
140,320,177795,1,0,0:0:0
144,324,177982,1,0,0:0:0
148,328,178170,6,0,B|144:296|144:264,1,59.9999982118607,0|2,0:0|0:0,0:0:0
64,176,178545,2,0,B|68:208|68:240,1,59.9999982118607,0|2,0:0|0:0,0:0:0
252,140,179107,1,2,0:0:0
256,144,179295,1,0,0:0:0
452,64,179670,6,0,B|416:56|388:68,1,59.9999982118607,0|2,0:0|0:0,0:0:0
356,156,180045,2,0,B|392:164|420:152,1,59.9999982118607,0|2,0:0|0:0,0:0:0
252,224,180607,1,2,0:0:0
256,228,180795,1,0,0:0:0
304,52,181170,5,0,0:0:0
204,52,181357,1,2,0:0:0
312,60,181545,1,0,0:0:0
196,60,181732,1,2,0:0:0
256,308,182107,1,2,0:0:0
260,312,182295,1,0,0:0:0
96,88,182670,5,4,0:0:0
120,176,182857,1,0,0:0:0
120,176,182951,1,0,0:0:0
120,176,183045,1,0,0:0:0
216,200,183232,1,0,0:0:0
144,264,183420,1,4,0:0:0
228,204,183607,1,0,0:0:0
240,208,183701,1,0,0:0:0
252,208,183795,1,0,0:0:0
264,212,183888,1,0,0:0:0
276,212,183982,1,0,0:0:0
288,216,184076,1,0,0:0:0
300,220,184170,6,0,B|296:264|320:304,1,80,4|0,0:0|0:0,0:0:0
392,244,184545,1,8,0:0:0
392,244,184732,2,0,B|400:156|344:80,1,160,0|0,0:0|0:0,0:0:0
268,40,185295,2,0,B|224:40|192:60,1,80,8|0,0:0|0:0,0:0:0
100,36,185670,2,0,B|84:80|100:124,1,80,2|0,0:0|0:0,0:0:0
36,192,186045,1,8,0:0:0
36,192,186232,2,0,B|108:240|212:204,1,160,2|2,0:0|0:0,0:0:0
264,160,186795,1,8,0:0:0
356,136,186982,1,0,0:0:0
440,176,187170,6,0,B|388:236|412:328,1,160,0|8,0:0|0:0,0:0:0
492,344,187732,2,0,B|396:348|320:352,1,160,0|0,0:0|0:0,0:0:0
268,288,188295,2,0,B|280:248|264:204,1,80,8|0,0:0|0:0,0:0:0
68,260,188670,2,0,B|204:244,1,120
184,260,189045,2,0,B|172:300|188:344,1,80,10|0,0:0|0:0,0:0:0
268,288,189420,2,0,B|348:280,1,80,0|2,0:0|0:0,0:0:0
176,168,189795,2,0,B|96:176,1,80,8|6,0:0|0:0,0:0:0
68,88,190170,5,0,0:0:0
168,72,190357,1,2,0:0:0
264,88,190545,1,8,0:0:0
360,72,190732,1,0,0:0:0
252,272,191107,1,2,0:0:0
256,276,191295,1,8,0:0:0
436,184,191670,5,0,0:0:0
336,168,191857,1,2,0:0:0
240,184,192045,1,8,0:0:0
144,168,192232,1,0,0:0:0
256,352,192607,1,2,0:0:0
260,356,192795,1,8,0:0:0
336,168,193170,6,0,B|332:212|360:252,1,80,0|2,0:0|0:0,0:0:0
440,192,193545,1,8,0:0:0
404,96,193732,2,0,B|320:56|252:116,1,160,0|2,0:0|0:0,0:0:0
156,104,194295,1,8,0:0:0
76,152,194482,1,0,0:0:0
80,164,194576,1,0,0:0:0
84,176,194670,5,4,0:0:0
68,280,194857,1,0,0:0:0
72,284,195045,1,8,0:0:0
172,248,195232,1,0,0:0:0
188,252,195326,1,0,0:0:0
204,256,195420,1,0,0:0:0
300,312,195607,1,0,0:0:0
300,208,195795,1,8,0:0:0
312,188,195888,1,0,0:0:0
324,168,195982,1,0,0:0:0
336,148,196076,1,0,0:0:0
348,132,196170,6,0,B|292:64|204:80,1,160,4|0,0:0|0:0,0:0:0
104,52,196732,1,0,0:0:0
124,156,196920,2,0,B|92:200|88:268|120:308,1,160,8|0,0:0|0:0,0:0:0
196,236,197482,2,0,B|280:244,1,80
396,200,197857,1,0,0:0:0
324,304,198045,1,0,0:0:0
320,176,198232,1,0,0:0:0
400,276,198420,2,0,B|456:332,2,80,8|8|8,0:0|0:0|0:0,0:0:0
40,128,199170,1,4,0:0:0
116,60,199357,5,0,0:0:0
144,160,199545,2,0,B|132:204|92:224,1,80
216,92,199920,2,0,B|260:48|328:64,2,120,8|0|0,0:0|0:0|0:0,0:0:0
240,192,200670,2,0,B|304:212|312:280,2,120,8|0|0,0:0|0:0|0:0,0:0:0
204,292,201420,1,8,0:0:0
100,276,201607,1,0,0:0:0
92,268,201701,1,0,0:0:0
84,260,201795,2,0,B|72:220|88:180,1,80
376,144,202170,6,0,B|406:221|382:301,1,160,4|0,0:0|0:0,0:0:0
292,252,202732,1,0,0:0:0
264,152,202920,2,0,B|236:88|164:104,2,120,8|0|0,0:0|0:0|0:0,0:0:0
176,208,203670,1,8,0:0:0
76,228,203857,1,8,0:0:0
76,232,203951,1,0,0:0:0
76,236,204045,1,0,0:0:0
144,308,204232,1,0,0:0:0
402,286,204420,6,0,B|328:264|244:284,1,160,4|8,0:0|0:0,0:0:0
324,348,204982,1,0,0:0:0
320,156,205170,1,4,0:0:0
416,120,205357,2,0,B|404:76|364:64,1,80,0|8,0:0|0:0,0:0:0
248,208,205732,1,0,0:0:0
88,260,205920,2,0,B|96:328|152:356,2,120,8|0|0,0:0|0:0|0:0,0:0:0
344,232,206670,6,0,B|332:144|260:104,2,160,8|0|4,0:0|0:0|0:0,0:0:0
440,268,207607,1,0,0:0:0
260,292,207795,1,8,0:0:0
456,192,207982,1,8,0:0:0
228,224,208170,6,0,B|156:256|72:232,1,160,4|0,0:0|0:0,0:0:0
148,40,208920,2,0,B|132:160,2,120,2|2|0,0:0|0:0|0:0,0:0:0
248,72,209670,2,0,B|236:192,2,120,2|2|0,0:0|0:0|0:0,0:0:0
352,88,210420,2,0,B|340:256,1,160,2|0,0:0|0:0,0:0:0
136,284,211170,6,0,B|68:288|48:352,2,120,2|2|0,0:0|0:0|0:0,0:0:0
232,324,211920,2,0,B|308:292|392:312,1,160,2|0,0:0|0:0,0:0:0
472,248,212482,1,2,0:0:0
376,212,212670,5,4,0:0:0
304,132,212920,1,4,0:0:0
212,184,213170,1,4,0:0:0
144,104,213420,1,4,0:0:0
60,156,213607,5,8,0:0:0
56,168,213701,1,8,0:0:0
52,180,213795,2,0,B|44:228|60:260,1,80,8|0,0:0|0:0,0:0:0
280,320,214170,6,0,B|301:232|265:164,1,160,8|8,0:0|0:0,0:0:0
164,140,214732,1,0,0:0:0
204,236,214920,2,0,B|364:212,2,160,0|8|0,0:0|0:0|0:0,0:0:0
136,316,215857,6,0,B|56:320,1,80,0|8,0:0|0:0,0:0:0
92,192,216232,1,0,0:0:0
20,80,216420,2,0,B|96:36|172:80,1,160,8|4,0:0|0:0,0:0:0
380,72,217170,6,0,B|384:152|400:244,1,160,4|8,0:0|0:0,0:0:0
436,328,217732,1,0,0:0:0
336,304,217920,2,0,B|252:320,1,80
68,256,218295,2,0,B|156:236,1,80,8|0,0:0|0:0,0:0:0
296,80,218670,2,0,B|216:96,1,80
28,180,219045,5,4,0:0:0
308,168,219232,1,0,0:0:0
72,340,219420,1,4,0:0:0
244,320,219607,1,8,0:0:0
236,316,219701,1,8,0:0:0
228,312,219795,1,8,0:0:0
220,308,219888,1,0,0:0:0
212,304,219982,1,0,0:0:0
204,300,220076,1,0,0:0:0
196,296,220170,6,0,B|168:212|216:144,1,160,4|8,0:0|0:0,0:0:0
204,52,220732,1,0,0:0:0
292,84,220920,2,0,B|312:128|288:172,1,80
104,264,221295,2,0,B|84:224|112:176,1,80,8|0,0:0|0:0,0:0:0
368,160,221670,2,0,B|244:192,1,120,0|0,0:0|0:0,0:0:0
244,204,222045,1,8,0:0:0
116,136,222232,1,0,0:0:0
96,280,222420,2,0,B|256:304,1,160,0|8,0:0|0:0,0:0:0
368,160,223170,6,0,B|380:76,1,80,4|0,0:0|0:0,0:0:0
240,36,223545,1,8,0:0:0
124,72,223732,1,0,0:0:0
164,188,223920,1,0,0:0:0
276,144,224107,1,0,0:0:0
200,108,224295,1,8,0:0:0
200,108,224482,1,0,0:0:0
140,328,224670,6,0,B|128:244,1,80,4|0,0:0|0:0,0:0:0
268,204,225045,1,8,0:0:0
384,240,225232,1,0,0:0:0
344,356,225420,1,0,0:0:0
232,312,225607,1,0,0:0:0
308,272,225795,1,0,0:0:0
308,256,225888,1,0,0:0:0
312,244,225982,1,0,0:0:0
320,232,226076,1,0,0:0:0
332,224,226170,6,0,B|340:136,1,80,4|0,0:0|0:0,0:0:0
256,28,226545,2,0,B|244:156,1,120,8|0,0:0|0:0,0:0:0
248,164,226920,2,0,B|204:152|164:180,1,80
140,264,227295,2,0,B|188:272|224:244,1,80,8|0,0:0|0:0,0:0:0
84,196,227670,1,4,0:0:0
36,312,227857,1,0,0:0:0
164,292,228045,2,0,B|232:304|284:264,1,120,8|0,0:0|0:0,0:0:0
300,272,228420,2,0,B|284:192,1,80
112,104,228795,2,0,B|208:116,1,80,8|0,0:0|0:0,0:0:0
316,80,229170,5,4,0:0:0
340,172,229357,1,0,0:0:0
248,200,229545,1,8,0:0:0
220,108,229732,1,0,0:0:0
396,108,229920,5,4,0:0:0
312,252,230107,1,0,0:0:0
168,176,230295,1,8,0:0:0
248,28,230482,1,0,0:0:0
280,140,230670,6,0,B|120:148,1,160,4|8,0:0|0:0,0:0:0
36,124,231232,1,0,0:0:0
36,124,231326,1,0,0:0:0
36,124,231420,1,0,0:0:0
60,208,231607,1,0,0:0:0
60,208,231795,1,8,0:0:0
408,284,232170,5,4,0:0:0
356,104,237420,5,0,0:0:0
360,108,237795,1,0,0:0:0
364,112,238170,5,4,0:0:0
380,208,238357,1,0,0:0:0
288,236,238545,2,0,B|228:208|168:256,1,120,8|0,0:0|0:0,0:0:0
168,264,238920,2,0,B|128:192,1,80,2|0,0:0|0:0,0:0:0
32,120,239295,2,0,B|39:199,1,80,8|0,0:0|0:0,0:0:0
48,296,239670,5,0,0:0:0
124,352,239857,1,0,0:0:0
216,328,240045,2,0,B|268:288|328:316,1,120,8|0,0:0|0:0,0:0:0
340,328,240420,2,0,B|372:248,1,80,2|0,0:0|0:0,0:0:0
464,180,240795,2,0,B|456:264,1,80,8|0,0:0|0:0,0:0:0
360,144,241170,5,0,0:0:0
440,72,241357,1,0,0:0:0
368,156,241545,2,0,B|248:168,1,120,8|0,0:0|0:0,0:0:0
236,176,241920,1,2,0:0:0
236,176,242107,1,0,0:0:0
168,276,242295,2,0,B|335:260,1,160,8|4,0:0|0:0,0:0:0
440,180,242857,5,0,0:0:0
428,200,242951,1,0,0:0:0
420,224,243045,1,0,0:0:0
416,248,243138,1,0,0:0:0
412,272,243232,1,0,0:0:0
404,296,243326,1,0,0:0:0
392,316,243420,1,0,0:0:0
152,172,243795,5,4,0:0:0
256,192,244076,12,0,254670,0:0:0
