osu file format v12

[General]
AudioFilename: ichigo - miku miku shite ageru.mp3
AudioLeadIn: 0
PreviewTime: 33772
Countdown: 0
SampleSet: Normal
StackLeniency: 0.7
Mode: 1
LetterboxInBreaks: 0
WidescreenStoryboard: 0

[Editor]
DistanceSpacing: 0.1
BeatDivisor: 4
GridSize: 32

[Metadata]
Title:Miku Miku ni shite ageru
TitleUnicode:みくみくにしてあげる♪
Artist:ichigo
ArtistUnicode:ichigo
Creator:spboxer3
Version:Inner Oni
Source:
Tags:vocaloid Hatsune_miku
BeatmapID:302673
BeatmapSetID:117485

[Difficulty]
HPDrainRate:5
CircleSize:4
OverallDifficulty:5
ApproachRate:5
SliderMultiplier:1.4
SliderTickRate:1

[Events]
//Background and Video events
0,0,"Taiko BG.jpg",0,-50
//Break Periods
//Storyboard Layer 0 (Background)
//Storyboard Layer 1 (Fail)
//Storyboard Layer 2 (Pass)
//Storyboard Layer 3 (Foreground)
//Storyboard Sound Samples
//Background Colour Transformations
3,100,163,162,255

[TimingPoints]
772,352.941176470588,4,1,0,100,1,0
23448,-105.263157894737,4,1,0,100,0,0
29095,-100,4,1,0,100,0,0
34654,-95.2380952380952,4,1,0,100,0,1
45948,-95.2380952380952,4,1,0,100,0,0
46036,-100,4,1,0,100,0,0
56977,-102.040816326531,4,1,0,100,0,0
57242,-105.263157894737,4,1,0,70,0,0
62889,-102.040816326531,4,1,0,80,0,0
65713,-102.040816326531,4,1,0,90,0,0
69948,-90.9090909090909,4,1,0,100,0,1
92536,-90.9090909090909,4,1,0,100,0,0
92889,-100,4,1,0,100,0,0

[HitObjects]
256,192,67,1,0,0:0:0:0:
256,192,155,1,0,0:0:0:0:
256,192,243,1,0,0:0:0:0:
256,192,331,1,0,0:0:0:0:
256,192,419,1,0,0:0:0:0:
256,192,508,1,0,0:0:0:0:
256,192,596,1,0,0:0:0:0:
256,192,684,1,0,0:0:0:0:
256,192,772,1,8,0:0:0:0:
256,192,1124,1,8,0:0:0:0:
256,192,1301,1,8,0:0:0:0:
256,192,1654,1,0,0:0:0:0:
256,192,1830,1,8,0:0:0:0:
256,192,2007,1,8,0:0:0:0:
256,192,2360,1,0,0:0:0:0:
256,192,2536,1,8,0:0:0:0:
256,192,2713,1,0,0:0:0:0:
256,192,2889,1,8,0:0:0:0:
256,192,3066,1,4,0:0:0:0:
256,192,3242,1,4,0:0:0:0:
256,192,3419,1,0,0:0:0:0:
256,192,3507,1,0,0:0:0:0:
256,192,3595,1,8,0:0:0:0:
256,192,3948,1,8,0:0:0:0:
256,192,4124,1,8,0:0:0:0:
256,192,4477,1,8,0:0:0:0:
256,192,4654,1,0,0:0:0:0:
256,192,4830,1,8,0:0:0:0:
256,192,5183,1,0,0:0:0:0:
256,192,5360,1,8,0:0:0:0:
256,192,5536,1,0,0:0:0:0:
256,192,5624,1,0,0:0:0:0:
256,192,5713,1,8,0:0:0:0:
256,192,5889,1,0,0:0:0:0:
256,192,6066,1,8,0:0:0:0:
256,192,6154,1,8,0:0:0:0:
256,192,6242,1,0,0:0:0:0:
256,192,6330,1,0,0:0:0:0:
256,192,6419,1,8,0:0:0:0:
256,192,6595,1,0,0:0:0:0:
256,192,6771,1,8,0:0:0:0:
256,192,6948,1,8,0:0:0:0:
256,192,7301,1,0,0:0:0:0:
256,192,7477,1,8,0:0:0:0:
256,192,7654,1,8,0:0:0:0:
256,192,8007,1,0,0:0:0:0:
256,192,8183,1,8,0:0:0:0:
256,192,8360,1,0,0:0:0:0:
256,192,8536,1,8,0:0:0:0:
256,192,8713,1,4,0:0:0:0:
256,192,8889,1,4,0:0:0:0:
256,192,9066,1,0,0:0:0:0:
256,192,9154,1,0,0:0:0:0:
256,192,9242,1,8,0:0:0:0:
256,192,9419,1,0,0:0:0:0:
256,192,9595,1,8,0:0:0:0:
256,192,9771,1,8,0:0:0:0:
256,192,10124,1,0,0:0:0:0:
256,192,10301,1,8,0:0:0:0:
256,192,10477,1,8,0:0:0:0:
256,192,10830,1,8,0:0:0:0:
256,192,11007,1,8,0:0:0:0:
256,192,11183,1,0,0:0:0:0:
256,192,11360,1,8,0:0:0:0:
256,192,11536,1,0,0:0:0:0:
256,192,11713,1,8,0:0:0:0:
256,192,11801,1,8,0:0:0:0:
256,192,11889,1,8,0:0:0:0:
256,192,11977,1,8,0:0:0:0:
256,192,12066,1,0,0:0:0:0:
256,192,12242,1,0,0:0:0:0:
256,192,12419,1,8,0:0:0:0:
256,192,12595,1,0,0:0:0:0:
256,192,12948,1,0,0:0:0:0:
256,192,13124,1,8,0:0:0:0:
256,192,13477,1,0,0:0:0:0:
256,192,13654,1,0,0:0:0:0:
256,192,13830,1,8,0:0:0:0:
256,192,14007,1,0,0:0:0:0:
256,192,14360,1,8,0:0:0:0:
256,192,14536,1,8,0:0:0:0:
256,192,14889,1,0,0:0:0:0:
256,192,15066,1,0,0:0:0:0:
256,192,15242,1,8,0:0:0:0:
256,192,15419,1,0,0:0:0:0:
256,192,15771,1,0,0:0:0:0:
256,192,15948,1,8,0:0:0:0:
256,192,16301,1,0,0:0:0:0:
256,192,16654,1,8,0:0:0:0:
256,192,16830,1,0,0:0:0:0:
256,192,17183,1,8,0:0:0:0:
256,192,17271,1,8,0:0:0:0:
256,192,17360,1,0,0:0:0:0:
256,192,17536,1,8,0:0:0:0:
256,192,17713,1,0,0:0:0:0:
256,192,17889,1,0,0:0:0:0:
256,192,18066,1,8,0:0:0:0:
256,192,18242,1,0,0:0:0:0:
256,192,18595,1,0,0:0:0:0:
256,192,18771,1,8,0:0:0:0:
256,192,19124,1,0,0:0:0:0:
256,192,19301,1,0,0:0:0:0:
256,192,19477,1,8,0:0:0:0:
256,192,19654,1,0,0:0:0:0:
256,192,20007,1,8,0:0:0:0:
256,192,20183,1,8,0:0:0:0:
256,192,20536,1,0,0:0:0:0:
256,192,20713,1,0,0:0:0:0:
256,192,20889,1,8,0:0:0:0:
256,192,21066,1,0,0:0:0:0:
256,192,21419,1,0,0:0:0:0:
256,192,21595,1,8,0:0:0:0:
256,192,21948,1,0,0:0:0:0:
256,192,22301,1,8,0:0:0:0:
256,192,22477,1,0,0:0:0:0:
256,192,22654,1,8,0:0:0:0:
256,192,22742,1,8,0:0:0:0:
256,192,22830,1,0,0:0:0:0:
256,192,23007,1,8,0:0:0:0:
256,192,23183,1,8,0:0:0:0:
256,192,23360,1,0,0:0:0:0:
256,192,23713,1,0,0:0:0:0:
256,192,24066,1,0,0:0:0:0:
256,192,24419,1,0,0:0:0:0:
256,192,24595,1,8,0:0:0:0:
256,192,24771,1,0,0:0:0:0:
256,192,24948,1,8,0:0:0:0:
256,192,25124,1,0,0:0:0:0:
256,192,25477,1,8,0:0:0:0:
256,192,25654,1,8,0:0:0:0:
256,192,26007,1,8,0:0:0:0:
256,192,26183,1,0,0:0:0:0:
256,192,26536,1,0,0:0:0:0:
256,192,26889,1,0,0:0:0:0:
256,192,27242,1,0,0:0:0:0:
256,192,27419,1,8,0:0:0:0:
256,192,27595,1,0,0:0:0:0:
256,192,27771,1,8,0:0:0:0:
256,192,27948,1,0,0:0:0:0:
256,192,28301,1,8,0:0:0:0:
256,192,28477,1,8,0:0:0:0:
256,192,28654,1,0,0:0:0:0:
256,192,28742,1,0,0:0:0:0:
256,192,28830,1,8,0:0:0:0:
256,192,29007,1,0,0:0:0:0:
256,192,29360,1,8,0:0:0:0:
256,192,29536,1,0,0:0:0:0:
256,192,29889,1,0,0:0:0:0:
256,192,29977,1,0,0:0:0:0:
256,192,30066,1,8,0:0:0:0:
256,192,30242,1,8,0:0:0:0:
256,192,30419,1,0,0:0:0:0:
256,192,30771,1,8,0:0:0:0:
256,192,30948,1,0,0:0:0:0:
256,192,31301,1,0,0:0:0:0:
256,192,31389,1,0,0:0:0:0:
256,192,31477,1,8,0:0:0:0:
256,192,31654,1,8,0:0:0:0:
256,192,31830,1,0,0:0:0:0:
256,192,32007,1,0,0:0:0:0:
256,192,32183,1,8,0:0:0:0:
256,192,32360,1,0,0:0:0:0:
256,192,32536,1,8,0:0:0:0:
256,192,32889,1,0,0:0:0:0:
256,192,33242,1,4,0:0:0:0:
256,192,34654,1,0,0:0:0:0:
256,192,34830,1,0,0:0:0:0:
256,192,35007,1,8,0:0:0:0:
256,192,35183,1,0,0:0:0:0:
256,192,35536,1,0,0:0:0:0:
256,192,35624,1,0,0:0:0:0:
256,192,35713,1,8,0:0:0:0:
256,192,35889,1,0,0:0:0:0:
256,192,36242,1,0,0:0:0:0:
256,192,36330,1,0,0:0:0:0:
256,192,36419,1,8,0:0:0:0:
256,192,36595,1,0,0:0:0:0:
256,192,36771,1,0,0:0:0:0:
256,192,36948,1,12,0:0:0:0:
256,192,37124,1,12,0:0:0:0:
256,192,37477,1,0,0:0:0:0:
256,192,37654,1,0,0:0:0:0:
256,192,37830,1,8,0:0:0:0:
256,192,38007,1,0,0:0:0:0:
256,192,38360,1,0,0:0:0:0:
256,192,38448,1,0,0:0:0:0:
256,192,38536,1,8,0:0:0:0:
256,192,38713,1,0,0:0:0:0:
256,192,38889,1,8,0:0:0:0:
256,192,39066,1,0,0:0:0:0:
256,192,39419,1,8,0:0:0:0:
256,192,39507,1,0,0:0:0:0:
256,192,39595,1,0,0:0:0:0:
256,192,39771,1,0,0:0:0:0:
256,192,39948,1,8,0:0:0:0:
256,192,40124,1,8,0:0:0:0:
256,192,40301,1,0,0:0:0:0:
256,192,40654,1,8,0:0:0:0:
256,192,40830,1,0,0:0:0:0:
256,192,41183,1,0,0:0:0:0:
256,192,41271,1,0,0:0:0:0:
256,192,41360,1,8,0:0:0:0:
256,192,41536,1,0,0:0:0:0:
256,192,41889,1,0,0:0:0:0:
256,192,41977,1,0,0:0:0:0:
256,192,42066,1,8,0:0:0:0:
256,192,42242,1,0,0:0:0:0:
256,192,42419,1,0,0:0:0:0:
256,192,42595,1,12,0:0:0:0:
256,192,42771,1,12,0:0:0:0:
256,192,43124,1,0,0:0:0:0:
256,192,43301,1,0,0:0:0:0:
256,192,43477,1,8,0:0:0:0:
256,192,43654,1,0,0:0:0:0:
256,192,44007,1,0,0:0:0:0:
256,192,44095,1,0,0:0:0:0:
256,192,44183,1,8,0:0:0:0:
256,192,44360,1,0,0:0:0:0:
256,192,44713,1,8,0:0:0:0:
256,192,44889,1,0,0:0:0:0:
256,192,45066,1,8,0:0:0:0:
256,192,45242,1,0,0:0:0:0:
256,192,45330,1,0,0:0:0:0:
256,192,45419,1,0,0:0:0:0:
256,192,45507,1,0,0:0:0:0:
256,192,45595,1,8,0:0:0:0:
256,192,45771,1,8,0:0:0:0:
256,192,45948,1,4,0:0:0:0:
256,192,46301,1,8,0:0:0:0:
256,192,46477,1,0,0:0:0:0:
256,192,46654,1,8,0:0:0:0:
256,192,46830,1,0,0:0:0:0:
256,192,47007,1,0,0:0:0:0:
256,192,47183,1,8,0:0:0:0:
256,192,47536,1,0,0:0:0:0:
256,192,47624,1,0,0:0:0:0:
256,192,47713,1,8,0:0:0:0:
256,192,47889,1,0,0:0:0:0:
256,192,48066,1,0,0:0:0:0:
256,192,48242,1,0,0:0:0:0:
256,192,48419,1,8,0:0:0:0:
256,192,48771,1,8,0:0:0:0:
256,192,49124,1,0,0:0:0:0:
256,192,49301,1,0,0:0:0:0:
256,192,49477,1,8,0:0:0:0:
256,192,49654,1,0,0:0:0:0:
256,192,49830,1,0,0:0:0:0:
256,192,50007,1,8,0:0:0:0:
256,192,50360,1,0,0:0:0:0:
256,192,50448,1,0,0:0:0:0:
256,192,50536,1,8,0:0:0:0:
256,192,50713,1,0,0:0:0:0:
256,192,50889,1,8,0:0:0:0:
256,192,51066,1,0,0:0:0:0:
256,192,51242,1,8,0:0:0:0:
256,192,51330,1,0,0:0:0:0:
256,192,51419,1,0,0:0:0:0:
256,192,51507,1,0,0:0:0:0:
256,192,51595,1,8,0:0:0:0:
256,192,51771,1,0,0:0:0:0:
256,192,51948,1,8,0:0:0:0:
256,192,52124,1,0,0:0:0:0:
256,192,52301,1,8,0:0:0:0:
256,192,52477,1,0,0:0:0:0:
256,192,52654,1,8,0:0:0:0:
256,192,52830,1,8,0:0:0:0:
256,192,53183,1,0,0:0:0:0:
256,192,53271,1,0,0:0:0:0:
256,192,53360,1,8,0:0:0:0:
256,192,53536,1,0,0:0:0:0:
256,192,53713,1,0,0:0:0:0:
256,192,53889,1,0,0:0:0:0:
256,192,54066,1,8,0:0:0:0:
256,192,54419,1,8,0:0:0:0:
256,192,54771,1,0,0:0:0:0:
256,192,54948,1,8,0:0:0:0:
256,192,55301,1,0,0:0:0:0:
256,192,55477,1,8,0:0:0:0:
256,192,55654,1,0,0:0:0:0:
256,192,55830,1,0,0:0:0:0:
256,192,56007,1,0,0:0:0:0:
256,192,56183,1,8,0:0:0:0:
256,192,56360,1,0,0:0:0:0:
256,192,56448,1,0,0:0:0:0:
256,192,56536,1,0,0:0:0:0:
256,192,56713,1,0,0:0:0:0:
256,192,56889,1,8,0:0:0:0:
256,192,57066,1,8,0:0:0:0:
256,192,57242,1,0,0:0:0:0:
256,192,57595,1,0,0:0:0:0:
256,192,57771,1,0,0:0:0:0:
256,192,57948,1,8,0:0:0:0:
256,192,58301,1,0,0:0:0:0:
256,192,58477,1,8,0:0:0:0:
256,192,58654,1,0,0:0:0:0:
256,192,59007,1,8,0:0:0:0:
256,192,59183,1,0,0:0:0:0:
256,192,59360,1,0,0:0:0:0:
256,192,59624,1,8,0:0:0:0:
256,192,59713,1,0,0:0:0:0:
256,192,59889,1,8,0:0:0:0:
256,192,60066,1,4,0:0:0:0:
256,192,60419,1,0,0:0:0:0:
256,192,60595,1,0,0:0:0:0:
256,192,60771,1,8,0:0:0:0:
256,192,61124,1,0,0:0:0:0:
256,192,61301,1,8,0:0:0:0:
256,192,61477,1,0,0:0:0:0:
256,192,61830,1,8,0:0:0:0:
256,192,62007,1,0,0:0:0:0:
256,192,62183,1,0,0:0:0:0:
256,192,62448,1,8,0:0:0:0:
256,192,62536,1,0,0:0:0:0:
256,192,62713,1,8,0:0:0:0:
256,192,62889,1,4,0:0:0:0:
256,192,63242,1,0,0:0:0:0:
256,192,63595,1,0,0:0:0:0:
256,192,63948,1,0,0:0:0:0:
256,192,64124,1,8,0:0:0:0:
256,192,64301,1,0,0:0:0:0:
256,192,64477,1,8,0:0:0:0:
256,192,64654,1,0,0:0:0:0:
256,192,64919,1,8,0:0:0:0:
256,192,65007,1,0,0:0:0:0:
256,192,65360,1,8,0:0:0:0:
256,192,65713,1,4,0:0:0:0:
256,192,66066,1,0,0:0:0:0:
256,192,66419,1,0,0:0:0:0:
256,192,66771,1,0,0:0:0:0:
256,192,67124,1,8,0:0:0:0:
256,192,67301,1,0,0:0:0:0:
256,192,67477,1,8,0:0:0:0:
256,192,67654,1,0,0:0:0:0:
256,192,67830,1,8,0:0:0:0:
256,192,68007,1,8,0:0:0:0:
256,192,68183,1,8,0:0:0:0:
256,192,68360,1,8,0:0:0:0:
256,192,68536,1,4,0:0:0:0:
256,192,69948,1,0,0:0:0:0:
256,192,70124,1,0,0:0:0:0:
256,192,70213,1,0,0:0:0:0:
256,192,70301,1,8,0:0:0:0:
256,192,70477,1,0,0:0:0:0:
256,192,70830,1,0,0:0:0:0:
256,192,70919,1,0,0:0:0:0:
256,192,71007,1,8,0:0:0:0:
256,192,71183,1,0,0:0:0:0:
256,192,71536,1,0,0:0:0:0:
256,192,71624,1,0,0:0:0:0:
256,192,71713,1,8,0:0:0:0:
256,192,71889,1,0,0:0:0:0:
256,192,72066,1,0,0:0:0:0:
256,192,72242,1,12,0:0:0:0:
256,192,72419,1,12,0:0:0:0:
256,192,72771,1,0,0:0:0:0:
256,192,72948,1,0,0:0:0:0:
256,192,73124,1,8,0:0:0:0:
256,192,73301,1,0,0:0:0:0:
256,192,73654,1,0,0:0:0:0:
256,192,73742,1,0,0:0:0:0:
256,192,73830,1,8,0:0:0:0:
256,192,74007,1,0,0:0:0:0:
256,192,74183,1,8,0:0:0:0:
256,192,74360,1,0,0:0:0:0:
256,192,74713,1,8,0:0:0:0:
256,192,74801,1,0,0:0:0:0:
256,192,74889,1,0,0:0:0:0:
256,192,75066,1,0,0:0:0:0:
256,192,75242,1,8,0:0:0:0:
256,192,75419,1,8,0:0:0:0:
256,192,75595,1,0,0:0:0:0:
256,192,75771,1,0,0:0:0:0:
256,192,75860,1,0,0:0:0:0:
256,192,75948,1,8,0:0:0:0:
256,192,76124,1,0,0:0:0:0:
256,192,76477,1,0,0:0:0:0:
256,192,76566,1,0,0:0:0:0:
256,192,76654,1,8,0:0:0:0:
256,192,76830,1,0,0:0:0:0:
256,192,77183,1,0,0:0:0:0:
256,192,77271,1,0,0:0:0:0:
256,192,77360,1,8,0:0:0:0:
256,192,77536,1,0,0:0:0:0:
256,192,77713,1,0,0:0:0:0:
256,192,77889,1,12,0:0:0:0:
256,192,78066,1,12,0:0:0:0:
256,192,78419,1,0,0:0:0:0:
256,192,78595,1,0,0:0:0:0:
256,192,78771,1,8,0:0:0:0:
256,192,78948,1,0,0:0:0:0:
256,192,79301,1,0,0:0:0:0:
256,192,79389,1,0,0:0:0:0:
256,192,79477,1,8,0:0:0:0:
256,192,79654,1,0,0:0:0:0:
256,192,80007,1,8,0:0:0:0:
256,192,80183,1,0,0:0:0:0:
256,192,80360,1,8,0:0:0:0:
256,192,80536,1,0,0:0:0:0:
256,192,80624,1,0,0:0:0:0:
256,192,80713,1,0,0:0:0:0:
256,192,80801,1,0,0:0:0:0:
256,192,80889,1,8,0:0:0:0:
256,192,81066,1,8,0:0:0:0:
256,192,81242,1,0,0:0:0:0:
256,192,81419,1,0,0:0:0:0:
256,192,81507,1,0,0:0:0:0:
256,192,81595,1,8,0:0:0:0:
256,192,81771,1,0,0:0:0:0:
256,192,82124,1,0,0:0:0:0:
256,192,82213,1,0,0:0:0:0:
256,192,82301,1,8,0:0:0:0:
256,192,82477,1,0,0:0:0:0:
256,192,82830,1,0,0:0:0:0:
256,192,82919,1,0,0:0:0:0:
256,192,83007,1,8,0:0:0:0:
256,192,83183,1,0,0:0:0:0:
256,192,83271,1,0,0:0:0:0:
256,192,83360,1,0,0:0:0:0:
256,192,83536,1,12,0:0:0:0:
256,192,83713,1,12,0:0:0:0:
256,192,84066,1,0,0:0:0:0:
256,192,84242,1,0,0:0:0:0:
256,192,84419,1,8,0:0:0:0:
256,192,84595,1,0,0:0:0:0:
256,192,84948,1,0,0:0:0:0:
256,192,85036,1,0,0:0:0:0:
256,192,85124,1,8,0:0:0:0:
256,192,85301,1,0,0:0:0:0:
256,192,85477,1,8,0:0:0:0:
256,192,85654,1,0,0:0:0:0:
256,192,86007,1,8,0:0:0:0:
256,192,86095,1,0,0:0:0:0:
256,192,86183,1,0,0:0:0:0:
256,192,86360,1,0,0:0:0:0:
256,192,86536,1,8,0:0:0:0:
256,192,86713,1,8,0:0:0:0:
256,192,86889,1,0,0:0:0:0:
256,192,87066,1,0,0:0:0:0:
256,192,87154,1,0,0:0:0:0:
256,192,87242,1,8,0:0:0:0:
256,192,87419,1,0,0:0:0:0:
256,192,87771,1,0,0:0:0:0:
256,192,87860,1,0,0:0:0:0:
256,192,87948,1,8,0:0:0:0:
256,192,88124,1,0,0:0:0:0:
256,192,88477,1,0,0:0:0:0:
256,192,88566,1,0,0:0:0:0:
256,192,88654,1,8,0:0:0:0:
256,192,88830,1,0,0:0:0:0:
256,192,88919,1,0,0:0:0:0:
256,192,89007,1,0,0:0:0:0:
256,192,89183,1,12,0:0:0:0:
256,192,89360,1,12,0:0:0:0:
256,192,89713,1,0,0:0:0:0:
256,192,89889,1,0,0:0:0:0:
256,192,90066,1,8,0:0:0:0:
256,192,90242,1,0,0:0:0:0:
256,192,90595,1,0,0:0:0:0:
256,192,90683,1,0,0:0:0:0:
256,192,90771,1,8,0:0:0:0:
256,192,90948,1,0,0:0:0:0:
256,192,91301,1,8,0:0:0:0:
256,192,91477,1,0,0:0:0:0:
256,192,91654,1,8,0:0:0:0:
256,192,91830,1,0,0:0:0:0:
256,192,91919,1,0,0:0:0:0:
256,192,92007,1,0,0:0:0:0:
256,192,92095,1,0,0:0:0:0:
256,192,92183,1,8,0:0:0:0:
256,192,92360,1,0,0:0:0:0:
256,192,92536,1,12,0:0:0:0:
256,192,92889,1,8,0:0:0:0:
256,192,93066,1,8,0:0:0:0:
256,192,93419,1,0,0:0:0:0:
256,192,93595,1,8,0:0:0:0:
256,192,93771,1,8,0:0:0:0:
256,192,94124,1,0,0:0:0:0:
256,192,94301,1,8,0:0:0:0:
256,192,94477,1,0,0:0:0:0:
256,192,94654,1,8,0:0:0:0:
256,192,94830,1,4,0:0:0:0:
256,192,95007,1,4,0:0:0:0:
256,192,95183,1,0,0:0:0:0:
256,192,95271,1,0,0:0:0:0:
256,192,95360,1,8,0:0:0:0:
256,192,95536,1,0,0:0:0:0:
256,192,95713,1,8,0:0:0:0:
256,192,95889,1,8,0:0:0:0:
256,192,96242,1,8,0:0:0:0:
256,192,96419,1,0,0:0:0:0:
256,192,96595,1,8,0:0:0:0:
256,192,96948,1,0,0:0:0:0:
256,192,97124,1,8,0:0:0:0:
256,192,97301,1,0,0:0:0:0:
256,192,97389,1,0,0:0:0:0:
256,192,97477,1,8,0:0:0:0:
256,192,97654,1,0,0:0:0:0:
256,192,97830,1,8,0:0:0:0:
256,192,97919,1,8,0:0:0:0:
256,192,98007,1,0,0:0:0:0:
256,192,98095,1,0,0:0:0:0:
256,192,98183,1,8,0:0:0:0:
256,192,98360,1,0,0:0:0:0:
256,192,98536,1,8,0:0:0:0:
256,192,98713,1,8,0:0:0:0:
256,192,99066,1,0,0:0:0:0:
256,192,99242,1,8,0:0:0:0:
256,192,99419,1,8,0:0:0:0:
256,192,99771,1,0,0:0:0:0:
256,192,99948,1,8,0:0:0:0:
256,192,100124,1,0,0:0:0:0:
256,192,100301,1,8,0:0:0:0:
256,192,100477,1,4,0:0:0:0:
256,192,100654,1,4,0:0:0:0:
256,192,100830,1,0,0:0:0:0:
256,192,100919,1,0,0:0:0:0:
256,192,101007,1,8,0:0:0:0:
256,192,101183,1,0,0:0:0:0:
256,192,101360,1,8,0:0:0:0:
256,192,101536,1,8,0:0:0:0:
256,192,101889,1,0,0:0:0:0:
256,192,102066,1,8,0:0:0:0:
256,192,102242,1,8,0:0:0:0:
256,192,102595,1,8,0:0:0:0:
256,192,102771,1,8,0:0:0:0:
256,192,102948,1,0,0:0:0:0:
256,192,103124,1,8,0:0:0:0:
256,192,103301,1,0,0:0:0:0:
256,192,103477,1,8,0:0:0:0:
256,192,103566,1,8,0:0:0:0:
256,192,103654,1,8,0:0:0:0:
256,192,103742,1,8,0:0:0:0:
256,192,103830,1,0,0:0:0:0:
