osu file format v9

[General]
AudioFilename: ice ft. NicoNico Chorus - Theme of Puella Magi.mp3
AudioLeadIn: 0
PreviewTime: 107589
Countdown: 0
SampleSet: Soft
StackLeniency: 0.4
Mode: 0
LetterboxInBreaks: 0

[Editor]
DistanceSpacing: 0.9
BeatDivisor: 2
GridSize: 8

[Metadata]
Title:Theme of Puella Magi
Artist:ice ft. NicoNico Chorus
Creator:osuplayer111
Version:Normal
Source:Puella Magi Madoka Magica
Tags:Soundtrack BGM Kajiura Yuki Mahou Shoujo

[Difficulty]
HPDrainRate:4
CircleSize:4
OverallDifficulty:4
ApproachRate:5
SliderMultiplier:1.28
SliderTickRate:0.5

[Events]
//Background and Video events
0,0,"Nyan.jpg"
Video,-1000,"Moe Garven.AVI"
//Break Periods
2,63260,65950
2,129089,129460
2,187829,188550
2,240959,244032
//Storyboard Layer 0 (Background)
//Storyboard Layer 1 (Fail)
//Storyboard Layer 2 (Pass)
//Storyboard Layer 3 (Foreground)
//Storyboard Sound Samples
//Background Colour Transformations
3,100,255,255,255

[TimingPoints]
10950,405.405405405405,3,2,1,40,1,0
58382,416.666666666667,3,2,1,40,1,0
58798,428.571428571429,3,2,1,40,1,0
59655,441.176470588235,3,2,1,40,1,0
60537,454.545454545455,3,2,1,40,1,0
60991,468.75,3,2,1,40,1,0
61459,500,3,2,1,40,1,0
61959,566.037735849057,3,2,1,40,1,0
62525,535.714285714286,3,2,1,40,1,0
67150,405.405405405405,3,2,1,70,1,0
103636,-100,3,2,1,85,0,0
107690,-100,3,2,1,90,0,0
108495,410.958904109589,3,2,2,100,1,1
125344,428.571428571429,3,2,2,100,1,1
125755,447.761194029851,3,2,1,100,1,0
128889,-100,3,2,1,0,0,0
130660,405.405405405405,3,2,1,70,1,0
165980,416.666666666667,3,2,1,85,1,0
166421,405.405405405405,3,2,1,100,1,0
167235,410.958904109589,3,2,2,100,1,1
184084,428.571428571429,3,2,2,100,1,1
184495,447.761194029851,3,2,1,100,1,0
187629,-100,3,2,1,0,0,0
189750,476.190476190476,3,2,1,70,1,0
190226,408.163265306122,3,2,1,70,1,0
195532,405.405405405405,3,2,1,70,1,0
199586,408.163265306122,3,2,1,70,1,0
203463,405.405405405405,3,2,1,70,1,0
206908,405.405405405405,3,2,2,70,1,0
207313,-100,3,2,1,70,0,0
240962,475.586556753329,3,2,1,40,1,0
245232,405.405405405405,3,2,1,90,1,0
246005,410.958904109589,3,2,2,100,1,1
265750,410.958904109589,3,2,2,100,1,1
278078,416.666666666667,3,2,2,100,1,1
279328,419.58041958042,3,2,2,100,1,1
280586,428.571428571429,3,2,2,100,1,1
281880,451.127819548872,3,2,2,100,1,1
282331,461.538461538462,3,2,2,100,1,1
282770,472.44094488189,3,2,2,100,1,1
283240,535.714285714286,3,2,1,40,1,0

[Colours]
Combo1 : 255,64,64
Combo2 : 255,128,255
Combo3 : 0,192,255
Combo4 : 255,192,0
Combo5 : 192,0,255

[HitObjects]
104,232,10950,1,2
152,128,11355,2,0,B|184:72|256:32|328:72|360:128,1,256
408,232,12571,1,0
312,296,12977,2,0,B|280:328|256:328|232:328|199:296,1,128,0|2
256,192,13787,1,0
56,72,14598,5,0
152,144,15004,1,0
256,88,15409,1,0
360,144,15814,1,2
455,73,16220,2,0,B|487:121|513:192|496:258|456:312,1,256
344,336,17436,1,0
256,264,17841,2,0,B|256:128,2,128,0|2|0
168,336,19058,5,0
168,336,19260,1,0
168,336,19463,1,0
96,248,19868,1,0
96,136,20274,1,0
168,48,20679,5,2
280,48,21085,2,0,B|416:48|502:156,1,256
432,248,22301,2,0,B|408:320|328:320,1,128
256,240,23112,1,2
175,319,23517,2,0,B|32:264|32:120,1,256
112,48,24733,1,0
200,128,25139,1,0
312,128,25544,5,2
400,48,25950,2,0,B|499:48|499:223|398:224,1,256
342,321,27166,2,0,B|254:225,1,128
169,321,27977,2,0,B|257:225,1,128,2|0
112,224,28787,2,0,B|40:224,2,64
168,120,29598,1,0
256,48,30004,1,0
344,120,30409,5,2
352,232,30814,2,0,B|408:288|352:344,1,128
256,288,31625,1,0
159,343,32031,2,0,B|104:288|160:232,1,128
168,120,32841,6,0,B|32:120,2,128,2|0|0
256,40,34058,1,0
344,120,34463,2,0,B|480:120,2,128,0|0|2
376,232,35679,1,0
312,328,36085,1,0
200,328,36490,1,0
136,232,36895,1,0
200,136,37301,5,0
312,136,37706,1,2
256,40,38112,1,0
368,40,38517,2,0,B|416:88,2,64
312,136,39328,5,0
256,240,39733,1,0
200,136,40139,1,2
144,40,40544,2,0,B|56:144,2,128
256,40,41760,1,0
368,40,42166,1,0
456,112,42571,5,2
368,192,42977,1,0
456,272,43382,1,0
456,272,43585,1,0
456,272,43787,2,0,B|424:336|352:336,1,128
256,280,44598,1,0
158,335,45004,6,0,B|88:336|56:272,2,128,2|0|0
152,224,46220,1,0
200,120,46625,1,0
312,120,47031,1,0
360,224,47436,1,2
472,184,47841,1,0
424,80,48247,2,0,B|488:56,2,64
312,40,49058,5,0
200,40,49463,1,0
176,152,49868,2,0,B|72:72,2,128,2|0|0
256,240,51085,1,0
336,152,51490,2,0,B|440:72,1,128
328,48,52301,6,0,B|384:8,2,64,2|0|0
120,144,53517,2,0,B|56:144,2,64,0|0|0
344,192,54733,2,0,B|408:192,2,64,2|0|0
144,304,55949,6,0,B|88:344,2,64,0|0|0
256,272,56760,1,0
368,304,57166,2,0,B|424:344,2,64,2|0|0
392,192,57977,5,0
392,192,58179,1,0
392,192,58382,2,0,B|472:88,1,128
365,42,59226,2,0,B|325:98|253:98,1,128,0|2
147,42,60096,6,0,B|187:98|259:98,1,128
41,90,60991,2,0,B|120:192,1,128
184,272,61959,1,0
256,176,62525,2,0,B|256:104,2,64,2|0|0
64,72,67150,6,0,B|104:128|176:128,1,128,2|0
256,48,67960,1,0
338,127,68366,2,0,B|408:128|448:72,2,128
336,240,69582,1,2
256,320,69987,2,0,B|256:384,2,64
176,240,70798,1,0
256,160,71204,1,0
320,64,71609,6,0,B|184:64,1,128,0|2
96,120,72420,2,0,B|40:88,2,64
184,192,73231,1,0
88,256,73636,2,0,B|136:312|200:312,1,128
312,312,74447,6,0,B|376:312,2,64,2|0|0
280,200,75258,1,0
368,128,75663,2,0,B|472:40,2,128
288,48,76879,5,2
200,120,77285,2,0,B|136:120,2,64
152,224,78095,2,0,B|120:288|40:264,2,128
256,280,79312,1,2
360,224,79717,6,0,B|400:272,2,64
360,112,80528,1,0
256,56,80933,1,0
152,112,81339,1,0
152,224,81744,5,2
256,280,82150,2,0,B|256:360,2,64,0|0|0
360,224,82960,1,0
256,168,83366,2,0,B|256:32,1,128
368,72,84177,6,0,B|432:120,2,64,2|0|0
144,72,85393,1,0
72,160,85798,6,0,B|24:112,2,64
72,224,86406,2,0,B|24:272,1,64,0|2
120,344,87014,1,0
256,240,87622,5,0
256,240,87825,2,0,B|288:296|352:320,1,128
440,240,88636,2,0,B|415:175|359:143,1,128,0|2
256,88,89447,2,0,B|128:88,1,128
72,192,90258,1,0
128,296,90663,5,0
128,296,90866,1,0
128,296,91068,2,0,B|264:296,1,128,0|2
368,296,91879,1,0
464,152,92487,6,0,B|424:104,1,64
312,64,93095,2,0,B|256:8|200:64,1,128
200,176,93906,2,0,B|256:232|312:176,2,128,2|0|0
88,144,95122,1,0
104,256,95528,5,0
104,256,95731,1,0
104,256,95933,2,0,B|136:320|208:336,1,128,0|2
312,336,96744,1,0
416,192,97352,6,0,B|352:192,1,64
256,128,97960,1,0
160,192,98366,1,0
256,256,98771,2,0,B|256:320,2,64,2|0|0
144,96,99987,6,0,B|88:48,2,64
368,96,101204,2,0,B|424:48,2,64,2|0|0
256,296,102420,2,0,B|256:360,2,64
256,192,103231,1,0
144,224,103636,6,0,B|56:224|24:272|24:344,2,192,2|0|0
352,112,105663,1,0
368,224,106068,2,0,B|456:224|488:272|488:344,2,192,2|0|0
344,336,107690,6,0,B|288:296,1,64
220,298,108095,2,0,B|168:336,2,64,0|0|6
256,192,108905,1,0
192,32,109522,5,0
192,32,109727,2,0,B|320:32,1,128,10|0
344,200,110755,1,0
344,200,110960,2,0,B|285:244|224:244|168:200,1,192,6|0
88,352,112193,1,10
200,320,112604,5,0
256,344,112810,1,0
312,320,113015,1,0
424,352,113426,2,0,B|480:312|480:240,1,128,6|0
384,96,114453,5,0
384,96,114659,2,0,B|352:32|280:32,1,128,10|0
160,152,115686,1,0
160,152,115892,2,0,B|160:272|280:272,1,192,6|0
448,272,117125,1,10
368,192,117536,6,0,B|304:192,2,64
448,112,118358,1,6
336,80,118768,2,0,B|287:30|256:16|224:32|176:80,1,192
175,80,119590,1,10
64,112,120001,1,0
152,192,120412,1,0
176,304,120823,6,0,B|136:352,2,64,6|0|0
376,192,122056,2,0,B|448:192,2,64,10|0|0
176,80,123289,2,0,B|136:32,2,64,6|0|0
312,264,124522,6,0,B|368:296,2,64,10|0|0
224,200,125344,1,0
152,280,125755,2,0,B|96:248,2,64,2|0|0
256,192,126426,12,0,128889
48,48,130660,6,0,B|104:136|208:144,1,192,2|0
205,143,131470,1,0
280,56,131876,2,0,B|416:56,2,128,8|0|0
360,144,133092,1,2
456,208,133497,6,0,B|496:160,2,64
376,288,134308,2,0,B|304:304|272:232,1,128,8|0
208,136,135119,1,0
104,184,135524,1,2
160,280,135930,6,0,B|96:312,2,64,0|0|0
256,352,136741,1,8
352,280,137146,1,0
312,176,137551,1,0
200,176,137957,2,0,B|160:120,2,64,2|0|0
392,48,139173,6,0,B|496:136,1,128,8|0
489,253,139984,1,0
489,253,140187,1,0
489,253,140389,2,0,B|392:336,1,128,2|0
320,248,141200,1,0
256,344,141605,1,8
192,248,142011,1,0
120,336,142416,2,0,B|22:253,1,128,0|2
48,144,143227,5,0
48,144,143430,1,0
48,144,143632,2,0,B|128:144|160:88,1,128,0|8
256,32,144443,1,0
353,91,144849,2,0,B|384:144|464:144,1,128,0|2
432,312,145862,6,0,B|384:256,1,64
312,184,146470,1,8
256,280,146876,1,0
200,184,147281,1,0
121,263,147687,2,0,B|80:312,2,64,2|0|0
176,40,148903,5,8
256,120,149308,2,0,B|256:48,2,64
336,40,150119,2,0,B|448:40|488:136,1,192,2|0
487,135,150930,2,0,B|408:248,1,128,0|8
320,312,151741,2,0,B|184:312,1,128
98,240,152551,6,0,B|24:135,2,128,2|0|0
160,136,153768,1,8
256,72,154173,1,0
352,136,154578,1,0
256,208,154984,6,0,B|336:296|424:216,1,192,2|0
423,216,155795,2,0,B|488:336,1,128,0|8
368,352,156605,1,0
256,320,157011,1,0
144,352,157416,2,0,B|72:352,2,64,2|0|0
176,120,158632,5,8
256,40,159038,1,0
336,120,159443,2,0,B|384:72,2,64,0|0|2
464,240,160457,5,0
464,240,160659,2,0,B|432:296|360:312,1,128,0|8
256,264,161470,1,0
149,311,161876,2,0,B|80:296|48:240,1,128,0|2
96,136,162687,5,0
96,136,162889,1,0
96,136,163092,1,0
168,48,163497,1,8
256,120,163903,1,0
344,48,164308,1,0
416,136,164714,6,0,B|408:240|312:288,1,192,2|0
313,287,165524,1,0
176,288,165980,1,8
104,192,166421,6,0,B|40:192,2,64
104,136,167029,2,0,B|40:136,1,64,0|6
120,48,167645,2,0,B|192:88|232:16|312:56,1,192
306,53,168467,1,10
384,136,168878,2,0,B|312:176|272:104|192:144,1,192
197,141,169700,1,6
168,256,170111,1,0
168,256,170317,2,0,B|224:296|256:296|288:296|344:256,1,192,0|10
456,256,171344,6,0,B|416:312,2,64
456,144,172166,1,6
376,64,172577,2,0,B|272:120|208:24,1,192
209,25,173399,1,10
208,144,173810,2,0,B|145:49|41:105,1,192
41,105,174632,1,6
105,201,175043,1,0
105,201,175248,2,0,B|199:263|143:367,1,192,0|10
256,344,176276,5,0
256,344,176481,1,0
256,344,176687,2,0,B|320:344|368:288,1,128,0|6
424,192,177508,2,0,B|368:96|264:96,1,192
268,96,178330,2,0,B|160:184,1,128,10|0
88,256,179152,1,0
192,312,179563,6,0,B|256:312,2,64,6|0|0
384,192,180796,2,0,B|304:192,2,64,10|0|0
192,72,182029,2,0,B|256:72,2,64,6|0|0
48,256,183262,6,0,B|48:192,2,64,10|0|0
136,320,184084,1,0
224,256,184495,2,0,B|224:192,2,64,2|0|0
256,192,185166,12,0,187629
24,176,189750,6,0,B|160:176,1,128
88,272,190634,2,0,B|216:272,1,128
320,320,191450,2,0,B|424:224,1,128
496,160,192266,1,0
472,48,192674,5,0
472,48,193083,2,0,B|368:144,1,128
312,224,193899,1,0
200,224,194307,1,0
134,134,194715,2,0,B|40:48,2,128
192,32,195937,2,0,B|320:32,1,128
256,128,196748,1,0
344,200,197153,6,0,B|319:271|255:323|192:271|168:200,1,256
104,296,198369,1,0
200,360,198775,1,0
312,360,199180,1,0
408,296,199586,6,0,B|408:96,2,192
256,224,201422,2,0,B|256:32,2,192
104,296,203259,2,0,B|104:104,2,192
256,368,205084,1,0
408,296,205692,1,0
344,136,206300,1,0
168,136,206908,1,6
256,208,207313,6,0,B|256:272,2,64
168,136,208124,2,0,B|40:136,2,128,8|0|0
256,56,209340,1,2
344,136,209745,5,0
344,136,209948,1,0
344,136,210151,2,0,B|488:136,2,128,0|8|0
344,248,211367,1,0
256,320,211772,1,2
168,248,212178,6,0,B|120:288,2,64
168,136,212989,1,8
256,64,213394,1,0
344,136,213799,1,0
344,248,214205,1,2
256,320,214610,5,0
256,208,215016,2,0,B|256:136,2,64,0|0|8
168,136,215826,1,0
256,64,216232,1,0
344,136,216637,1,2
432,216,217043,6,0,B|480:176,2,64
336,280,217853,1,8
256,192,218259,1,0
176,280,218664,1,0
80,216,219070,1,2
80,104,219475,6,0,B|32:64,2,64
192,104,220286,2,0,B|320:104,1,128,8|0
400,192,221097,2,0,B|264:192,1,128,0|2
192,280,221907,6,0,B|120:280,2,64
288,344,222718,1,8
384,280,223124,1,0
456,192,223529,1,0
384,104,223935,1,2
288,40,224340,5,0
192,104,224745,2,0,B|120:104,2,64,0|0|8
256,200,225556,1,0
328,296,225962,1,0
392,200,226367,6,0,B|459:112|392:24,2,192,0|0|8
256,312,228191,2,0,B|256:112,2,192,0|2|0
120,200,230016,2,0,B|53:112|120:24,2,192,8|0|0
256,88,231840,1,0
344,240,232448,1,8
168,240,233056,1,0
256,88,233664,6,0,B|256:216,1,128
200,320,234475,1,0
256,344,234678,1,0
312,320,234880,1,8
368,216,235286,1,0
256,216,235691,1,0
144,216,236097,1,0
96,112,236502,6,0,B|56:56,2,64
144,8,237313,1,8
200,112,237718,1,0
312,112,238124,1,0
368,8,238529,1,0
416,112,238935,6,0,B|456:56,2,64
504,192,239745,1,8
416,272,240151,2,0,B|456:328,3,64
184,38,245232,6,0,B|224:86,1,64
288,88,245637,2,0,B|328:38,1,64
256,16,246005,1,4
256,152,246415,1,0
208,320,247032,2,0,B|160:272,1,64,0|10
88,192,247648,2,0,B|88:88|200:48,1,192
195,49,248470,1,6
316,49,248881,1,0
316,49,249087,2,0,B|424:88|424:192,1,192,0|10
344,272,250114,6,0,B|376:328,2,64
256,192,250936,1,6
168,272,251347,2,0,B|80:208|80:104,1,192
80,109,252169,1,10
168,32,252580,2,0,B|256:96|256:200,1,192
255,194,253402,1,6
344,272,253813,1,0
344,272,254018,2,0,B|456:272|488:168,1,192,0|10
424,72,255046,6,0,B|488:24,2,64
328,136,255868,1,6
256,48,256278,2,0,B|64:48,1,192
64,48,257100,1,10
98,157,257511,2,0,B|226:157,1,128
194,268,258333,6,0,B|130:268,2,64,6|0|0
408,192,259566,2,0,B|472:192,2,64,10|0|0
194,116,260799,2,0,B|130:116,2,64,6|0|0
352,280,262032,6,0,B|400:344,2,64,10|0|0
256,344,262854,1,0
160,280,263265,2,0,B|112:344,2,64,2|0|0
256,72,264498,1,8
168,152,264909,6,0,B|224:192,1,64
291,189,265320,2,0,B|344:152,2,64,0|0|6
256,296,266160,2,0,B|360:344|424:248,1,192
422,249,266982,1,10
424,136,267393,2,0,B|361:41|257:89,1,192
257,89,268215,1,6
208,192,268626,1,0
208,192,268832,2,0,B|8:192,1,192,0|10
56,304,269859,6,0,B|8:344,2,64
168,336,270681,1,6
256,264,271092,2,0,B|320:184|416:160,1,192
413,160,271914,1,10
360,64,272325,1,0
208,144,272941,1,0
208,144,273147,2,0,B|114:120|50:40,1,192,6|0
0,208,274380,1,10
88,280,274791,5,0
88,280,274996,1,0
88,280,275202,2,0,B|136:336|200:336,1,128,0|6
312,336,276023,2,0,B|424:336|464:240,1,192
463,240,276845,1,10
384,160,277256,2,0,B|256:160,1,128
176,80,278078,6,0,B|128:32,2,64,6|0|0
176,304,279328,2,0,B|128:352,2,64,10|0|0
376,192,280586,2,0,B|456:192,2,64,6|0|0
168,136,281880,6,0,B|56:72,2,128,10|0|0
168,248,283240,2,0,B|64:312,2,64,2|0|0
