osu file format v9

[General]
AudioFilename: ice ft. NicoNico Chorus - Theme of Puella Magi.mp3
AudioLeadIn: 0
PreviewTime: 107589
Countdown: 0
SampleSet: Soft
StackLeniency: 0.4
Mode: 0
LetterboxInBreaks: 0

[Editor]
DistanceSpacing: 0.9
BeatDivisor: 4
GridSize: 8

[Metadata]
Title:Theme of Puella Magi
Artist:ice ft. NicoNico Chorus
Creator:osuplayer111
Version:Hard
Source:Puella Magi Madoka Magica
Tags:Soundtrack BGM Kajiura Yuki Mahou Shoujo

[Difficulty]
HPDrainRate:7
CircleSize:4
OverallDifficulty:7
ApproachRate:8
SliderMultiplier:1.92
SliderTickRate:0.5

[Events]
//Background and Video events
0,0,"Nyan.jpg"
Video,-1000,"Moe Garven.AVI"
//Break Periods
2,63260,66400
2,129089,129910
2,187829,189000
2,240959,244482
//Storyboard Layer 0 (Background)
//Storyboard Layer 1 (Fail)
//Storyboard Layer 2 (Pass)
//Storyboard Layer 3 (Foreground)
//Storyboard Sound Samples
//Background Colour Transformations
3,100,255,255,255

[TimingPoints]
10950,405.405405405405,3,2,1,40,1,0
58382,416.666666666667,3,2,1,40,1,0
58798,428.571428571429,3,2,1,40,1,0
59655,441.176470588235,3,2,1,40,1,0
60537,454.545454545455,3,2,1,40,1,0
60991,468.75,3,2,1,40,1,0
61459,500,3,2,1,40,1,0
61959,566.037735849057,3,2,1,40,1,0
62525,535.714285714286,3,2,1,40,1,0
67150,405.405405405405,3,2,1,70,1,0
103636,-100,3,2,1,85,0,0
107690,-100,3,2,1,90,0,0
108495,410.958904109589,3,2,2,100,1,1
125344,428.571428571429,3,2,2,100,1,1
125755,447.761194029851,3,2,1,100,1,0
128889,-100,3,2,1,0,0,0
130660,405.405405405405,3,2,1,70,1,0
165980,416.666666666667,3,2,1,85,1,0
166421,405.405405405405,3,2,1,100,1,0
167235,410.958904109589,3,2,2,100,1,1
184084,428.571428571429,3,2,2,100,1,1
184495,447.761194029851,3,2,1,100,1,0
187629,-100,3,2,1,0,0,0
189750,476.190476190476,3,2,1,70,1,0
190226,408.163265306122,3,2,1,70,1,0
195532,405.405405405405,3,2,1,70,1,0
199586,408.163265306122,3,2,1,70,1,0
203463,405.405405405405,3,2,1,70,1,0
206908,405.405405405405,3,2,2,70,1,0
207313,-100,3,2,1,70,0,0
240962,475.586556753329,3,2,1,40,1,0
245232,405.405405405405,3,2,1,90,1,0
246005,410.958904109589,3,2,2,100,1,1
265750,410.958904109589,3,2,2,100,1,1
278078,416.666666666667,3,2,2,100,1,1
279328,419.58041958042,3,2,2,100,1,1
280586,428.571428571429,3,2,2,100,1,1
281880,451.127819548872,3,2,2,100,1,1
282331,461.538461538462,3,2,2,100,1,1
282770,472.44094488189,3,2,2,100,1,1
283240,535.714285714286,3,2,1,40,1,0

[Colours]
Combo1 : 255,64,64
Combo2 : 255,128,255
Combo3 : 0,192,255
Combo4 : 255,192,0
Combo5 : 192,0,255

[HitObjects]
256,192,10950,1,2
136,312,11355,1,0
72,256,11558,1,0
16,192,11760,2,0,B|48:96|152:64,1,192
496,192,12571,2,0,B|464:96|360:64,1,192
440,256,13382,6,0,B|328:256|304:368,1,192,2|0
224,328,13990,1,0
144,288,14193,1,0
184,208,14395,1,0
264,240,14598,2,0,B|376:240|400:128,1,192
256,32,15409,1,0
104,104,15814,5,2
56,272,16220,2,0,B|136:336,1,96
216,336,16625,2,0,B|304:288|400:336,1,192
496,192,17436,1,0
399,48,17841,2,0,B|304:96|216:48,1,192,0|2
130,52,18450,2,0,B|56:112,1,96
112,280,19058,6,0,B|16:280,2,96
256,192,19868,1,0
400,280,20274,1,0
256,122,20679,5,2
184,170,20882,1,0
214,250,21085,1,0
298,250,21287,1,0
328,170,21490,1,0
352,344,21895,2,0,B|160:344,2,192
416,104,23112,5,2
340,63,23314,1,0
256,40,23517,1,0
172,63,23720,1,0
96,104,23922,1,0
256,192,24328,1,0
301,342,24733,2,0,B|256:376|211:341,2,96
392,192,25544,5,2
120,192,25949,1,0
176,128,26152,1,0
256,96,26355,1,0
336,128,26558,1,0
392,192,26760,1,0
256,304,27166,2,0,B|376:296|392:192,1,192
120,193,27977,5,2
120,193,28179,1,0
120,193,28382,2,0,B|136:296|256:304,1,192
213,213,28990,1,0
299,213,29193,1,0
416,96,29598,1,0
256,24,30004,1,0
96,96,30409,6,0,B|29:184|96:272,1,192,2|0
144,344,31017,1,0
192,272,31220,2,0,B|280:339|368:272,2,192
192,184,32233,1,0
232,104,32436,1,0
320,104,32639,1,0
360,184,32841,1,2
276,32,33247,6,0,B|276:130,2,96
276,205,34058,1,0
152,320,34463,1,0
88,264,34666,1,0
40,192,34868,1,0
88,120,35071,1,0
152,64,35274,2,0,B|200:160|320:112,1,192,2|0
264,40,35882,1,0
316,114,36085,2,0,B|431:67|479:163,2,192
416,256,37301,6,0,B|384:296|328:304,1,96
256,328,37706,1,2
170,304,37909,1,0
96,256,38112,2,0,B|192:208|192:96,1,192
256,40,38720,1,0
320,101,38922,2,0,B|320:208|416:256,1,192
400,344,39531,6,0,B|304:344,1,96
112,344,39936,2,0,B|208:344,1,96,0|2
256,88,40544,2,0,B|256:288,1,192
176,240,41152,1,0
256,280,41355,1,0
336,240,41558,1,0
408,192,41760,2,0,B|408:96|312:24,1,192
104,192,42571,5,2
104,192,42774,1,0
104,192,42977,2,0,B|104:96|200:24,1,192
256,88,43585,1,0
319,29,43787,2,0,B|408:96|408:192,1,192
352,256,44395,1,0
299,320,44598,1,0
213,320,44801,1,0
160,256,45004,1,2
328,288,45409,5,0
184,176,45814,1,0
256,232,46017,1,0
328,176,46220,1,0
302,96,46422,1,0
210,96,46625,2,0,B|112:32|40:136,1,192
104,192,47233,1,0
44,253,47436,2,0,B|112:352|210:288,1,192,2|0
384,288,48247,2,0,B|488:288,2,96
488,168,49058,5,0
416,112,49260,1,0
336,72,49463,1,0
256,40,49666,1,0
168,24,49868,2,0,B|64:40|32:144,1,192,2|0
480,144,50679,5,0
408,192,50882,1,0
480,240,51085,2,0,B|448:344|344:360,1,192,0|0
168,360,51895,1,0
80,208,52301,6,0,B|32:120,2,96,2|0|0
136,48,53112,1,0
256,168,53517,2,0,B|256:272,2,96
376,48,54328,1,0
432,208,54733,2,0,B|480:120,2,96,2|0|0
344,352,55544,2,0,B|240:352|176:272,1,192
136,192,56152,1,0
176,111,56355,2,0,B|240:32|344:32,1,192
488,128,57166,5,2
432,192,57368,1,0
488,256,57571,1,0
24,256,57977,1,0
80,192,58179,1,0
24,128,58382,2,0,B|96:48|192:48,1,192
488,128,59226,6,0,B|416:48|320:48,1,192,0|2
256,112,59875,1,0
256,200,60096,1,0
144,328,60537,2,0,B|64:272,2,96
176,168,61459,1,0
336,168,61959,1,0
368,328,62525,2,0,B|448:272,2,96,2|0|0
208,40,67150,6,0,B|112:56|48:144,1,192,2|0
120,192,67758,1,0
50,243,67960,2,0,B|112:328|208:344,1,192
288,192,68771,2,0,B|480:192,1,192
440,112,69379,1,0
472,32,69582,2,0,B|280:32,1,192,2|0
192,32,70190,1,0
192,120,70393,2,0,B|120:200|200:296,1,192
360,344,71204,5,0
424,280,71406,1,0
440,192,71609,1,0
424,104,71812,1,0
360,40,72014,1,2
256,192,72420,2,0,B|144:192,2,96
104,104,73231,1,0
104,280,73636,5,0
176,336,73839,1,0
256,296,74041,1,0
408,104,74447,1,2
336,48,74649,1,0
256,88,74852,1,0
336,240,75258,6,0,B|360:280|408:304,2,96
256,88,76068,1,0
120,192,76474,2,0,B|96:152|48:128,2,96,0|0|2
200,344,77285,1,0
256,280,77487,1,0
312,344,77690,1,0
200,216,78095,5,0
312,344,78501,1,0
152,280,78906,1,0
96,216,79109,1,0
152,152,79312,1,2
312,216,79717,5,0
360,152,79920,1,0
440,152,80122,2,0,B|472:208|448:248|424:288|360:280,1,192
256,144,80933,1,0
192,88,81136,2,0,B|159:44|192:0,1,96
319,0,81541,2,0,B|353:44|320:88,1,96,0|2
256,248,82149,6,0,B|256:352,2,96
192,88,82960,2,0,B|88:96|40:192,1,192
136,192,83568,1,0
41,191,83771,2,0,B|88:285|192:293,1,192,0|2
256,352,84379,1,0
319,293,84582,2,0,B|423:285|471:191,2,192
400,144,85798,5,0
336,80,86001,1,0
256,40,86204,1,0
176,80,86406,1,0
112,144,86609,1,2
256,248,87014,1,0
176,80,87420,6,0,B|216:128|256:128,1,96
336,80,87825,2,0,B|296:128|256:128,1,96
200,192,88231,1,0
256,352,88636,1,0
312,192,89041,2,0,B|368:280,2,96,2|0|0
168,288,89852,2,0,B|96:352,1,96
96,351,90258,1,0
56,184,90663,5,0
112,120,90866,1,0
176,72,91068,1,0
256,48,91271,1,0
336,32,91474,2,0,B|432:32|488:136,1,192,2|0
408,280,92285,5,0
336,320,92487,1,0
256,344,92690,1,0
176,320,92893,1,0
104,280,93095,2,0,B|8:240|8:128,1,192,0|0
168,72,93906,1,2
256,48,94109,1,0
344,24,94312,2,0,B|344:128|456:176,2,192
336,200,95528,5,0
304,280,95731,2,0,B|328:328|384:336,1,96
208,280,96136,2,0,B|184:328|128:336,1,96,0|2
32,192,96744,1,0
184,112,97149,1,0
256,64,97352,1,0
328,112,97555,1,0
176,200,97960,1,0
256,352,98366,1,0
336,200,98771,6,0,B|400:280,2,96,2|0|0
424,48,99582,1,0
256,96,99987,2,0,B|256:0,2,96
88,48,100798,1,0
176,200,101204,2,0,B|112:280,2,96,2|0|0
256,352,102014,1,0
336,200,102420,2,0,B|400:280,2,96,0|0|0
184,120,103231,1,0
328,120,103636,6,0,B|432:120|496:216|496:320,2,288,2|0|0
256,272,105663,1,0
184,120,106068,2,0,B|80:120|16:216|16:320,2,288,2|0|0
120,288,107690,5,0
176,224,107893,1,0
256,192,108095,1,0
336,224,108298,1,0
392,288,108495,1,6
480,136,108905,1,0
392,288,109316,5,0
336,352,109522,1,0
256,384,109727,1,10
176,352,109933,1,0
120,288,110138,1,0
32,136,110549,5,0
96,72,110755,1,0
136,144,110960,2,0,B|256:144|256:24,1,192,6|0
256,26,111577,2,0,B|256:144|376:144,1,192
416,72,112193,1,10
408,248,112604,5,0
336,296,112810,1,0
256,320,113015,1,0
176,296,113221,1,0
104,248,113426,1,6
256,192,113837,1,0
408,136,114248,5,0
336,88,114453,1,0
256,64,114659,1,10
176,88,114864,1,0
104,136,115070,1,0
256,192,115481,5,0
328,240,115686,1,0
400,288,115892,2,0,B|384:336|344:352|304:352|272:328|256:288,1,192,6|0
112,288,116508,2,0,B|128:336|168:352|208:352|240:328|256:288,1,192
184,240,117125,1,10
88,64,117536,5,0
168,104,117741,1,0
256,128,117947,1,0
344,104,118152,1,0
424,64,118358,2,0,B|504:144|456:240,1,192,6|0
304,320,119179,2,0,B|200:320,2,96,0|0|10
168,208,120001,1,0
344,208,120412,1,0
256,56,120823,6,0,B|256:160,2,96,6|0|0
256,232,121645,1,0
104,152,122056,2,0,B|64:120|64:64,2,96,10|0|0
256,232,122878,1,0
408,152,123289,2,0,B|448:120|448:64,2,96,6|0|0
344,312,124111,5,0
168,312,124522,2,0,B|72:312,2,96,10|0|0
168,144,125344,1,0
344,144,125755,1,2
256,144,125978,2,0,B|256:240,1,96
256,192,126314,12,0,128889
176,40,130660,6,0,B|208:88|256:96|304:88|336:40,1,192,2|0
416,72,131268,1,0
496,112,131470,2,0,B|448:144|440:192|448:240|496:272,1,192,0|8
344,192,132281,2,0,B|240:192,2,96
176,192,133092,1,2
96,40,133497,5,0
48,112,133700,1,0
16,192,133903,1,0
48,272,134105,1,0
96,344,134308,1,8
256,288,134714,1,0
256,96,135119,1,0
416,344,135524,5,2
464,272,135727,1,0
496,192,135930,1,0
464,112,136132,1,0
416,40,136335,1,0
256,96,136741,1,8
256,288,137146,1,0
112,192,137551,6,0,B|56:168|56:120,1,96
112,192,137957,2,0,B|56:216|56:264,1,96,2|0
128,304,138362,1,0
256,192,138768,1,0
128,80,139173,1,8
296,40,139578,1,0
296,40,139781,1,0
296,40,139984,2,0,B|344:128|456:128,1,192,0|2
296,344,140795,5,0
296,344,140997,1,0
296,344,141200,2,0,B|344:256|456:256,1,192,0|8
296,192,142011,1,0
240,264,142214,1,0
152,264,142416,1,0
104,192,142619,1,0
152,120,142822,6,0,B|208:88|248:112|288:136|296:192,1,192,2|0
336,264,143430,1,0
296,192,143632,2,0,B|352:160|392:184|432:208|440:264,1,192,0|8
296,352,144443,2,0,B|192:352,2,96
128,352,145254,5,2
56,192,145660,1,0
112,128,145862,1,0
168,64,146065,2,0,B|256:132|345:63,1,192,0|8
456,192,146876,1,0
400,256,147078,1,0
344,320,147281,2,0,B|256:252|167:321,1,192,0|2
112,256,147889,1,0
56,192,148092,1,0
174,56,148497,6,0,B|131:93|88:56,2,96,0|0|8
337,56,149308,2,0,B|381:93|424:56,2,96,0|0|0
256,72,149916,1,0
256,160,150119,1,2
112,248,150524,2,0,B|16:192,2,96
256,344,151335,1,8
400,248,151741,2,0,B|496:192,2,96
400,72,152551,5,2
336,128,152754,1,0
256,160,152957,1,0
176,128,153160,1,0
112,72,153362,1,0
40,232,153768,2,0,B|80:328|192:328,1,192,8|0
256,272,154376,1,0
320,328,154578,2,0,B|432:328|472:232,1,192,0|2
424,64,155389,5,0
400,144,155592,1,0
344,208,155795,1,0
256,56,156200,1,8
168,208,156605,1,0
112,144,156808,1,0
88,64,157011,1,0
128,280,157416,6,0,B|200:352,1,96,2|0
256,288,157822,1,0
316,347,158024,2,0,B|384:280,1,96
256,168,158632,1,8
96,96,159038,1,0
168,48,159241,1,0
256,32,159443,1,0
344,48,159646,1,0
416,96,159849,1,2
480,328,160254,5,0
480,328,160457,1,0
480,328,160660,2,0,B|416:248|304:288,1,192,0|8
32,328,161470,1,0
32,328,161673,1,0
32,328,161876,2,0,B|96:248|208:288,1,192,0|2
64,208,162687,6,0,B|120:120,1,96
160,48,163092,1,0
256,192,163497,1,8
352,48,163903,2,0,B|408:132,1,96
448,208,164308,1,0
360,344,164714,6,0,B|320:272|256:200|192:272|152:344,1,288,2|0
256,344,165524,1,0
256,40,165980,1,8
112,48,166421,5,0
168,112,166623,1,0
256,128,166826,1,0
344,112,167029,1,0
400,48,167235,1,6
488,192,167645,1,0
400,336,168056,5,0
344,272,168262,1,0
256,256,168467,1,10
168,272,168673,1,0
112,336,168878,2,0,B|32:272|32:168,1,192
104,120,169495,1,0
168,184,169700,2,0,B|208:152|256:136|304:152|344:184,1,192,6|0
408,120,170317,1,0
400,336,170728,5,0
400,336,170933,2,0,B|480:272|480:168,1,192,10|0
480,80,171550,1,0
408,32,171755,1,0
331,72,171961,1,0
256,112,172166,2,0,B|144:128|96:32,2,192,6|0|0
312,176,173193,2,0,B|384:248,2,96,0|10|0
256,248,173810,2,0,B|144:232|96:328,1,192
40,264,174426,1,0
88,192,174632,6,0,B|200:176|200:56,1,192,6|0
312,60,175248,2,0,B|312:176|424:192,1,192,0|0
472,264,175865,1,10
296,248,176276,6,0,B|344:336,1,96
256,360,176687,1,0
170,332,176892,2,0,B|216:248,1,96,0|6
256,80,177508,1,0
120,192,177919,2,0,B|64:176|40:136,2,96,0|0|10
168,24,178741,1,0
344,24,179152,1,0
392,192,179563,6,0,B|448:176|472:136,2,96,6|0|0
256,304,180385,2,0,B|160:304|72:248,1,192,0|10
8,192,181002,1,0
74,134,181207,2,0,B|160:80|256:80,1,192
312,248,182029,6,0,B|384:320,2,96,6|0|0
472,192,182851,1,0
312,136,183262,2,0,B|384:64,2,96,10|0|0
152,192,184084,1,0
152,192,184495,2,0,B|48:192,2,96,2|0|0
256,192,185054,12,0,187629
256,56,189750,6,0,B|256:248,1,192
168,264,190430,1,0
211,343,190634,1,0
301,343,190838,1,0
344,264,191042,1,0
416,112,191450,5,0
256,56,191858,2,0,B|256:152,2,96
96,112,192674,1,0
32,272,193083,6,0,B|112:216,1,96
128,344,193491,2,0,B|184:256,1,96
256,384,193899,2,0,B|256:280,1,96
384,344,194307,2,0,B|328:256,1,96
480,272,194715,2,0,B|400:216,1,96
344,32,195532,5,0
301,103,195734,1,0
211,103,195937,1,0
168,32,196140,1,0
48,160,196545,5,0
128,200,196748,1,0
211,225,196950,1,0
301,225,197153,1,0
384,200,197356,1,0
464,160,197559,1,0
424,288,197964,6,0,B|376:184,1,96
352,120,198369,1,0
301,48,198572,1,0
211,48,198775,1,0
160,120,198977,1,0
128,200,199180,2,0,B|88:288,1,96
160,336,199586,5,0
213,271,199790,1,0
299,271,199994,1,0
352,336,200198,1,0
384,256,200402,2,0,B|464:192,1,96
328,192,200810,2,0,B|392:112,1,96
256,144,201218,2,0,B|256:48,1,96
184,192,201626,2,0,B|120:112,1,96
128,256,202034,2,0,B|48:192,1,96
80,336,202443,6,0,B|192:336,1,96
256,304,202851,1,0
432,336,203055,2,0,B|320:336,1,96
320,248,203463,2,0,B|352:204|320:160,1,96
256,96,203868,1,0
192,159,204071,2,0,B|160:204|192:248,1,96
104,288,204476,1,0
176,328,204679,1,0
256,352,204881,1,0
336,328,205084,1,0
408,288,205287,1,0
416,200,205490,6,0,B|360:120,1,96
272,120,205895,2,0,B|168:120,1,96
82,119,206300,2,0,B|2:39,2,96
32,192,206908,6,0,B|80:288|176:320,1,192,6|0
256,344,207516,1,0
336,312,207718,1,0
408,264,207921,1,0
472,208,208124,2,0,B|424:112|328:80,1,192,8|0
256,40,208732,1,0
176,64,208935,1,0
104,104,209137,1,0
40,160,209340,1,2
184,240,209745,6,0,B|152:192|184:152,1,96
256,192,210151,1,0
327,151,210353,2,0,B|360:192|328:240,1,96,0|8
184,336,210962,1,0
256,288,211164,2,0,B|256:384,2,96
328,336,211772,1,2
424,192,212178,5,0
392,112,212380,1,0
336,48,212583,1,0
256,16,212786,1,0
176,48,212989,2,0,B|184:144|72:193,2,192,8|0|0
312,152,214205,6,0,B|368:240,2,96,2|0|0
200,280,215016,2,0,B|144:368,2,96,0|0|8
120,128,215826,1,0
256,24,216232,1,0
392,128,216637,5,2
456,192,216840,2,0,B|456:248|408:272,1,96
336,320,217245,1,0
256,352,217448,1,0
176,320,217651,1,0
101,270,217853,2,0,B|16:192|56:96,1,192,8|0
128,56,218462,2,0,B|216:112,1,96
303,107,218867,2,0,B|384:56,1,96,0|2
485,224,219475,5,0
413,272,219678,1,0
336,312,219880,1,0
256,344,220083,1,0
168,360,220286,2,0,B|72:296|112:192,1,192,8|0
152,120,220894,1,0
211,56,221097,1,0
301,56,221299,1,0
360,120,221502,1,2
256,272,221908,6,0,B|192:192,1,96
256,272,222313,2,0,B|320:192,1,96
256,136,222718,1,8
112,40,223124,1,0
400,40,223529,1,0
440,208,223935,5,2
440,208,224137,1,0
440,208,224340,2,0,B|424:312|304:328,1,192
256,256,224948,1,0
203,327,225151,2,0,B|88:312|72:208,2,192,8|0|0
160,160,226367,6,0,B|80:96,1,96
160,48,226772,2,0,B|264:48,1,96
352,48,227178,2,0,B|248:48,1,96
426,100,227583,2,0,B|352:160,1,96,8|0
400,232,227989,6,0,B|488:280,1,96
328,272,228394,2,0,B|384:360,1,96
256,288,228799,2,0,B|256:384,1,96,2|0
184,272,229205,2,0,B|128:360,1,96
112,232,229610,2,0,B|24:280,1,96
32,192,230016,5,8
72,120,230218,1,0
136,64,230421,1,0
213,24,230624,1,0
299,24,230826,1,0
376,64,231029,1,0
440,120,231232,1,0
480,192,231435,1,0
440,272,231637,6,0,B|368:192,1,96
384,344,232043,2,0,B|328:264,1,96
256,384,232448,2,0,B|256:280,1,96,8|0
128,344,232853,2,0,B|184:264,1,96
72,272,233259,2,0,B|144:192,1,96
136,112,233664,5,0
136,112,233867,2,0,B|144:64|192:32,1,96
256,88,234272,1,0
256,88,234475,2,0,B|256:184,2,96,0|0|8
323,34,235083,1,0
323,34,235286,2,0,B|368:64|376:112,1,96
368,200,235691,1,0
312,264,235894,1,0
256,328,236097,1,0
200,264,236299,1,0
144,200,236502,6,0,B|72:264,1,96
72,263,236908,1,0
200,264,237110,2,0,B|160:304|176:352,1,96,0|8
175,351,237516,1,0
256,328,237718,1,0
336,351,237921,2,0,B|352:304|312:264,1,96
312,264,238326,1,0
368,200,238529,2,0,B|440:264,1,96
439,263,238935,1,0
472,184,239137,5,0
432,104,239340,2,0,B|384:96|352:48,1,96
304,120,239745,1,8
256,48,239948,1,0
208,120,240151,1,0
157,51,240353,2,0,B|128:96|80:104,1,96
40,184,240759,1,0
256,48,245232,6,0,B|256:144,1,96
192,208,245637,1,0
256,272,245840,1,0
320,208,246005,2,0,B|384:296|480:312,1,192,6|0
300,344,246826,5,0
212,344,247032,1,0
136,304,247237,1,10
80,240,247443,1,0
56,160,247648,2,0,B|112:72|200:32,1,192
256,96,248265,1,0
315,33,248470,2,0,B|400:72|456:160,1,192,6|0
455,159,249087,1,0
360,304,249498,1,0
360,304,249703,1,10
152,304,250114,5,0
80,264,250320,1,0
40,192,250525,1,0
80,120,250731,1,0
152,80,250936,1,6
256,192,251347,1,0
360,80,251758,5,0
432,120,251963,1,0
472,192,252169,1,10
432,264,252374,1,0
360,304,252580,1,0
256,192,252991,1,0
256,192,253196,1,0
256,192,253402,2,0,B|64:192,1,192,6|0
64,192,254018,1,0
336,192,254429,1,0
336,192,254635,1,10
176,64,255046,5,0
112,120,255251,1,0
64,192,255457,1,0
112,264,255662,1,0
176,320,255868,1,6
344,288,256278,2,0,B|448:256|464:192|440:128|344:96,1,288
336,192,257100,1,10
192,272,257511,2,0,B|144:232|128:192|144:152|192:112,1,192
80,256,258333,5,6
16,192,258539,1,0
80,128,258744,1,0
240,192,259155,1,0
360,72,259566,1,10
424,136,259772,1,0
488,72,259977,1,0
424,232,260388,5,0
312,368,260799,1,6
256,304,261004,1,0
200,368,261210,1,0
88,232,261621,1,0
256,192,262032,2,0,B|256:88,2,96,10|0|0
344,40,262854,1,0
168,40,263265,5,2
256,24,263470,1,0
344,40,263676,1,0
472,152,264087,2,0,B|368:152|320:256,1,192,0|8
168,336,264909,5,0
112,272,265114,1,0
88,192,265320,1,0
112,112,265525,1,0
168,48,265750,2,0,B|216:80|256:96|296:80|344:48,1,192,6|0
344,336,266571,5,0
400,272,266777,1,0
424,192,266982,1,10
400,112,267188,1,0
344,47,267393,2,0,B|296:80|256:96|216:80|168:48,1,192,0|0
80,24,268010,1,0
112,104,268215,2,0,B|144:152|160:192|144:232|111:280,1,192,6|0
168,344,268832,2,0,B|216:311|256:295|296:311|344:344,1,192,0|0
400,280,269448,1,10
416,104,269859,5,0
336,64,270065,1,0
256,32,270270,1,0
176,64,270476,1,0
96,104,270681,2,0,B|28:190|96:280,1,192,6|0
416,280,271503,5,0
336,320,271708,1,0
256,352,271914,1,10
176,320,272119,1,0
96,280,272325,2,0,B|28:194|96:104,1,192,0|0
160,48,272941,1,0
184,128,273147,1,6
352,48,273558,1,0
328,128,273763,1,0
256,288,274174,1,0
256,288,274380,1,10
400,200,274791,6,0,B|368:248|312:224,1,96
256,168,275202,1,0
112,200,275407,2,0,B|144:248|200:224,1,96,0|6
360,128,276023,2,0,B|320:48|257:-3|192:48|152:128,1,288
151,128,276845,1,10
256,288,277256,1,0
360,128,277667,1,0
424,288,278078,6,0,B|496:368,2,96,6|0|0
480,128,278911,1,0
422,63,279119,1,0
336,64,279328,6,0,B|232:64,2,96,10|0|0
264,224,280167,1,0
216,296,280376,1,0
128,296,280586,6,0,B|64:224,2,96,6|0|0
152,128,281443,1,0
200,56,281657,1,0
280,56,281880,6,0,B|376:56,1,96,10|0
424,128,282331,2,0,B|232:128,1,192
256,272,283240,6,0,B|256:376,2,96,2|0|0
