osu file format v9

[General]
AudioFilename: ice ft. NicoNico Chorus - Theme of Puella Magi.mp3
AudioLeadIn: 0
PreviewTime: 107589
Countdown: 0
SampleSet: Soft
StackLeniency: 0.4
Mode: 0
LetterboxInBreaks: 0

[Editor]
DistanceSpacing: 1.2
BeatDivisor: 2
GridSize: 8

[Metadata]
Title:Theme of Puella Magi
Artist:ice ft. NicoNico Chorus
Creator:osuplayer111
Version:Easy
Source:Puella Magi Madoka Magica
Tags:Soundtrack BGM Kajiura Yuki Mahou Shoujo

[Difficulty]
HPDrainRate:2
CircleSize:3
OverallDifficulty:2
ApproachRate:3
SliderMultiplier:0.64
SliderTickRate:1

[Events]
//Background and Video events
0,0,"Nyan.jpg"
Video,-1000,"Moe Garven.AVI"
//Break Periods
2,62725,65710
2,129089,129220
2,187829,188310
2,240756,243792
//Storyboard Layer 0 (Background)
//Storyboard Layer 1 (Fail)
//Storyboard Layer 2 (Pass)
//Storyboard Layer 3 (Foreground)
//Storyboard Sound Samples
//Background Colour Transformations
3,100,255,255,255

[TimingPoints]
10950,405.405405405405,3,2,1,40,1,0
58382,416.666666666667,3,2,1,40,1,0
58798,428.571428571429,3,2,1,40,1,0
59655,441.176470588235,3,2,1,40,1,0
60537,454.545454545455,3,2,1,40,1,0
60991,468.75,3,2,1,40,1,0
61459,500,3,2,1,40,1,0
61959,566.037735849057,3,2,1,40,1,0
62525,535.714285714286,3,2,1,40,1,0
67150,405.405405405405,3,2,1,70,1,0
103636,-100,3,2,1,85,0,0
107690,-100,3,2,1,90,0,0
108495,410.958904109589,3,2,2,100,1,1
125344,428.571428571429,3,2,2,100,1,1
125755,447.761194029851,3,2,1,100,1,0
128889,-100,3,2,1,0,0,0
130660,405.405405405405,3,2,1,70,1,0
165980,416.666666666667,3,2,1,85,1,0
166421,405.405405405405,3,2,1,100,1,0
167235,410.958904109589,3,2,2,100,1,1
184084,428.571428571429,3,2,2,100,1,1
184495,447.761194029851,3,2,1,100,1,0
187629,-100,3,2,1,0,0,0
189750,476.190476190476,3,2,1,70,1,0
190226,408.163265306122,3,2,1,70,1,0
195532,405.405405405405,3,2,1,70,1,0
199586,408.163265306122,3,2,1,70,1,0
203463,405.405405405405,3,2,1,70,1,0
206908,405.405405405405,3,2,2,70,1,0
207313,-100,3,2,1,70,0,0
240962,475.586556753329,3,2,1,40,1,0
245232,405.405405405405,3,2,1,90,1,0
246005,410.958904109589,3,2,2,100,1,1
265750,410.958904109589,3,2,2,100,1,1
278078,416.666666666667,3,2,2,100,1,1
279328,419.58041958042,3,2,2,100,1,1
280586,428.571428571429,3,2,2,100,1,1
281880,451.127819548872,3,2,2,100,1,1
282331,461.538461538462,3,2,2,100,1,1
282770,472.44094488189,3,2,2,100,1,1
283240,535.714285714286,3,2,1,40,1,0

[Colours]
Combo1 : 255,64,64
Combo2 : 255,128,255
Combo3 : 0,192,255
Combo4 : 255,192,0
Combo5 : 192,0,255

[HitObjects]
112,104,10950,2,0,B|72:160|72:192|72:224|112:280,1,192,2|0
400,104,13382,6,0,B|440:160|440:192|440:224|400:280,1,192,2|0
160,352,15814,6,0,B|360:352,1,192,2|0
352,32,18247,6,0,B|160:32,1,192,2|0
48,344,20679,5,2
48,344,21085,2,0,B|88:248|184:208,1,192
256,224,22706,1,0
333,210,23112,2,0,B|424:248|464:344,2,192,2|0|2
168,48,26760,6,0,B|216:80|256:96|296:80|344:48,2,192,0|2|0
64,256,30409,5,2
64,256,30814,2,0,B|264:256,1,192
304,192,32436,1,0
256,128,32841,2,0,B|64:128,2,192,2|0|2
480,192,36490,6,0,B|432:272|312:288,2,192,0|2|0
432,128,39328,1,0
384,64,39733,1,0
320,112,40139,2,0,B|240:48|136:96,2,192,2|0|2
368,176,42977,6,0,B|320:256|200:272,1,192
128,272,44598,1,0
160,200,45004,2,0,B|208:120|328:104,2,192,2|0|2
256,320,48247,6,0,B|184:320,2,64
336,320,49463,1,0
368,248,49868,2,0,B|368:144|288:80,1,192,2|0
136,80,51895,6,0,B|72:128,2,64,0|2|0
240,192,53517,2,0,B|152:192,1,64
84,265,54733,2,0,B|136:304,1,64,2|0
240,192,55949,2,0,B|320:192,1,64
320,40,57166,5,2
480,192,58382,1,0
320,344,59655,1,2
96,296,60991,1,0
96,88,62525,1,2
296,344,67150,6,0,B|408:344|472:272,1,192,2|0
469,108,69177,5,0
469,108,69582,2,0,B|408:40|296:40,1,192,2|0
256,192,71609,5,0
256,192,72014,2,0,B|64:192,2,192,2|0|2
256,272,74852,2,0,B|392:272,1,128
464,272,76068,1,0
496,200,76474,1,0
464,128,76879,6,0,B|360:128|296:32,1,192,2|0
232,80,78501,1,0
168,128,78906,1,0
240,160,79312,6,0,B|344:160|408:256,1,192,2|0
448,312,80933,1,0
368,320,81339,1,0
288,328,81744,6,0,B|96:344,1,192,2|0
64,272,83366,1,0
72,192,83771,1,0
80,112,84177,1,2
88,32,84582,2,0,B|279:47,1,192
432,64,86609,6,0,B|352:136|408:240,2,192,2|0|2
480,128,89447,2,0,B|560:200|504:304,1,192
448,360,91068,1,0
384,312,91474,6,0,B|328:272|296:272|264:272|208:312,2,192,2|0|2
440,256,94312,2,0,B|312:104,1,192
256,56,95933,1,0
195,109,96339,6,0,B|72:256,2,192,2|0|2
256,56,99177,1,0
328,192,99987,5,0
328,192,100393,2,0,B|472:192,1,128,0|2
456,272,101609,2,0,B|320:272,1,128
248,272,102825,1,0
168,272,103231,1,0
104,224,103636,6,0,B|104:128|200:64,2,192,2|0|2
320,136,107285,2,0,B|392:136,1,64
440,192,108095,1,0
384,248,108495,6,0,B|320:248,1,64,6|0
128,248,109727,2,0,B|192:248,1,64,10|0
256,112,110960,2,0,B|256:16,2,96,6|0|10
312,168,112604,1,0
256,224,113015,1,0
200,168,113426,6,0,B|96:168|48:272,2,192,6|10|6
256,264,116508,1,0
312,168,117125,1,10
256,112,117536,6,0,B|304:56,1,64
376,64,118358,2,0,B|456:128|416:240,2,192,6|10|6
296,64,121234,6,0,B|160:64,1,128,0|10
120,128,122467,2,0,B|120:256,1,128,0|6
168,320,123700,6,0,B|296:320,1,128,0|10
376,320,124933,2,0,B|432:264,2,64,0|0|2
256,192,125978,12,0,128889
160,56,130660,6,0,B|368:56,1,192,2|8
400,120,132281,1,0
432,192,132687,1,0
464,264,133092,6,0,B|384:328|272:288,1,192,2|8
208,264,134714,1,0
136,232,135119,1,0
72,184,135524,6,0,B|72:80|192:40,1,192,2|8
256,72,137146,2,0,B|256:152,1,64
256,216,137957,2,0,B|456:216,1,192,2|8
496,280,139578,1,0
432,328,139984,1,0
352,328,140389,6,0,B|144:328,1,192,2|8
88,192,142416,1,0
88,192,142822,2,0,B|112:96|200:40,1,192,2|8
256,96,144443,2,0,B|336:96,1,64
400,96,145254,6,0,B|400:288,1,192,2|8
336,336,146876,1,0
176,336,147687,5,2
112,288,148092,2,0,B|112:160,1,128,0|8
256,144,150119,6,0,B|328:72|432:72,2,192,2|8|2
304,208,152957,2,0,B|392:320,1,128,0|8
448,264,154173,2,0,B|360:152,1,128,0|2
256,72,155795,6,0,B|176:72,1,64,0|8
112,72,156605,2,0,B|66:130|112:192,1,128,0|2
152,256,157822,1,0
288,328,158632,6,0,B|218:295,2,64,8|0|0
368,328,159849,2,0,B|448:248|400:152,2,192,2|8|2
192,176,163497,6,0,B|264:176,2,64,8|0|0
120,144,164714,2,0,B|144:72|216:64,1,128,2|0
296,64,165980,2,0,B|376:64,1,64,8|0
416,128,166826,1,0
464,192,167231,5,6
416,256,167645,2,0,B|376:312|304:312,1,128,0|10
248,256,168878,1,0
112,312,169700,6,0,B|56:296|56:232,2,96,6|0|10
136,240,171344,1,0
168,168,171755,1,0
248,168,172166,1,6
280,240,172577,2,0,B|352:240|384:176,1,128,0|10
416,104,173810,1,0
272,48,174632,6,0,B|176:48,2,96,6|0|10
260,128,176276,2,0,B|188:128,1,64
116,129,177098,1,6
80,200,177508,1,0
160,328,178330,5,10
192,256,178741,1,0
256,208,179152,1,0
320,256,179563,2,0,B|384:296,1,64,6|0
488,192,180796,2,0,B|416:192,1,64,10|0
374,94,182029,2,0,B|319:128,1,64,6|0
168,128,183262,5,10
92,153,183673,1,0
92,231,184084,1,0
168,256,184495,1,2
256,192,184718,12,0,187629
168,80,189750,5,0
168,80,190226,2,0,B|210:115|256:120|302:113|344:80,2,192
200,312,193899,1,0
256,256,194307,1,0
312,312,194715,1,0
376,176,195532,6,0,B|416:112,1,64
256,88,196748,2,0,B|256:16,1,64
136,176,197964,2,0,B|96:112,2,64
216,184,199180,1,0
296,184,199586,6,0,B|296:240|328:272,2,96
216,184,201218,2,0,B|216:256|144:296,2,128
160,128,203259,1,0
192,56,203665,6,0,B|320:56,2,128
160,128,205692,1,0
64,192,206300,1,0
160,256,206908,1,6
192,328,207313,6,0,B|344:328,2,128,0|8|0
160,256,209340,1,2
256,48,210556,1,8
384,136,211367,1,0
448,184,211772,6,0,B|416:280|296:288,2,192,2|8|2
456,104,214610,1,0
320,32,215421,6,0,B|205:39|173:135,2,192,8|2|8
256,256,219070,5,2
288,328,219475,2,0,B|432:328,1,128,0|8
448,256,220691,1,0
392,200,221097,1,0
312,200,221502,6,0,B|312:96|416:40,2,192,2|8|2
232,200,224340,1,0
112,104,225151,2,0,B|56:168,1,64,8|0
69,231,225962,2,0,B|112:280,1,64
192,360,226975,1,0
256,264,227583,6,0,B|328:288|368:224,1,128,8|0
400,152,228799,1,2
328,120,229205,2,0,B|256:96|216:160,1,128,0|8
184,232,230421,1,0
128,88,231232,1,0
176,24,231637,1,0
336,24,232448,1,8
384,88,232853,1,0
408,256,233664,6,0,B|344:296,1,64
288,336,234475,2,0,B|216:336,1,64,0|8
158,289,235286,2,0,B|103:255,1,64
160,200,236097,6,0,B|368:200,2,192,0|8|0
192,120,238935,2,0,B|328:120,1,128,0|8
288,40,240151,2,0,B|216:40,1,64
256,48,245232,6,0,B|256:128,1,64
256,192,246005,1,6
312,248,246415,2,0,B|448:248,1,128,0|10
440,328,247648,1,0
288,328,248470,6,0,B|192:328,2,96,6|0|10
304,248,250114,1,0
320,168,250525,1,0
336,88,250936,1,6
352,8,251347,2,0,B|424:0|480:56,1,128,0|10
504,120,252580,1,0
448,264,253402,6,0,B|352:264,2,96,6|0|10
448,344,255046,1,0
368,344,255457,1,0
288,344,255868,1,6
264,264,256278,6,0,B|136:264,1,128,0|10
72,216,257511,2,0,B|112:160,1,64
158,100,258333,1,6
200,32,258744,1,0
354,100,259566,1,10
312,32,259977,1,0
256,176,260799,6,0,B|256:248,1,64,6|0
120,304,262032,1,10
184,352,262443,1,0
256,384,262854,1,0
328,352,263265,1,6
392,304,263676,1,0
472,184,264498,6,0,B|440:128,1,64,10|0
400,56,265320,2,0,B|328:56,1,64,0|6
256,56,266160,2,0,B|184:56|144:120,1,128,0|10
144,192,267393,1,0
256,304,268215,6,0,B|312:304|336:248,2,96,6|0|10
256,224,269859,1,0
320,176,270270,1,0
400,200,270681,1,6
416,280,271092,1,0
464,136,271914,5,10
464,136,272325,2,0,B|424:80|344:80,1,128,0|6
256,136,273763,1,0
158,80,274380,2,0,B|104:120,1,64,10|0
80,192,275202,1,0
106,265,275613,6,0,B|158:304,1,64,6|0
264,192,276845,2,0,B|328:192,1,64,10|0
408,192,277667,1,0
448,120,278078,6,0,B|392:72,1,64,6|0
256,32,279328,2,0,B|256:104,1,64,10|0
64,120,280586,2,0,B|120:72,1,64,6|0
192,208,281871,5,10
256,256,282331,1,0
320,208,282770,1,0
256,160,283240,2,0,B|256:96,1,64,2|0
