osu file format v9

[General]
AudioFilename: Theme of Tomoe Mami.mp3
AudioLeadIn: 0
PreviewTime: 125784
Countdown: 0
SampleSet: Soft
StackLeniency: 0.6
Mode: 0
LetterboxInBreaks: 0

[Editor]
DistanceSpacing: 0.87
BeatDivisor: 4
GridSize: 8

[Metadata]
Title:Theme of Tomoe Mami
Artist:ice
Creator:DJPop
Version:Normal
Source:Puella Magi Madoka Magica
Tags:soundtrack bgm Kajiura Yuki mahou shoujo kanpakyin KanaRin

[Difficulty]
HPDrainRate:2
CircleSize:3
OverallDifficulty:3
ApproachRate:4
SliderMultiplier:1.28
SliderTickRate:2

[Events]
//Background and Video events
Video,-1800,"Theme of Tomoe Mami.avi"
0,0,"Theme of Tomoe Mami.png"
//Break Periods
//Storyboard Layer 0 (Background)
//Storyboard Layer 1 (Fail)
//Storyboard Layer 2 (Pass)
//Storyboard Layer 3 (Foreground)
Sprite,Foreground,Centre,"star2.png",320,240 F,0,184163,184385,0
//Storyboard Sound Samples
//Background Colour Transformations
3,100,255,255,0

[TimingPoints]
428,441.176470588235,4,2,1,50,1,0
15758,-100,4,2,2,50,0,0
15979,-100,4,2,1,50,0,0
16641,-100,4,2,2,50,0,0
16861,-100,4,2,1,50,0,0
26347,-100,4,2,2,50,0,0
26567,-100,4,2,1,50,0,0
27229,-100,4,2,2,50,0,0
27450,-100,4,2,1,50,0,0
28222,-100,4,2,1,70,0,0
28994,-100,4,1,1,70,0,0
29214,-100,4,2,1,70,0,0
29435,-100,4,2,2,70,0,0
29655,-100,4,2,1,70,0,0
30758,-100,4,1,1,70,0,0
30979,-100,4,2,1,70,0,0
31200,-100,4,2,2,70,0,0
31420,-100,4,2,1,70,0,0
32523,-100,4,1,1,70,0,0
32744,-100,4,2,1,70,0,0
33405,-100,4,1,1,70,0,0
33626,-100,4,2,1,70,0,0
34729,-100,4,2,2,70,0,0
34950,-100,4,2,1,70,0,0
36052,-100,4,1,1,70,0,0
36273,-100,4,2,1,70,0,0
36935,-100,4,1,1,70,0,0
37155,-100,4,2,1,70,0,0
37817,-100,4,1,1,70,0,0
38038,-100,4,2,1,70,0,0
39582,-100,4,1,1,70,0,0
39802,-100,4,2,1,70,0,0
40464,-100,4,1,1,70,0,0
40685,-100,4,2,1,70,0,0
41347,-100,4,1,1,70,0,0
41567,-100,4,2,1,70,0,0
43111,-100,4,1,1,70,0,0
43332,-100,4,2,1,70,0,0
43994,-100,4,1,1,70,0,0
44214,-100,4,2,1,70,0,0
44876,-100,4,1,1,70,0,0
45097,-100,4,2,1,70,0,0
46641,-100,4,1,1,70,0,0
46861,-100,4,2,1,70,0,0
47523,-100,4,1,1,70,0,0
47744,-100,4,2,1,70,0,0
48405,-100,4,1,1,70,0,0
48626,-100,4,2,1,70,0,0
51163,-100,4,2,1,46,0,0
51825,-100,4,2,1,52,0,0
52266,-100,4,2,1,58,0,0
52707,-100,4,2,1,64,0,0
53148,-100,4,2,1,70,0,0
53369,451.127819548872,4,2,1,70,1,0
53707,-100,4,2,2,70,0,0
53932,-100,4,2,1,70,0,0
54609,-100,4,2,2,70,0,0
54835,-100,4,2,1,70,0,0
56414,-100,4,2,2,70,0,0
56639,-100,4,2,1,70,0,0
56982,441.176470588235,4,2,1,70,1,0
60049,441.176470588235,4,2,1,70,1,0
60490,441.176470588235,4,2,1,70,1,0
61703,-100,4,2,2,70,0,0
61924,-100,4,2,1,70,0,0
62585,-100,4,2,2,70,0,0
62806,-100,4,2,1,70,0,0
64350,-100,4,2,2,70,0,0
64571,-100,4,2,1,70,0,0
65232,-100,4,2,2,70,0,0
65453,-100,4,2,1,70,0,0
66997,-100,4,2,2,70,0,0
67218,-100,4,2,1,70,0,0
72291,-100,4,2,2,70,0,0
72512,-100,4,2,1,70,0,0
73174,-100,4,2,2,70,0,0
73394,-100,4,2,1,70,0,0
74938,-100,4,1,1,70,0,0
75159,-100,4,2,1,70,0,0
80673,-100,4,2,2,70,0,0
80894,-100,4,2,1,70,0,0
81997,-100,4,1,1,70,0,0
82218,-100,4,2,1,70,0,0
82880,-100,4,1,1,70,0,0
83100,-100,4,2,1,70,0,0
83762,-100,4,1,1,70,0,0
83983,-100,4,2,1,70,0,0
85527,-100,4,1,1,70,0,0
85747,-100,4,2,1,70,0,0
86409,-100,4,1,1,70,0,0
86630,-100,4,2,1,70,0,0
87291,-100,4,1,1,70,0,0
87512,-100,4,2,1,70,0,0
89056,-100,4,1,1,70,0,0
89277,-100,4,2,1,70,0,0
89938,-100,4,1,1,70,0,0
90159,-100,4,2,1,70,0,0
90821,-100,4,1,1,70,0,0
91041,-100,4,2,1,70,0,0
92585,-100,4,1,1,70,0,0
92806,-100,4,2,1,70,0,0
93468,-100,4,1,1,70,0,0
93688,-100,4,2,1,70,0,0
94350,-100,4,1,1,70,0,0
94571,-100,4,2,1,70,0,0
96115,-100,4,1,1,70,0,0
96335,-100,4,2,1,70,0,0
97769,-100,4,1,1,70,0,0
97879,-100,4,2,1,70,0,0
98210,-100,4,1,1,70,0,0
98321,-100,4,2,1,70,0,0
98651,-100,4,1,1,70,0,0
98762,-100,4,2,1,70,0,0
99313,-149.253731343284,4,1,2,20,0,0
107916,-100,4,1,2,45,0,0
108468,-100,4,2,2,45,0,0
108688,-100,4,1,2,45,0,0
109350,-100,4,2,2,45,0,0
109571,-100,4,1,2,45,0,0
110232,-100,4,2,2,45,0,0
110453,-100,4,1,2,45,0,0
111997,-100,4,2,2,45,0,0
112218,-100,4,1,2,45,0,0
113762,-100,4,2,2,45,0,0
113982,-100,4,1,2,45,0,0
114203,-100,4,2,2,45,0,0
114423,-100,4,1,2,45,0,0
115526,-100,4,2,2,45,0,0
115747,-100,4,1,2,45,0,0
117291,-100,4,2,2,45,0,0
117512,-100,4,1,2,45,0,0
117732,-100,4,2,2,45,0,0
117953,-100,4,1,2,45,0,0
119056,-100,4,2,2,45,0,0
119276,-100,4,1,2,45,0,0
119938,-100,4,2,2,45,0,0
120159,-100,4,1,2,45,0,0
121703,-100,4,2,2,45,0,0
121923,-100,4,2,1,45,0,0
122585,-100,4,2,2,45,0,0
122806,-100,4,2,1,45,0,0
125784,-100,4,2,1,70,0,1
126115,-100,4,1,1,70,0,1
126335,-100,4,2,1,70,0,1
131850,-100,4,2,2,70,0,1
132071,-100,4,2,1,70,0,1
133174,-100,4,1,1,70,0,1
133394,-100,4,2,1,70,0,1
140233,-100,4,1,1,70,0,1
140453,-100,4,2,1,70,0,1
141997,-100,4,1,1,70,0,1
142218,-100,4,2,1,70,0,1
145968,-100,4,2,2,70,0,1
146188,-100,4,2,1,70,0,1
147291,-100,4,1,1,70,0,1
147512,-100,4,2,1,70,0,1
149056,-100,4,1,1,70,0,1
149277,-100,4,2,1,70,0,1
150821,-100,4,1,1,70,0,1
151041,-100,4,2,1,70,0,1
152585,-100,4,1,1,70,0,1
152806,-100,4,2,1,70,0,1
154350,-100,4,1,1,70,0,1
154571,-100,4,2,1,70,0,1
156115,-100,4,1,1,70,0,1
156335,-100,4,2,1,70,0,1
157880,-100,4,1,1,70,0,1
158100,-100,4,2,1,70,0,1
158872,-100,4,2,0,70,0,1
160637,-100,4,2,1,70,0,1
163063,-100,4,1,1,70,0,1
163173,-100,4,2,1,70,0,1
163504,-100,4,1,1,70,0,1
163615,-100,4,2,1,70,0,1
163946,-100,4,1,1,70,0,1
164056,-100,4,2,1,70,0,1
164648,895.522388059701,4,2,1,30,1,0
166393,888.888888888889,4,2,1,30,1,0
168608,888.888888888889,4,2,1,30,1,0
172830,-100,4,1,1,30,0,0

[Colours]
Combo1 : 255,64,64
Combo2 : 255,128,255
Combo3 : 0,192,255
Combo4 : 255,192,0
Combo5 : 192,0,255

[HitObjects]
368,336,7486,5,4
144,336,8369,1,0
352,232,9251,1,0
256,176,9692,1,0
160,232,10133,1,0
80,96,11457,6,0,B|44:44,2,64,0|2|0
192,96,12339,2,0,B|320:96,1,128
432,96,13222,2,0,B|468:44,2,64,0|2|0
368,192,14104,2,0,B|328:232|286:243|256:244,1,128
144,192,14986,1,0
136,312,15427,2,0,B|184:348|256:361|328:348|376:312,2,256
144,48,18075,5,4
368,48,18958,1,0
160,152,19840,1,0
256,208,20281,1,0
352,152,20722,1,0
432,288,22046,6,0,B|468:340,2,64,0|2|0
320,288,22928,2,0,B|192:288,1,128
80,288,23811,2,0,B|44:340,2,64,0|2|0
144,192,24692,2,0,B|184:152|226:141|256:140,1,128
368,192,25574,1,0
376,72,26015,2,0,B|328:36|256:23|184:36|136:72,2,256
49,74,28663,6,0,B|-3:178|29:270|93:344|208:352,1,384,4|8
305,352,30427,2,0,B|420:344|484:270|515:178|464:74,1,384,0|8
368,64,32192,2,0,B|344:40|312:24|280:40|256:64|256:64|232:40|200:24|168:40|144:64,2,256
376,160,34398,2,0,B|312:200|256:209|200:200|136:160,1,256,8|8
32,112,35722,6,0,B|32:266|152:320,3,256
256,352,38810,1,8
359,320,39251,2,0,B|479:266|480:112,3,256
320,32,42780,6,0,B|256:32|240:64|224:80|208:112|192:128|176:160|112:160,3,256
192,352,46310,2,0,B|256:352|272:320|288:304|304:272|320:256|336:224|400:224,3,256
368,48,49839,5,4
144,48,50722,1,4
112,256,51604,1,4
200,328,52045,1,4
312,328,52486,1,4
400,256,52927,1,4
304,192,53369,6,0,B|338:49|480:32,2,256,4|0|0
256,292,55624,1,0
208,192,56075,2,0,B|174:49|32:32,1,256
32,136,57423,6,0,B|88:168,2,64,0|2|0
32,248,58305,1,0
88,344,58746,1,0
200,344,59187,2,0,B|168:288,2,64,0|2|0
256,248,60049,1,0
256,136,60490,5,0
312,40,60931,1,0
424,39,61372,2,0,B|472:128|410:219|304:192,2,256
304,192,64019,6,0,B|338:335|480:352,2,256,4|0|0
256,92,66225,1,0
208,192,66666,2,0,B|174:335|32:352,1,256
32,248,67990,6,0,B|88:216,2,64,0|2|0
32,136,68872,1,0
88,40,69313,1,0
200,40,69755,2,0,B|168:96,2,64,0|2|0
256,136,70637,1,0
256,248,71078,5,0
312,344,71519,1,0
424,344,71960,2,0,B|472:255|410:164|304:192,2,256
192,352,74608,6,0,B|128:352|58:327|32:256|32:192,1,256,4|0
144,240,75931,2,0,B|192:192,2,64,8|2|0
256,256,76813,2,0,B|281:316|336:352,1,128,8|0
432,304,77696,2,0,B|480:352,2,64,8|2|0
480,208,78578,5,8
368,224,79019,2,0,B|364:147|288:144,1,128,0|8
304,32,79902,1,0
192,32,80343,2,0,B|128:32|58:57|32:128|32:192,1,256,8|8
96,288,81666,2,0,B|160:288|230:263|256:192|256:128,3,256
480,240,85196,6,0,B|475:315|411:353|335:353|294:289,3,256
480,144,88725,2,0,B|475:68|411:30|335:30|294:94,3,256
368,319,92255,2,0,B|344:344|312:360|280:344|256:320|256:320|232:344|200:360|168:344|144:320,3,256
32,192,95784,6,0,B|36:37|192:32,1,256
352,32,97549,2,0,B|480:32,3,128
32,192,101078,5,2
256,352,102402,1,2
256,352,102622,1,2
256,352,102843,1,2
480,192,103725,1,2
424,112,104166,5,2
424,112,104387,1,2
424,112,104608,1,2
352,48,105049,1,2
256,32,105490,1,2
160,48,105931,1,2
88,112,106372,1,2
32,192,106813,5,2
256,352,107696,1,2
256,256,108137,2,0,B|288:224|312:160|256:152|256:136|200:128|224:64|256:32,3,256,2|2|2|2
368,352,111666,6,0,B|349:326|329:289|337:258|355:225|388:207|419:199|456:219|482:238,1,256,2|2
480,32,113431,2,0,B|352:16|256:66|256:192,1,320,2|2
144,352,115196,6,0,B|164:326|184:289|176:258|158:225|125:207|94:199|57:219|31:238,1,256,2|2
32,32,116960,2,0,B|160:16|256:66|256:192,1,320,2|2
336,352,118725,6,0,B|368:352|496:352|480:204|480:184,2,256,2|2|2
176,352,121152,1,2
176,352,121372,2,0,B|144:352|16:352|32:204|32:184,2,256,2|0|0
310,41,124019,5,4
200,40,124460,1,4
167,143,124902,1,4
256,208,125343,1,4
344,146,125784,6,0,B|400:144|477:178|488:248|480:320,1,256,4|0
368,304,127108,2,0,B|336:248,2,64,8|2|0
264,352,127990,2,0,B|136:352,1,128,8|0
104,248,128872,2,0,B|40:248,2,64,8|2|0
136,144,129755,6,0,B|264:144,1,128,8|0
304,248,130637,2,0,B|432:248,1,128,8|0
480,144,131519,2,0,B|392:49|256:32,1,256,8|8
144,32,132843,6,0,B|48:32|16:95|48:160|144:160,1,256
112,272,134166,2,0,B|80:328,2,64,8|2|0
192,352,135049,2,0,B|320:352,1,128,8|0
400,272,135931,2,0,B|432:328,2,64,8|2|0
480,192,136813,5,8
448,80,137255,1,0
336,48,137696,1,8
256,128,138137,1,0
176,48,138578,1,8
64,80,139019,1,0
32,192,139460,1,8
32,304,139902,6,0,B|80:352|163:331|208:288|208:208,1,256
304,176,141225,1,8
304,176,141446,1,0
304,176,141666,2,0,B|304:96|349:53|432:32|480:80,1,256
480,192,142990,5,8
480,192,143210,1,2
480,192,143431,2,0,B|416:304,3,128,0|8|0|8
320,352,145196,1,0
224,304,145637,2,0,B|192:208|120:208|152:240|80:240|48:144,1,256,8|8
48,32,146960,6,0,B|219:14|256:136,1,256
256,247,148284,1,8
256,247,148504,1,2
256,247,148725,2,0,B|293:370|464:352,1,256
477,160,150490,6,0,B|256:32,1,256
34,159,152255,2,0,B|256:32,1,256
31,288,154019,6,0,B|79:336|143:368|207:336|256:288,1,256
480,288,155784,2,0,B|432:336|368:368|304:336|256:288,1,256
368,80,157549,6,0,B|344:56|312:40|280:56|256:80|256:80|232:56|200:40|168:56|144:80,1,256
160,336,159313,1,2
352,336,159975,1,2
352,336,160196,1,2
312,136,161078,6,0,B|328:152|336:168|349:192|336:216|328:232|312:248,3,128,0|8|0|8
201,249,162843,2,0,B|184:232|176:216|163:192|176:168|184:152|200:136,3,128
256,48,164648,5,0
448,192,165543,1,0
256,336,166393,1,0
256,240,166837,1,0
256,144,167281,1,0
128,248,168608,5,0
128,248,168830,1,0
128,248,169052,2,0,B|72:280,2,64
128,136,170385,1,0
128,136,170608,1,0
128,136,170830,2,0,B|72:104,2,64
256,192,172385,5,0
256,192,172608,1,0
256,192,172830,12,0,175274
