osu file format v9

[General]
AudioFilename: Theme of Tomoe Mami.mp3
AudioLeadIn: 0
PreviewTime: 125784
Countdown: 0
SampleSet: Soft
StackLeniency: 0.6
Mode: 0
LetterboxInBreaks: 0

[Editor]
DistanceSpacing: 1
BeatDivisor: 4
GridSize: 16

[Metadata]
Title:Theme of Tomoe Mami
Artist:ice
Creator:DJPop
Version:Hard
Source:Puella Magi Madoka Magica
Tags:soundtrack bgm Kajiura Yuki mahou shoujo kanpakyin KanaRin

[Difficulty]
HPDrainRate:5
CircleSize:4
OverallDifficulty:5
ApproachRate:7
SliderMultiplier:1.92
SliderTickRate:2

[Events]
//Background and Video events
Video,-1800,"Theme of Tomoe Mami.avi"
0,0,"Theme of Tomoe Mami.png"
//Break Periods
//Storyboard Layer 0 (Background)
//Storyboard Layer 1 (Fail)
//Storyboard Layer 2 (Pass)
//Storyboard Layer 3 (Foreground)
Sprite,Foreground,Centre,"star2.png",320,240 F,0,184163,184385,0
//Storyboard Sound Samples
//Background Colour Transformations
3,100,255,255,0

[TimingPoints]
428,441.176470588235,4,2,1,50,1,0
7817,-100,4,2,2,50,0,0
8038,-100,4,2,1,50,0,0
8700,-100,4,2,2,50,0,0
8920,-100,4,2,1,50,0,0
10464,-100,4,2,2,50,0,0
10685,-100,4,2,1,50,0,0
15758,-100,4,2,2,50,0,0
15979,-100,4,2,1,50,0,0
16530,-100,4,1,2,50,0,0
18075,-100,4,2,1,50,0,0
18405,-100,4,2,2,50,0,0
18626,-100,4,2,1,50,0,0
19288,-100,4,2,2,50,0,0
19508,-100,4,2,1,50,0,0
20501,-100,4,1,2,50,0,0
21604,-100,4,2,1,50,0,0
26347,-100,4,2,2,50,0,0
26567,-100,4,2,1,50,0,0
27339,-100,4,2,2,50,0,0
27450,-100,4,2,1,50,0,0
27780,-100,4,2,2,50,0,0
27891,-100,4,2,1,60,0,0
28552,-100,4,2,1,70,0,0
28994,-100,4,1,1,70,0,0
29214,-100,4,2,1,70,0,0
30758,-100,4,1,1,70,0,0
30979,-100,4,2,1,70,0,0
34729,-100,4,2,2,70,0,0
34950,-100,4,2,1,70,0,0
39582,-100,4,1,1,70,0,0
39802,-100,4,2,1,70,0,0
40464,-100,4,1,1,70,0,0
40685,-100,4,2,1,70,0,0
41347,-100,4,1,1,70,0,0
41567,-100,4,2,1,70,0,0
43111,-100,4,1,1,70,0,0
43332,-100,4,2,1,70,0,0
43994,-100,4,1,1,70,0,0
44214,-100,4,2,1,70,0,0
44876,-100,4,1,1,70,0,0
45097,-100,4,2,1,70,0,0
46641,-100,4,1,1,70,0,0
46861,-100,4,2,1,70,0,0
47523,-100,4,1,1,70,0,0
47744,-100,4,2,1,70,0,0
51163,-100,4,2,1,46,0,0
51825,-100,4,2,1,52,0,0
52266,-100,4,2,1,58,0,0
52707,-100,4,2,1,64,0,0
53148,-100,4,2,1,70,0,0
53369,451.127819548872,4,2,1,70,1,0
56982,441.176470588235,4,2,1,70,1,0
60049,441.176470588235,4,2,1,70,1,0
60490,441.176470588235,4,2,1,70,1,0
62475,-100,4,1,2,70,0,0
64019,-100,4,2,1,70,0,0
66446,-100,4,1,2,70,0,0
67549,-100,4,2,1,70,0,0
73284,-100,4,2,2,70,0,0
73394,-100,4,2,1,70,0,0
73725,-100,4,2,2,70,0,0
73835,-100,4,2,1,70,0,0
94901,-100,4,2,2,70,0,0
95012,-100,4,2,1,70,0,0
95232,-100,4,1,2,70,0,0
95894,-100,4,2,1,70,0,0
98872,-100,4,1,1,31,0,0
98983,-100,4,1,1,44,0,0
99093,-100,4,1,1,57,0,0
99203,-100,4,1,1,70,0,0
99313,-149.253731343284,4,2,1,20,0,0
100637,-149.253731343284,4,1,2,20,0,0
107916,-100,4,1,2,45,0,0
123798,-100,4,2,1,45,0,0
125784,-100,4,2,1,70,0,1
160416,-100,4,1,2,70,0,1
162512,-100,4,2,1,70,0,1
164648,895.522388059701,4,2,1,30,1,0
166393,888.888888888889,4,2,1,30,1,0
167504,-100,4,2,2,30,0,0
167941,-100,4,1,1,30,0,0
168385,-100,4,2,1,30,0,0
168608,888.888888888889,4,2,1,30,1,0
172719,-100,4,1,1,30,0,0

[Colours]
Combo1 : 255,64,64
Combo2 : 255,128,255
Combo3 : 0,192,255
Combo4 : 255,192,0
Combo5 : 192,0,255

[HitObjects]
80,124,7486,6,0,B|57:237|111:319|193:372|306:350,2,384,4|0|0
256,192,9692,1,0
432,260,10133,2,0,B|455:147|401:65|319:12|206:34,1,384
64,208,11457,5,0
128,128,11677,1,2
160,224,11898,2,0,B|138:324|32:352,2,192
448,208,13222,5,0
384,128,13442,1,2
352,224,13663,2,0,B|374:324|480:352,1,192
256,352,14545,5,0
256,160,14986,1,0
160,320,15427,2,0,B|32:288|1:193|32:96|160:64,1,384
352,64,16751,2,0,B|471:64|480:176,2,192,2|2|2
256,64,17854,5,2
256,64,17964,1,2
256,64,18075,2,0,B|264:168|320:176|368:208|416:240|472:248|480:352,2,384,4|0|0
64,32,20280,1,0
32,224,20722,2,0,B|148:234|176:128,1,192,0|2
80,128,21383,1,2
256,352,22045,5,0
304,272,22266,1,2
352,352,22486,2,0,B|471:352|480:240,1,192
304,144,23369,1,0
256,352,23810,1,0
208,272,24030,1,2
160,352,24251,2,0,B|41:352|32:240,1,192
208,144,25133,5,0
32,32,25575,1,0
272,64,26016,2,0,B|385:-3|475:41|520:131|453:245,1,384
384,320,27119,2,0,B|340:358|292:352|247:333|229:278,2,192,10|10|10
336,240,28222,5,0
288,160,28442,1,10
240,80,28663,2,0,B|185:20|119:0|54:33|4:86|6:155|48:224,1,384,4|0
192,352,29986,1,8
192,256,30207,1,2
272,304,30427,2,0,B|326:363|392:383|457:350|507:297|505:228|463:159,1,384
256,196,31751,5,8
256,96,31972,1,2
176,32,32192,2,0,B|140:136|32:136,1,192,0|8
336,32,33075,2,0,B|372:136|480:136,1,192,0|8
256,136,33957,1,0
96,256,34398,2,0,B|160:352|256:371|352:352|416:256,1,384,8|8
416,32,35722,6,0,B|306:50|291:157,1,192,0|8
96,32,36604,2,0,B|114:142|221:156,1,192,0|8
96,352,37486,2,0,B|206:334|220:226,1,192,0|8
416,352,38369,2,0,B|398:242|290:227,1,192,0|8
256,320,39030,5,2
256,320,39141,1,0
255,320,39251,2,0,B|140:326|67:261|25:173|63:64,3,384
448,319,42560,5,2
448,319,42670,1,0
448,319,42781,2,0,B|486:210|444:122|371:57|256:64,3,384
80,288,46089,5,2
80,288,46200,1,0
80,288,46310,2,0,B|160:352|256:380|352:352|432:288,2,384
320,160,48516,2,0,B|387:227,1,96,8|2
192,160,49177,2,0,B|124:227,1,96,2|8
32,32,49839,5,4
480,32,50722,1,4
256,144,51604,1,4
187,351,52045,1,4
365,223,52486,1,4
145,223,52927,1,4
323,351,53369,6,0,B|436:355|480:264,1,192,4|0
189,351,54271,2,0,B|76:355|32:264,1,192
365,223,55173,1,0
145,223,55624,1,0
256,32,56075,2,0,B|256:224,2,192
32,128,57423,5,0
60,34,57643,1,2
138,93,57864,1,0
204,326,58305,1,0
307,57,58746,1,0
374,291,59187,1,0
452,350,59408,1,2
480,256,59629,1,0
448,32,60049,5,0
256,192,60490,1,0
64,352,60931,1,0
144,114,61372,2,0,B|182:70|218:46|259:50|314:68,2,192
367,269,62696,2,0,B|329:313|293:337|252:333|197:315,2,192,2|2|2
304,192,63799,5,2
304,192,63909,1,2
304,192,64019,2,0,B|390:142|424:48,1,192,4|0
208,192,64902,2,0,B|122:142|88:48,1,192
256,336,65784,1,0
256,48,66225,1,0
348,284,66666,2,0,B|256:238|164:284,1,192,0|2
163,284,67328,1,2
480,128,67990,5,0
387,103,68211,1,2
454,38,68431,1,0
341,287,68872,1,0
170,96,69313,1,0
58,346,69755,1,0
125,281,69975,1,2
32,256,70196,1,0
32,32,70637,5,0
256,192,71078,1,0
480,32,71519,1,0
287,279,71960,2,0,B|232:296|191:272|158:236|163:178,2,192
348,205,73063,2,0,B|353:147|320:111|279:87|224:104,2,192,10|10|10
256,192,74166,5,0
192,264,74387,1,10
128,336,74608,2,0,B|25:292|40:183,2,192,4|8|0
256,192,75931,1,8
320,264,76152,1,2
384,336,76372,2,0,B|486:292|472:183,1,192,0|8
256,192,77255,1,0
49,339,77696,5,8
49,244,77916,1,2
129,291,78137,1,0
404,253,78578,1,8
234,34,79019,1,0
277,351,79460,1,8
382,94,79902,1,0
107,132,80343,2,0,B|224:284,1,192,8|0
384,96,81225,1,8
408,345,81666,6,0,B|352:360|312:333|280:297|287:238,1,192,0|8
102,344,82549,2,0,B|87:288|114:248|150:216|209:223,1,192,0|8
103,38,83431,2,0,B|159:23|199:50|231:86|224:145,1,192,0|8
409,39,84313,2,0,B|424:95|397:135|361:167|302:160,1,192,0|8
224,224,84975,5,2
224,224,85085,1,0
224,224,85196,2,0,B|152:298|48:256,3,192,0|8|0|8
288,336,86960,2,0,B|360:262|464:304,3,192,0|8|0|8
432,208,88505,5,2
432,208,88614,1,0
432,208,88725,2,0,B|408:104|480:32,3,192,0|8|0|8
256,128,90490,2,0,B|280:232|208:304,3,192,0|8|0|8
128,352,92034,5,2
128,352,92144,1,0
128,352,92255,2,0,B|51:297|32:192,1,192,0|8
144,32,93137,2,0,B|221:87|240:192,1,192,0|8
352,352,94019,2,0,B|471:352|480:240,1,192,0|8
480,144,94681,2,0,B|471:32|352:32,1,192,2|2
256,43,95343,1,10
172,89,95563,1,2
112,160,95784,6,0,B|56:240,2,96,2|2|8
400,160,96666,2,0,B|456:240,2,96,0|2|8
119,286,97549,2,0,B|196:223,1,96,0|10
256,352,97990,2,0,B|256:256,1,96,0|10
392,286,98431,2,0,B|317:225,1,96,0|10
256,128,98872,2,0,B|256:96,7,24,10|10|10|10|10|10|10|10
408,296,101078,6,0,B|472:296,1,64.3200023002625,2|0
408,296,101519,2,0,B|376:351,1,64.3200023002625
408,296,101960,2,0,B|376:240,1,64.3200023002625
448,224,102402,1,2
408,160,102622,1,2
448,96,102843,2,0,B|480:40,1,64.3200023002625,2|0
448,96,103284,2,0,B|392:63,1,64.3200023002625
328,32,103725,1,2
152,104,104166,5,2
168,176,104387,1,2
96,152,104608,2,0,B|64:96,1,64.3200023002625,2|0
32,32,105049,1,2
96,232,105490,2,0,B|64:287,1,64.3200023002625,2|0
32,352,105931,1,2
256,352,106372,1,2
416,192,106813,2,0,B|480:192,2,64.3200023002625,2|0|0
256,32,107696,1,2
32,208,108137,6,0,B|128:239|220:208,1,192,2|0
480,176,109019,2,0,B|384:145|292:176,1,192,2|0
288,272,109681,1,2
288,272,109791,1,2
288,272,109902,2,0,B|334:362|448:352,1,192,2|0
224,112,110784,2,0,B|178:22|64:32,1,192,2|0
32,128,111446,5,2
32,128,111556,1,2
32,128,111666,2,0,B|64:176|78:215|64:256|32:304,1,192,2|0
281,264,112549,2,0,B|222:260|180:268|153:300|128:352,1,192,2|0
280,152,113431,2,0,B|223:156|182:149|154:116|128:64,2,192,2|0|0
144,208,114534,1,2
368,336,114975,5,2
368,336,115085,1,2
368,336,115196,2,0,B|464:296|480:192,1,192,2|0
282,71,116078,2,0,B|381:32|464:96,1,192,2|0
277,297,116960,2,0,B|194:231|208:128,2,192,2|0|0
352,192,118063,1,2
32,144,118505,5,2
32,144,118615,1,2
32,144,118725,2,0,B|41:32|160:32,1,192,2|0
32,240,119608,2,0,B|41:352|160:352,1,192,2|0
128,256,120269,1,2
232,272,120490,2,0,B|280:240|287:192|280:144|232:112,1,192,2|0
128,128,121152,1,2
160,31,121372,1,2
480,144,121813,5,2
480,240,122034,1,2
388,272,122255,2,0,B|340:240|333:192|340:144|388:112,3,192,2|0|0|0
164,33,124019,5,4
34,320,124460,1,4
347,350,124902,1,4
477,63,125343,1,4
128,176,125784,6,0,B|128:280|216:336,2,192,4|8|0
256,48,127108,1,8
336,96,127328,1,2
384,176,127549,2,0,B|384:280|296:336,1,192,0|8
176,96,128431,1,0
96,352,128872,5,8
48,268,129093,1,2
32,172,129313,1,0
314,40,129755,1,8
286,351,130196,1,0
480,32,130637,1,8
197,162,131078,1,0
453,342,131519,2,0,B|368:162,1,192,8|0
240,320,132402,1,8
64,208,132843,6,0,B|16:245|15:295|40:338|101:347,2,192,0|8|0
160,32,134166,1,8
64,32,134387,1,2
112,112,134608,2,0,B|140:218|256:208,1,192,0|8
448,128,135490,2,0,B|420:22|304:32,1,192,0|8
256,112,136152,5,2
256,112,136262,1,0
256,112,136372,1,0
32,352,136813,1,8
32,32,137255,1,0
256,272,137696,1,8
480,32,138137,1,0
480,352,138578,1,8
256,112,139019,1,0
32,352,139460,1,8
152,352,139681,5,2
152,352,139791,1,0
152,352,139902,2,0,B|148:236|32:232,2,192,0|8|0
356,176,141225,1,8
448,144,141446,1,2
480,232,141666,2,0,B|363:236|359:352,1,192,0|8
156,176,142549,1,0
432,32,142990,5,8
480,112,143210,1,2
389,113,143431,1,0
106,276,143872,1,8
248,32,144313,1,0
248,358,144755,1,8
107,113,145196,1,0
389,276,145637,2,0,B|376:216|348:183|296:176|248:192,1,192,8|0
32,192,146519,1,8
256,104,146960,6,0,B|364:130|416:32,2,192,0|8|0
120,280,148284,1,8
184,352,148505,1,2
256,288,148725,2,0,B|364:262|416:360,1,192,0|8
256,192,149608,2,0,B|448:192,1,192,0|8
480,96,150269,5,2
480,96,150380,1,0
480,96,150490,2,0,B|373:133|320:32,1,192,0|8
32,96,151372,2,0,B|139:133|192:32,1,192,0|8
336,240,152255,2,0,B|374:334|480:352,1,192,0|8
176,240,153137,2,0,B|138:334|32:352,1,192,0|8
32,256,153799,5,2
32,256,153909,1,0
32,256,154019,2,0,B|88:248|116:192|88:136|32:128,1,192,0|8
481,127,154902,2,0,B|424:136|396:192|424:248|480:256,1,192,0|8
168,352,155784,2,0,B|256:285|344:352,1,192,0|8
344,32,156666,2,0,B|256:99|168:32,1,192,0|8
112,112,157328,5,2
112,112,157438,1,0
112,112,157548,2,0,B|64:196,2,96,0|2|8
256,256,158431,2,0,B|256:352,2,96,0|2|8
400,112,159313,2,0,B|448:196,2,96,0|2|8
400,112,159975,1,2
400,112,160196,1,0
120,224,160637,5,10
120,224,160858,1,2
176,304,161078,2,0,B|208:352|256:359|304:352|336:304,3,192,2|8|0|8
392,224,162622,5,2
392,224,162733,1,0
392,224,162843,2,0,B|432:136,1,96,0|10
301,224,163284,2,0,B|311:128,1,96,0|10
211,224,163725,2,0,B|200:128,1,96,0|10
120,224,164166,2,0,B|79:136,1,96,0|8
32,32,164648,5,0
480,32,165543,1,0
176,208,166393,1,0
256,352,166837,1,0
336,208,167281,2,0,B|304:160|256:153|208:160|176:208,1,192
32,144,168608,5,0
64,64,168830,1,0
144,32,169052,1,0
344,128,169496,1,0
168,256,169941,1,0
368,352,170385,1,0
448,320,170608,1,0
480,240,170830,1,0
344,128,171274,5,0
168,256,171719,1,0
256,192,172385,1,0
256,192,172608,1,0
256,192,172719,12,0,175274
