osu file format v9

[General]
AudioFilename: Theme of Puella Magi.mp3
AudioLeadIn: 0
PreviewTime: 107690
Countdown: 0
SampleSet: Soft
StackLeniency: 0.6
Mode: 0
LetterboxInBreaks: 0

[Editor]
DistanceSpacing: 0.8
BeatDivisor: 2
GridSize: 8

[Metadata]
Title:Theme of Puella Magi
Artist:ice
Creator:DJPop
Version:Hard
Source:Puella Magi Madoka Magica
Tags:soundtrack bgm Kajiura Yuki mahou shoujo KanaRin kanpakyin

[Difficulty]
HPDrainRate:5
CircleSize:4
OverallDifficulty:6
ApproachRate:8
SliderMultiplier:1.92
SliderTickRate:0.5

[Events]
//Background and Video events
0,0,"Theme of Puella Magi.png"
Video,-940,"Theme of Puella Magi.avi"
//Break Periods
2,63240,66400
2,129112,130260
2,182220,186485
//Storyboard Layer 0 (Background)
//Storyboard Layer 1 (Fail)
//Storyboard Layer 2 (Pass)
//Storyboard Layer 3 (Foreground)
Sprite,Foreground,Centre,"star2.png",320,240 F,0,234644,234912,0
//Storyboard Sound Samples
//Background Colour Transformations
3,100,255,255,255

[TimingPoints]
10930,405.405405405405,3,2,1,40,1,0
58362,416.666666666667,3,2,1,40,1,0
58778,428.571428571429,3,2,1,40,1,0
59635,441.176470588235,3,2,1,40,1,0
60517,454.545454545455,3,2,1,40,1,0
60971,468.75,3,2,1,40,1,0
61439,500,3,2,1,40,1,0
61939,566.037735849057,3,2,1,40,1,0
62505,535.714285714286,3,2,1,40,1,0
67150,405.405405405405,3,2,1,70,1,0
103433,-100,3,2,1,85,0,0
108501,410.958904109589,3,2,1,100,1,1
125350,428.571428571429,3,2,1,100,1,1
125778,447.761194029851,3,2,1,70,1,0
126449,-100,3,2,2,0,0,0
131010,476.190476190476,3,2,1,70,1,0
131486,408.163265306122,3,2,1,70,1,0
136792,405.405405405405,3,2,1,70,1,0
140846,408.163265306122,3,2,1,70,1,0
144723,405.405405405405,3,2,1,70,1,0
148371,-100,3,2,1,55,0,0
182223,475.586556753329,3,2,1,70,1,0
187235,410.958904109589,3,2,1,100,1,1
206960,-100,3,2,1,100,0,0
206961,-100,3,2,1,100,0,1
219289,416.666666666667,3,2,1,100,1,1
220539,419.58041958042,3,2,1,100,1,1
221797,428.571428571429,3,2,1,100,1,1
223082,451.127819548872,3,2,1,100,1,1
223533,461.538461538462,3,2,1,100,1,1
223994,472.44094488189,3,2,2,100,1,1
224466,535.714285714286,3,2,1,40,1,0

[Colours]
Combo1 : 255,64,64
Combo2 : 255,128,255
Combo3 : 0,192,255
Combo4 : 255,192,0
Combo5 : 192,0,255

[HitObjects]
256,192,10930,5,2
104,332,11335,1,0
56,268,11538,1,0
32,192,11740,1,0
56,116,11943,1,0
104,52,12146,1,0
464,148,12551,2,0,B|495:192|464:236,2,96
256,192,13362,5,2
408,332,13767,1,0
456,268,13970,1,0
480,192,14172,1,0
456,116,14375,1,0
408,52,14578,1,0
48,148,14983,2,0,B|17:192|48:236,2,96
256,192,15794,5,2
116,104,16200,1,0
180,56,16403,1,0
256,32,16605,1,0
332,56,16808,1,0
396,104,17011,1,0
256,352,17416,1,0
256,352,17821,1,0
408,272,18227,6,0,B|472:344,2,96
104,272,19038,2,0,B|40:344,2,96
256,32,19848,1,0
256,32,20254,1,0
32,192,20659,6,0,B|79:98|168:64,1,192,2|0
224,120,21267,1,0
256,192,21470,1,0
288,264,21673,1,0
343,320,21875,2,0,B|433:286|480:192,1,192
464,116,22484,1,0
404,60,22686,1,0
32,192,23092,6,0,B|79:286|168:320,1,192,2|0
224,264,23700,1,0
256,192,23903,1,0
288,120,24106,1,0
343,63,24308,2,0,B|433:98|480:192,1,192
464,268,24917,1,0
404,324,25119,1,0
216,136,25524,6,0,B|215:90|216:40|144:16|96:48,1,192,2|0
64,120,26132,1,0
32,192,26335,1,0
64,264,26538,1,0
95,335,26740,2,0,B|144:368|216:344|215:294|216:248,2,192
288,120,27957,5,2
264,192,28159,1,0
288,264,28362,2,0,B|320:296|373:328|424:296|456:264,1,192
480,192,28970,1,0
456,120,29173,2,0,B|424:88|373:56|320:88|288:120,2,192
256,192,30389,5,2
468,264,30794,1,0
408,316,30997,1,0
336,348,31200,1,0
256,352,31402,1,0
176,348,31605,2,0,B|62:334|32:240,2,192
256,192,32821,5,2
400,92,33227,1,0
336,44,33430,1,0
256,32,33632,1,0
176,44,33835,1,0
112,92,34038,1,0
300,336,34443,2,0,B|256:367|212:336,2,96
256,192,35254,5,2
44,120,35659,1,0
104,68,35862,1,0
176,36,36065,1,0
256,32,36267,1,0
336,36,36470,2,0,B|450:50|480:144,2,192
192,192,37686,5,2
256,144,37889,1,0
320,192,38092,1,0
112,352,38497,2,0,B|64:340|32:304,2,96
400,352,39308,5,0
472,312,39511,1,0
408,256,39713,1,0
480,216,39916,1,0
424,152,40119,2,0,B|392:120|366:73|416:24|448:24|480:32,2,192,2|0|0
352,192,41132,1,0
312,264,41335,1,0
256,328,41538,1,0
176,352,41740,2,0,B|68:352|32:248,1,192
160,48,42551,5,2
240,40,42754,1,0
320,32,42957,2,0,B|384:32|407:88|384:144|320:144,1,192
240,152,43565,1,0
160,160,43767,2,0,B|96:160|73:216|96:272|160:272,1,192
240,264,44375,1,0
320,256,44578,1,0
400,248,44781,1,0
480,240,44984,1,2
304,340,45389,6,0,B|214:369|116:336,1,192
56,272,45997,1,0
32,192,46200,1,0
56,112,46402,1,0
115,48,46605,2,0,B|214:15|304:44,1,192
360,304,47416,5,2
432,352,47619,1,0
480,280,47821,1,0
360,80,48227,5,0
432,32,48430,1,0
480,104,48632,1,0
372,192,49038,5,0
288,192,49240,1,0
204,192,49443,1,0
120,192,49646,1,0
76,120,49848,2,0,B|80:80|108:8|216:32,2,192,2|0|0
32,192,50862,1,0
76,264,51065,2,0,B|80:304|108:376|216:352,1,192
480,192,51875,1,0
120,72,52281,6,0,B|32:32,2,96,2|0|0
272,240,53092,1,0
196,276,53294,1,0
120,312,53497,2,0,B|32:352,2,96
196,108,54308,1,0
400,332,54713,5,2
464,280,54916,1,0
480,200,55119,2,0,B|486:131|472:72|396:48,1,192
112,52,55929,1,0
48,104,56132,1,0
32,184,56335,2,0,B|26:253|40:312|116:336,1,192
192,100,57146,5,2
256,44,57348,1,0
320,100,57551,2,0,B|366:192|320:284,1,192
256,340,58159,1,0
192,284,58362,2,0,B|146:192|192:100,1,192
256,192,59206,1,0
128,192,59635,6,0,B|32:192,2,96,2|0|0
384,192,60517,2,0,B|480:192,2,96
256,32,61439,1,0
256,352,61939,1,0
256,192,62505,5,2
256,192,62772,1,0
256,192,63040,1,0
480,40,67150,6,0,B|361:16|296:64,1,192,2|0
240,120,67758,1,0
208,192,67960,1,0
480,344,68366,2,0,B|361:368|296:320,2,192
240,264,69582,5,2
128,128,69987,1,0
184,192,70190,1,0
128,256,70393,1,0
52,99,70798,2,0,B|6:191|52:284,2,192
208,40,72014,6,0,B|327:16|392:64,1,192,2|0
448,120,72622,1,0
480,192,72824,1,0
208,344,73230,2,0,B|327:368|392:320,2,192
32,200,74447,5,2
116,208,74650,1,0
80,128,74852,2,0,B|256:-10|432:128,2,384
32,352,76879,6,0,B|145:360|204:288,1,192,2|0
256,224,77487,1,0
307,287,77690,2,0,B|367:360|480:352,1,192
256,32,78501,2,0,B|256:224,1,192
256,352,79312,5,2
32,152,79717,1,0
32,236,79920,1,0
104,192,80122,2,0,B|204:134|176:32,1,192
408,192,80933,2,0,B|308:134|336:32,1,192
480,352,81744,6,0,B|367:360|308:288,1,192,2|0
256,224,82352,1,0
204,287,82555,2,0,B|145:360|32:352,1,192
256,224,83366,2,0,B|256:32,1,192
480,176,84177,5,2
396,168,84380,1,0
432,248,84582,2,0,B|256:386|80:248,1,384
324,116,85798,5,0
300,32,86001,1,0
212,32,86204,1,0
188,116,86406,1,0
256,172,86609,1,2
76,48,87014,6,0,B|67:146|116:232,1,192
176,304,87622,1,0
256,336,87825,1,0
336,304,88028,1,0
395,232,88231,2,0,B|445:146|436:48,1,192
76,48,89041,5,2
160,48,89244,1,0
244,48,89447,2,0,B|436:48,2,192
188,268,90663,5,0
212,352,90866,1,0
300,352,91069,1,0
324,268,91271,1,0
256,212,91474,1,2
436,336,91879,6,0,B|445:238|396:152,1,192
336,80,92487,1,0
256,48,92690,1,0
176,80,92893,1,0
116,151,93096,2,0,B|67:238|76:336,1,192
436,336,93906,5,2
76,336,94312,2,0,B|268:336,2,192
96,32,95528,5,0
176,64,95731,1,0
256,96,95933,1,0
336,64,96136,1,0
416,32,96339,1,2
460,232,96744,6,0,B|451:352|340:352,1,192
256,352,97352,1,0
172,352,97555,2,0,B|61:352|52:232,2,192
448,312,98771,5,2
416,239,98974,1,0
416,160,99177,2,0,B|422:108|448:72,2,96
64,72,99987,5,0
96,145,100190,1,0
96,224,100393,2,0,B|90:276|64:312,2,96
296,128,101204,5,2
216,128,101406,1,0
212,48,101609,2,0,B|256:17|300:48,2,96
216,256,102420,5,0
296,256,102622,1,0
300,336,102825,2,0,B|256:367|212:336,2,96
256,128,103636,6,0,B|256:32,2,96,2|0|0
320,192,104244,2,0,B|400:176|486:187|496:272|480:352,2,288
256,256,105663,1,0
32,352,106068,2,0,B|16:272|26:187|112:176|192:192,2,288,2|0|0
32,128,107690,5,0
116,107,107893,1,0
208,81,108095,1,0
309,52,108298,1,0
424,32,108501,2,0,B|444:40|460:48|476:64|498:105|476:144|460:160|444:168|424:176,2,192,6|0|0
400,104,109528,1,0
328,136,109733,1,10
352,208,109939,1,0
280,240,110144,2,0,B|248:256|220:272|208:280|200:312|188:320|160:336|128:352,1,192
48,352,110761,1,0
80,280,110966,6,0,B|112:168|216:168,1,192,6|0
295,167,111583,2,0,B|400:168|432:280,1,192
464,352,112199,1,10
480,128,112610,5,0
396,107,112816,1,0
304,81,113021,1,0
203,52,113227,1,0
88,32,113432,2,0,B|68:40|52:48|36:64|14:105|36:144|52:160|68:168|88:176,2,192,2|0|0
112,104,114459,1,0
184,136,114665,1,10
160,208,114870,1,0
232,240,115076,2,0,B|240:184|273:156|328:152|372:200,1,192
440,240,115692,1,0
372,280,115898,6,0,B|344:328|312:356|256:367|200:356|168:328|140:280,2,288,2|0|10
96,352,117542,5,0
53,276,117747,1,0
38,180,117953,1,0
73,80,118158,1,0
176,32,118364,2,0,B|274:23|360:72,2,192,6|0|0
252,108,119391,1,0
328,184,119596,2,0,B|230:193|144:144,2,192,10|0|0
112,352,120829,5,6
32,352,121035,1,0
112,352,121240,2,0,B|226:363|256:256,1,192
400,352,122062,5,10
480,352,122268,1,0
400,352,122473,2,0,B|286:363|256:256,1,192
32,88,123295,5,6
88,31,123501,1,0
167,36,123706,2,0,B|134:133|36:166,1,192
480,88,124528,5,10
424,31,124734,1,0
345,36,124939,2,0,B|377:133|475:166,1,192
256,192,125778,5,2
256,192,126001,1,0
256,192,126225,1,0
256,192,126449,12,0,128912
256,192,131010,5,0
111,351,131486,6,0,B|207:351,1,96
71,281,131894,2,0,B|119:197,1,96
32,352,132302,1,0
401,351,132710,6,0,B|305:351,1,96
441,281,133118,2,0,B|393:197,1,96
480,352,133526,1,0
152,231,133934,6,0,B|27:231,1,96
181,157,134343,2,0,B|92:68,1,96
256,128,134751,2,0,B|256:3,1,96
328,157,135159,2,0,B|416:68,1,96
359,231,135567,2,0,B|483:231,1,96
256,268,135975,5,0
256,352,136179,1,0
352,32,136792,5,0
300,104,136994,1,0
212,104,137197,1,0
160,32,137400,1,0
80,192,137805,5,0
168,192,138008,1,0
256,192,138210,1,0
344,192,138413,1,0
432,192,138616,1,0
352,352,139021,5,0
300,280,139223,1,0
212,280,139426,1,0
160,352,139629,1,0
140,147,140035,5,0
174,65,140237,1,0
256,32,140440,1,0
337,65,140643,1,0
371,147,140846,2,0,B|402:242|371:335,1,192
286,345,141458,1,0
200,352,141662,6,0,B|104:352,2,96
136,280,142274,2,0,B|232:280,2,96
120,200,142886,2,0,B|36:152,2,96
100,105,143499,2,0,B|183:153,2,96
207,44,144111,2,0,B|256:128,2,96
334,118,144723,2,0,B|286:35,2,96
384,48,145331,2,0,B|480:48,1,96
480,128,145736,6,0,B|480:224,1,96
480,224,146141,1,0
400,328,146344,2,0,B|400:232,1,96
400,232,146750,1,0
320,144,146952,2,0,B|320:240,1,96
320,240,147358,1,0
240,344,147560,2,0,B|240:248,1,96
240,248,147966,1,0
160,152,148168,5,6
160,352,148574,5,0
80,320,148777,1,0
48,240,148979,1,0
40,152,149182,1,0
32,64,149385,1,0
256,128,149790,2,0,B|256:32,2,96
264,216,150398,1,0
352,232,150601,1,2
352,32,151006,5,0
432,64,151209,1,0
464,144,151411,1,0
472,232,151614,1,0
480,320,151817,1,0
256,256,152222,2,0,B|256:352,2,96
256,168,152830,1,0
256,80,153033,1,2
32,32,153439,5,0
104,88,153641,1,0
32,144,153844,1,0
104,200,154047,1,0
32,256,154250,1,0
288,192,154655,2,0,B|328:104,2,96
256,272,155263,1,0
224,352,155466,2,0,B|32:352,1,192,2|0
312,352,156277,5,0
396,352,156479,1,0
480,352,156682,1,0
224,192,157087,2,0,B|184:280,2,96
256,112,157695,1,0
288,32,157898,1,2
480,32,158304,5,0
456,112,158506,1,0
432,192,158709,1,0
408,272,158912,1,0
480,312,159114,2,0,B|464:336|412:377|346:343|328:288,1,192
304,208,159723,1,0
280,124,159925,2,0,B|256:32,1,96
256,32,160331,1,2
160,352,160736,5,0
72,352,160938,1,0
32,272,161141,1,0
72,192,161344,1,0
160,192,161546,2,0,B|352:192,1,192
440,192,162155,1,0
480,112,162357,2,0,B|485:61|440:32,1,96
352,32,162763,1,2
32,32,163168,5,0
56,112,163370,1,0
80,192,163573,1,0
104,272,163776,1,0
32,312,163978,2,0,B|48:336|100:377|166:343|184:288,1,192
208,208,164587,1,0
231,124,164789,2,0,B|256:32,1,96
256,32,165195,1,2
460,152,165601,6,0,B|451:32|340:32,1,192
256,32,166209,1,0
172,31,166412,2,0,B|61:32|52:152,1,192
40,232,167020,1,0
64,312,167223,1,0
136,352,167425,1,0
220,352,167628,6,0,B|418:352|424:200,3,288
424,120,169655,1,0
372,56,169858,1,0
292,32,170060,6,0,B|99:32|96:192,3,288,2|0|0|0
96,272,172087,1,0
148,340,172290,1,0
232,352,172493,6,0,B|342:364|392:272,1,192
432,352,173101,2,0,B|492:276|480:172,1,192
400,192,173709,2,0,B|412:82|320:32,1,192
312,120,174317,1,0
260,192,174520,1,0
208,120,174722,1,0
208,32,174925,6,0,B|106:76|109:181,1,192
35,133,175533,2,0,B|21:228|83:312,1,192
142,255,176141,2,0,B|186:356|291:353,1,192
368,328,176750,1,0
440,280,176952,1,0
472,200,177155,1,0
416,128,177358,6,0,B|472:48,1,96
375,49,177763,1,0
375,49,177966,2,0,B|320:128,1,96
232,120,178371,1,0
232,120,178574,2,0,B|288:40,1,96
191,41,178979,1,0
191,41,179182,2,0,B|136:120,1,96
88,184,179587,1,0
40,256,179790,6,0,B|96:336,1,96
191,334,180195,1,0
191,334,180398,2,0,B|136:256,1,96
240,256,180804,1,0
240,256,181006,2,0,B|296:336,1,96
391,334,181412,1,0
391,334,181614,2,0,B|336:256,1,96
384,184,182020,1,0
256,192,187235,5,6
256,32,187645,2,0,B|139:24|96:112,1,192
68,192,188262,1,0
148,232,188467,1,10
84,296,188673,1,0
164,336,188878,2,0,B|257:382|348:336,1,192
428,296,189495,1,0
364,232,189700,1,2
256,32,190111,5,0
256,32,190317,2,0,B|373:24|416:112,1,192
444,192,190933,1,10
112,192,191344,5,0
196,210,191550,1,0
285,245,191755,1,0
382,285,191961,1,0
478,347,192166,1,2
120,352,192577,6,0,B|32:296|32:192,1,192
48,112,193193,1,0
104,48,193399,1,10
184,32,193604,1,0
268,32,193810,2,0,B|284:32|332:48|352:96|332:144|284:160|268:160,1,192
184,160,194426,1,0
184,240,194632,6,0,B|223:335|328:352,1,192,2|0
271,231,195248,2,0,B|376:248|416:344,1,192
328,352,195865,1,10
448,32,196276,5,0
370,70,196481,1,0
276,93,196687,1,0
171,82,196892,1,0
64,32,197098,1,6
176,224,197508,2,0,B|208:180|256:162|304:180|336:224,1,192
256,268,198125,1,0
256,352,198330,1,10
32,192,198741,1,0
480,192,199152,1,0
255,31,199563,5,6
255,31,199769,1,0
255,31,199974,2,0,B|207:63|191:111|207:159|255:191|256:192,1,192
350,321,200796,5,10
350,321,201002,1,0
350,321,201207,2,0,B|370:267|355:219|314:189|256:191|256:192,1,192
103,142,202029,5,6
103,142,202235,1,0
103,142,202440,2,0,B|119:198|159:228|210:228|255:192|256:192,1,192
408,142,203262,5,10
408,142,203468,1,0
408,142,203673,2,0,B|363:106|312:105|271:135|256:191|256:192,1,192
162,321,204495,5,2
162,321,204701,1,0
162,321,204906,2,0,B|219:324|260:294|276:246|256:192|256:192,1,192
256,192,205728,5,10
48,160,206139,5,0
124,102,206344,1,0
221,60,206550,1,0
334,39,206755,1,0
459,33,206961,1,6
472,256,207371,5,0
408,320,207577,2,0,B|368:352|321:363|272:352|232:320,1,192
168,256,208193,1,10
104,320,208399,1,0
40,256,208604,2,0,B|104:184,2,96
104,320,209221,1,0
168,256,209426,1,2
256,32,209837,5,0
256,32,210043,2,0,B|285:18|320:20|365:44|353:93|330:121|301:134,1,192
256,32,210659,2,0,B|226:18|191:20|146:44|158:93|181:121|210:134,1,192,10|0
256,224,211276,1,0
336,288,211481,1,0
256,352,211687,1,0
176,288,211892,1,6
480,352,212303,5,0
480,264,212508,2,0,B|483:147|408:96,1,192
328,56,213125,1,10
240,40,213330,1,0
152,32,213536,2,0,B|48:32,2,96
188,112,214152,1,0
224,192,214358,6,0,B|240:224|304:266|368:224|384:192,1,192,2|0
432,120,214974,2,0,B|476:36,2,96
472,200,215591,2,0,B|472:324|368:336,1,192,10|0
272,351,216207,1,0
166,342,216413,1,0
68,280,216618,1,0
35,159,216824,1,6
304,32,217235,5,0
344,112,217440,2,0,B|304:144|255:155|208:144|168:112,1,192
208,32,218056,1,10
256,352,218467,2,0,B|256:256,1,96
256,352,218878,1,0
372,40,219289,6,0,B|468:32,2,96,6|0|0
275,47,219914,1,0
180,56,220122,1,0
83,63,220330,1,0
124,158,220539,6,0,B|28:166,2,96,10|0|0
219,148,221168,1,0
314,140,221378,1,0
410,133,221587,1,0
388,229,221797,6,0,B|483:220,2,96,6|0|0
291,238,222439,1,0
196,246,222654,1,0
99,255,222868,1,0
140,347,223082,6,0,B|44:355,2,96,10|0|0
236,340,223763,1,0
332,331,223994,1,2
428,322,224230,1,8
