osu file format v14

[General]
AudioFilename: 87_00.MP3
AudioLeadIn: 0
PreviewTime: 36497
Countdown: 0
SampleSet: Normal
StackLeniency: 0.7
Mode: 3
LetterboxInBreaks: 0
SpecialStyle: 0
WidescreenStoryboard: 1

[Editor]
DistanceSpacing: 0.9
BeatDivisor: 12
GridSize: 32
TimelineZoom: 2.699999

[Metadata]
Title:Bifrost
TitleUnicode:Bifrost
Artist:iNID
ArtistUnicode:iNID
Creator:snoverpk
Version:Oxygen
Source:LaTale
Tags:
BeatmapID:1330702
BeatmapSetID:630347

[Difficulty]
HPDrainRate:8.5
CircleSize:4
OverallDifficulty:8.5
ApproachRate:5
SliderMultiplier:1.4
SliderTickRate:1

[Events]
//Background and Video events
0,0,"19.jpg",0,0
//Break Periods
//Storyboard Layer 0 (Background)
//Storyboard Layer 1 (Fail)
//Storyboard Layer 2 (Pass)
//Storyboard Layer 3 (Foreground)
//Storyboard Sound Samples

[TimingPoints]
497,375,4,1,0,15,1,0
12497,-111.111111111111,4,1,0,15,0,0
24497,-109.89010989011,4,1,0,15,0,0
27497,-108.695652173913,4,1,0,15,0,0
30497,-107.52688172043,4,1,0,15,0,0
33497,-106.382978723404,4,1,0,15,0,0
34997,-105.263157894737,4,1,0,15,0,0
35372,-104.166666666667,4,1,0,15,0,0
35747,-103.092783505155,4,1,0,15,0,0
36122,-102.040816326531,4,1,0,15,0,0
36497,-100,4,1,0,15,0,1
46997,-100,4,1,0,15,0,0
47184,-101.010101010101,4,1,0,15,0,0
47372,-102.040816326531,4,1,0,15,0,0
47559,-103.092783505155,4,1,0,15,0,0
47747,-104.166666666667,4,1,0,15,0,0
47934,-105.263157894737,4,1,0,15,0,0
48122,-106.382978723404,4,1,0,15,0,0
48309,-107.52688172043,4,1,0,15,0,0
48497,-108.695652173913,4,1,0,15,0,0
48684,-109.89010989011,4,1,0,15,0,0
48872,-111.111111111111,4,1,0,15,0,0
49059,-112.359550561798,4,1,0,15,0,0
49247,-113.636363636364,4,1,0,15,0,0
49434,-116.279069767442,4,1,0,15,0,0
49622,-119.047619047619,4,1,0,15,0,0
49809,-121.951219512195,4,1,0,15,0,0
49997,-100,4,1,0,15,0,0
61997,-108.695652173913,4,1,0,15,0,0
73997,-104.166666666667,4,1,0,15,0,0
83747,-103.092783505155,4,1,0,15,0,0
84497,-102.040816326531,4,1,0,15,0,0
85247,-101.010101010101,4,1,0,15,0,0
85997,-100,4,1,0,15,0,1
108497,-100,4,1,0,15,0,0
108684,-101.010101010101,4,1,0,15,0,0
108872,-102.040816326531,4,1,0,15,0,0
109059,-103.092783505155,4,1,0,15,0,0
109247,-104.166666666667,4,1,0,15,0,0
109434,-105.263157894737,4,1,0,15,0,0
109622,-106.382978723404,4,1,0,15,0,0
109809,-107.52688172043,4,1,0,15,0,0
109997,-108.695652173913,4,1,0,15,0,0
110184,-109.89010989011,4,1,0,15,0,0
110372,-111.111111111111,4,1,0,15,0,0
110559,-112.359550561798,4,1,0,15,0,0
110747,-113.636363636364,4,1,0,15,0,0
110934,-116.279069767442,4,1,0,15,0,0
111122,-119.047619047619,4,1,0,15,0,0
111309,-121.951219512195,4,1,0,15,0,0
111497,-108.695652173913,4,1,0,15,0,0

[HitObjects]
64,192,497,5,0,0:0:0:0:
448,192,497,1,0,0:0:0:0:
320,192,497,1,0,0:0:0:0:
64,192,778,1,0,0:0:0:0:
448,192,778,1,0,0:0:0:0:
192,192,778,1,0,0:0:0:0:
64,192,1059,1,0,0:0:0:0:
448,192,1059,1,0,0:0:0:0:
320,192,1059,1,0,0:0:0:0:
192,192,1247,1,0,0:0:0:0:
192,192,1340,1,0,0:0:0:0:
320,192,1434,1,0,0:0:0:0:
448,192,1434,1,0,0:0:0:0:
64,192,1622,1,0,0:0:0:0:
320,192,1622,1,0,0:0:0:0:
64,192,1809,1,0,0:0:0:0:
448,192,1809,1,0,0:0:0:0:
192,192,1809,128,0,1997:0:0:0:0:
320,192,1997,1,0,0:0:0:0:
64,192,2184,1,0,0:0:0:0:
320,192,2184,1,0,0:0:0:0:
448,192,2184,1,0,0:0:0:0:
192,192,2372,1,0,0:0:0:0:
64,192,2559,1,0,0:0:0:0:
448,192,2559,1,0,0:0:0:0:
64,192,2747,1,0,0:0:0:0:
320,192,2747,1,0,0:0:0:0:
320,192,2840,1,0,0:0:0:0:
192,192,2934,1,0,0:0:0:0:
448,192,2934,1,0,0:0:0:0:
320,192,3122,1,0,0:0:0:0:
192,192,3122,1,0,0:0:0:0:
64,192,3309,1,0,0:0:0:0:
320,192,3309,1,0,0:0:0:0:
64,192,3497,1,0,0:0:0:0:
448,192,3497,1,0,0:0:0:0:
192,192,3590,1,0,0:0:0:0:
320,192,3778,1,0,0:0:0:0:
448,192,3872,1,0,0:0:0:0:
64,192,3872,1,0,0:0:0:0:
320,192,4059,1,0,0:0:0:0:
192,192,4153,1,0,0:0:0:0:
448,192,4247,1,0,0:0:0:0:
320,192,4247,1,0,0:0:0:0:
64,192,4340,1,0,0:0:0:0:
192,192,4434,1,0,0:0:0:0:
320,192,4528,1,0,0:0:0:0:
448,192,4622,1,0,0:0:0:0:
64,192,4622,1,0,0:0:0:0:
320,192,4809,1,0,0:0:0:0:
192,192,4903,1,0,0:0:0:0:
64,192,4997,1,0,0:0:0:0:
320,192,4997,1,0,0:0:0:0:
448,192,4997,1,0,0:0:0:0:
192,192,5184,1,0,0:0:0:0:
192,192,5278,1,0,0:0:0:0:
320,192,5372,1,0,0:0:0:0:
448,192,5372,1,0,0:0:0:0:
64,192,5372,1,0,0:0:0:0:
64,192,5559,1,0,0:0:0:0:
448,192,5559,1,0,0:0:0:0:
320,192,5653,1,0,0:0:0:0:
192,192,5747,1,0,0:0:0:0:
320,192,5840,1,0,0:0:0:0:
448,192,5840,1,0,0:0:0:0:
64,192,5934,1,0,0:0:0:0:
448,192,6028,1,0,0:0:0:0:
192,192,6122,1,0,0:0:0:0:
64,192,6122,1,0,0:0:0:0:
320,192,6215,1,0,0:0:0:0:
448,192,6309,1,0,0:0:0:0:
192,192,6403,1,0,0:0:0:0:
64,192,6403,1,0,0:0:0:0:
320,192,6497,1,0,0:0:0:0:
448,192,6497,1,0,0:0:0:0:
192,192,6559,1,0,0:0:0:0:
64,192,6559,1,0,0:0:0:0:
320,192,6590,1,0,0:0:0:0:
448,192,6684,1,0,0:0:0:0:
64,192,6778,1,0,0:0:0:0:
192,192,6778,1,0,0:0:0:0:
320,192,6872,1,0,0:0:0:0:
448,192,6872,1,0,0:0:0:0:
192,192,6965,1,0,0:0:0:0:
64,192,7059,1,0,0:0:0:0:
320,192,7059,1,0,0:0:0:0:
448,192,7247,1,0,0:0:0:0:
192,192,7247,1,0,0:0:0:0:
320,192,7340,1,0,0:0:0:0:
64,192,7434,1,0,0:0:0:0:
192,192,7434,1,0,0:0:0:0:
448,192,7622,1,0,0:0:0:0:
64,192,7622,1,0,0:0:0:0:
320,192,7809,1,0,0:0:0:0:
448,192,7809,128,0,7997:0:0:0:0:
192,192,7809,1,0,0:0:0:0:
320,192,7997,1,0,0:0:0:0:
64,192,7997,128,0,8184:0:0:0:0:
448,192,8184,1,0,0:0:0:0:
192,192,8184,128,0,8372:0:0:0:0:
320,192,8372,1,0,0:0:0:0:
448,192,8372,128,0,8559:0:0:0:0:
320,192,8559,1,0,0:0:0:0:
64,192,8559,1,0,0:0:0:0:
192,192,8747,1,0,0:0:0:0:
320,192,8747,1,0,0:0:0:0:
192,192,8840,1,0,0:0:0:0:
320,192,8934,1,0,0:0:0:0:
448,192,8934,1,0,0:0:0:0:
64,192,8934,1,0,0:0:0:0:
320,192,9122,1,0,0:0:0:0:
448,192,9122,1,0,0:0:0:0:
192,192,9122,1,0,0:0:0:0:
64,192,9309,1,0,0:0:0:0:
448,192,9309,1,0,0:0:0:0:
192,192,9309,1,0,0:0:0:0:
64,192,9497,1,0,0:0:0:0:
192,192,9497,1,0,0:0:0:0:
320,192,9497,1,0,0:0:0:0:
64,192,9684,1,0,0:0:0:0:
192,192,9684,1,0,0:0:0:0:
320,192,9684,1,0,0:0:0:0:
448,192,9872,1,0,0:0:0:0:
192,192,9872,1,0,0:0:0:0:
320,192,9965,1,0,0:0:0:0:
192,192,10059,1,0,0:0:0:0:
64,192,10059,1,0,0:0:0:0:
320,192,10153,1,0,0:0:0:0:
448,192,10153,1,0,0:0:0:0:
64,192,10247,1,0,0:0:0:0:
192,192,10247,1,0,0:0:0:0:
320,192,10340,1,0,0:0:0:0:
448,192,10434,1,0,0:0:0:0:
64,192,10434,1,0,0:0:0:0:
192,192,10528,1,0,0:0:0:0:
320,192,10622,1,0,0:0:0:0:
448,192,10622,1,0,0:0:0:0:
64,192,10809,1,0,0:0:0:0:
320,192,10809,1,0,0:0:0:0:
192,192,10903,1,0,0:0:0:0:
448,192,10903,1,0,0:0:0:0:
64,192,10997,1,0,0:0:0:0:
320,192,11090,1,0,0:0:0:0:
192,192,11184,1,0,0:0:0:0:
64,192,11184,1,0,0:0:0:0:
448,192,11278,1,0,0:0:0:0:
64,192,11372,1,0,0:0:0:0:
192,192,11372,1,0,0:0:0:0:
320,192,11434,1,0,0:0:0:0:
64,192,11497,1,0,0:0:0:0:
448,192,11559,1,0,0:0:0:0:
320,192,11559,1,0,0:0:0:0:
192,192,11653,1,0,0:0:0:0:
64,192,11747,1,0,0:0:0:0:
448,192,11747,1,0,0:0:0:0:
320,192,11809,1,0,0:0:0:0:
192,192,11872,1,0,0:0:0:0:
64,192,11934,1,0,0:0:0:0:
448,192,11934,1,0,0:0:0:0:
192,192,12028,1,0,0:0:0:0:
320,192,12122,1,0,0:0:0:0:
448,192,12122,1,0,0:0:0:0:
64,192,12215,1,0,0:0:0:0:
448,192,12309,1,0,0:0:0:0:
320,192,12309,1,0,0:0:0:0:
192,192,12403,1,0,0:0:0:0:
320,192,12497,1,0,0:0:0:0:
448,192,12684,1,0,0:0:0:0:
192,192,12872,1,0,0:0:0:0:
64,192,13059,1,0,0:0:0:0:
448,192,13059,1,0,0:0:0:0:
320,192,13153,1,0,0:0:0:0:
192,192,13247,1,0,0:0:0:0:
64,192,13340,1,0,0:0:0:0:
320,192,13434,1,0,0:0:0:0:
64,192,13622,1,0,0:0:0:0:
448,192,13622,1,0,0:0:0:0:
448,192,13747,1,0,0:0:0:0:
192,192,13809,1,0,0:0:0:0:
320,192,13872,1,0,0:0:0:0:
192,192,13997,1,0,0:0:0:0:
64,192,13997,1,0,0:0:0:0:
320,192,14184,1,0,0:0:0:0:
64,192,14372,1,0,0:0:0:0:
192,192,14372,1,0,0:0:0:0:
320,192,14559,1,0,0:0:0:0:
448,192,14559,1,0,0:0:0:0:
64,192,14747,1,0,0:0:0:0:
320,192,14747,1,0,0:0:0:0:
192,192,14934,1,0,0:0:0:0:
448,192,14934,1,0,0:0:0:0:
64,192,15028,1,0,0:0:0:0:
320,192,15122,1,0,0:0:0:0:
448,192,15122,1,0,0:0:0:0:
192,192,15215,1,0,0:0:0:0:
320,192,15309,1,0,0:0:0:0:
64,192,15309,1,0,0:0:0:0:
64,192,15497,128,0,15684:0:0:0:0:
448,192,15497,1,0,0:0:0:0:
192,192,15684,128,0,15872:0:0:0:0:
320,192,15684,1,0,0:0:0:0:
320,192,15872,128,0,16059:0:0:0:0:
448,192,15872,1,0,0:0:0:0:
448,192,16059,128,0,16622:0:0:0:0:
64,192,16059,1,0,0:0:0:0:
192,192,16153,1,0,0:0:0:0:
320,192,16247,1,0,0:0:0:0:
192,192,16340,1,0,0:0:0:0:
64,192,16434,1,0,0:0:0:0:
320,192,16622,1,0,0:0:0:0:
64,192,16622,1,0,0:0:0:0:
192,192,16715,1,0,0:0:0:0:
320,192,16809,1,0,0:0:0:0:
64,192,16997,1,0,0:0:0:0:
192,192,16997,1,0,0:0:0:0:
448,192,17184,1,0,0:0:0:0:
192,192,17184,1,0,0:0:0:0:
64,192,17278,1,0,0:0:0:0:
320,192,17372,1,0,0:0:0:0:
448,192,17372,1,0,0:0:0:0:
320,192,17559,1,0,0:0:0:0:
64,192,17559,1,0,0:0:0:0:
192,192,17653,1,0,0:0:0:0:
448,192,17747,1,0,0:0:0:0:
64,192,17747,1,0,0:0:0:0:
64,192,17934,1,0,0:0:0:0:
320,192,17934,1,0,0:0:0:0:
192,192,18028,1,0,0:0:0:0:
320,192,18122,1,0,0:0:0:0:
448,192,18122,1,0,0:0:0:0:
64,192,18215,1,0,0:0:0:0:
192,192,18309,1,0,0:0:0:0:
448,192,18309,1,0,0:0:0:0:
64,192,18497,1,0,0:0:0:0:
192,192,18497,1,0,0:0:0:0:
320,192,18684,1,0,0:0:0:0:
64,192,18778,1,0,0:0:0:0:
192,192,18778,1,0,0:0:0:0:
448,192,18872,1,0,0:0:0:0:
64,192,19059,1,0,0:0:0:0:
320,192,19059,1,0,0:0:0:0:
192,192,19153,1,0,0:0:0:0:
448,192,19247,1,0,0:0:0:0:
320,192,19340,1,0,0:0:0:0:
192,192,19434,1,0,0:0:0:0:
64,192,19622,1,0,0:0:0:0:
320,192,19622,1,0,0:0:0:0:
64,192,19809,1,0,0:0:0:0:
192,192,19809,1,0,0:0:0:0:
448,192,19809,1,0,0:0:0:0:
320,192,19997,1,0,0:0:0:0:
192,192,20090,1,0,0:0:0:0:
64,192,20184,1,0,0:0:0:0:
448,192,20184,1,0,0:0:0:0:
320,192,20372,1,0,0:0:0:0:
64,192,20372,1,0,0:0:0:0:
192,192,20559,1,0,0:0:0:0:
320,192,20559,1,0,0:0:0:0:
448,192,20559,1,0,0:0:0:0:
64,192,20653,1,0,0:0:0:0:
320,192,20747,1,0,0:0:0:0:
448,192,20747,1,0,0:0:0:0:
192,192,20840,1,0,0:0:0:0:
64,192,20840,1,0,0:0:0:0:
448,192,20934,1,0,0:0:0:0:
192,192,20934,1,0,0:0:0:0:
64,192,21122,1,0,0:0:0:0:
448,192,21122,1,0,0:0:0:0:
320,192,21122,1,0,0:0:0:0:
64,192,21309,1,0,0:0:0:0:
448,192,21309,1,0,0:0:0:0:
320,192,21309,1,0,0:0:0:0:
192,192,21497,1,0,0:0:0:0:
320,192,21684,1,0,0:0:0:0:
192,192,21872,1,0,0:0:0:0:
448,192,22059,1,0,0:0:0:0:
64,192,22059,1,0,0:0:0:0:
320,192,22153,1,0,0:0:0:0:
64,192,22247,1,0,0:0:0:0:
192,192,22340,1,0,0:0:0:0:
320,192,22434,1,0,0:0:0:0:
448,192,22622,1,0,0:0:0:0:
192,192,22622,1,0,0:0:0:0:
64,192,22809,1,0,0:0:0:0:
320,192,22997,1,0,0:0:0:0:
448,192,22997,1,0,0:0:0:0:
192,192,22997,1,0,0:0:0:0:
320,192,23184,1,0,0:0:0:0:
192,192,23278,1,0,0:0:0:0:
64,192,23372,1,0,0:0:0:0:
320,192,23372,1,0,0:0:0:0:
448,192,23372,1,0,0:0:0:0:
64,192,23559,1,0,0:0:0:0:
320,192,23559,1,0,0:0:0:0:
448,192,23559,1,0,0:0:0:0:
192,192,23653,1,0,0:0:0:0:
320,192,23747,1,0,0:0:0:0:
448,192,23747,1,0,0:0:0:0:
192,192,23840,1,0,0:0:0:0:
64,192,23840,1,0,0:0:0:0:
448,192,23934,1,0,0:0:0:0:
64,192,24028,1,0,0:0:0:0:
320,192,24122,1,0,0:0:0:0:
448,192,24122,1,0,0:0:0:0:
64,192,24215,1,0,0:0:0:0:
448,192,24309,1,0,0:0:0:0:
192,192,24403,1,0,0:0:0:0:
64,192,24403,1,0,0:0:0:0:
320,192,24497,1,0,0:0:0:0:
448,192,24497,1,0,0:0:0:0:
64,192,24497,1,0,0:0:0:0:
320,192,24684,1,0,0:0:0:0:
64,192,24778,1,0,0:0:0:0:
448,192,24778,1,0,0:0:0:0:
192,192,24872,1,0,0:0:0:0:
64,192,25059,1,0,0:0:0:0:
448,192,25059,1,0,0:0:0:0:
320,192,25153,1,0,0:0:0:0:
192,192,25247,1,0,0:0:0:0:
320,192,25340,1,0,0:0:0:0:
192,192,25434,1,0,0:0:0:0:
448,192,25622,1,0,0:0:0:0:
192,192,25622,1,0,0:0:0:0:
64,192,25809,1,0,0:0:0:0:
320,192,25809,1,0,0:0:0:0:
448,192,25809,1,0,0:0:0:0:
192,192,25997,1,0,0:0:0:0:
448,192,26090,1,0,0:0:0:0:
320,192,26184,1,0,0:0:0:0:
64,192,26184,1,0,0:0:0:0:
192,192,26372,1,0,0:0:0:0:
320,192,26559,1,0,0:0:0:0:
192,192,26559,1,0,0:0:0:0:
64,192,26559,1,0,0:0:0:0:
448,192,26653,1,0,0:0:0:0:
64,192,26747,1,0,0:0:0:0:
192,192,26747,1,0,0:0:0:0:
64,192,26840,1,0,0:0:0:0:
320,192,26840,1,0,0:0:0:0:
448,192,26934,1,0,0:0:0:0:
320,192,26934,1,0,0:0:0:0:
64,192,27122,1,0,0:0:0:0:
192,192,27122,1,0,0:0:0:0:
448,192,27122,1,0,0:0:0:0:
64,192,27309,1,0,0:0:0:0:
192,192,27309,1,0,0:0:0:0:
448,192,27309,1,0,0:0:0:0:
64,192,27497,128,0,27684:0:0:0:0:
320,192,27497,1,0,0:0:0:0:
192,192,27684,128,0,27872:0:0:0:0:
448,192,27684,1,0,0:0:0:0:
64,192,27778,1,0,0:0:0:0:
320,192,27872,128,0,28059:0:0:0:0:
448,192,27872,1,0,0:0:0:0:
448,192,28059,128,0,28622:0:0:0:0:
64,192,28059,1,0,0:0:0:0:
192,192,28153,1,0,0:0:0:0:
320,192,28247,1,0,0:0:0:0:
64,192,28340,1,0,0:0:0:0:
320,192,28434,1,0,0:0:0:0:
192,192,28622,1,0,0:0:0:0:
64,192,28622,1,0,0:0:0:0:
320,192,28809,1,0,0:0:0:0:
64,192,28997,1,0,0:0:0:0:
192,192,28997,1,0,0:0:0:0:
448,192,28997,1,0,0:0:0:0:
320,192,29184,1,0,0:0:0:0:
448,192,29184,1,0,0:0:0:0:
192,192,29278,1,0,0:0:0:0:
64,192,29372,1,0,0:0:0:0:
320,192,29372,1,0,0:0:0:0:
448,192,29372,1,0,0:0:0:0:
192,192,29559,1,0,0:0:0:0:
64,192,29559,1,0,0:0:0:0:
448,192,29559,1,0,0:0:0:0:
320,192,29747,1,0,0:0:0:0:
64,192,29840,1,0,0:0:0:0:
448,192,29840,1,0,0:0:0:0:
320,192,29934,1,0,0:0:0:0:
192,192,30028,1,0,0:0:0:0:
64,192,30122,1,0,0:0:0:0:
448,192,30122,1,0,0:0:0:0:
192,192,30215,1,0,0:0:0:0:
320,192,30309,1,0,0:0:0:0:
64,192,30403,1,0,0:0:0:0:
192,192,30403,1,0,0:0:0:0:
448,192,30497,1,0,0:0:0:0:
320,192,30497,1,0,0:0:0:0:
64,192,30497,1,0,0:0:0:0:
448,192,30684,1,0,0:0:0:0:
64,192,30778,1,0,0:0:0:0:
192,192,30778,1,0,0:0:0:0:
320,192,30872,1,0,0:0:0:0:
64,192,31059,1,0,0:0:0:0:
448,192,31059,1,0,0:0:0:0:
192,192,31153,1,0,0:0:0:0:
320,192,31247,1,0,0:0:0:0:
192,192,31340,1,0,0:0:0:0:
448,192,31434,1,0,0:0:0:0:
320,192,31622,1,0,0:0:0:0:
64,192,31622,1,0,0:0:0:0:
64,192,31809,1,0,0:0:0:0:
192,192,31809,1,0,0:0:0:0:
448,192,31809,1,0,0:0:0:0:
320,192,31997,1,0,0:0:0:0:
192,192,32090,1,0,0:0:0:0:
64,192,32184,1,0,0:0:0:0:
448,192,32184,1,0,0:0:0:0:
320,192,32184,1,0,0:0:0:0:
64,192,32372,1,0,0:0:0:0:
448,192,32372,1,0,0:0:0:0:
64,192,32559,1,0,0:0:0:0:
320,192,32559,1,0,0:0:0:0:
448,192,32559,1,0,0:0:0:0:
64,192,32747,1,0,0:0:0:0:
192,192,32747,1,0,0:0:0:0:
192,192,32840,1,0,0:0:0:0:
320,192,32840,1,0,0:0:0:0:
320,192,32934,1,0,0:0:0:0:
448,192,32934,1,0,0:0:0:0:
64,192,33122,1,0,0:0:0:0:
192,192,33122,1,0,0:0:0:0:
320,192,33122,1,0,0:0:0:0:
320,192,33309,1,0,0:0:0:0:
448,192,33309,1,0,0:0:0:0:
192,192,33309,1,0,0:0:0:0:
64,192,33497,128,0,33684:0:0:0:0:
320,192,33497,1,0,0:0:0:0:
192,192,33684,128,0,33872:0:0:0:0:
448,192,33684,1,0,0:0:0:0:
320,192,33872,128,0,34059:0:0:0:0:
64,192,33872,1,0,0:0:0:0:
192,192,34059,128,0,34247:0:0:0:0:
448,192,34059,1,0,0:0:0:0:
320,192,34247,128,0,34434:0:0:0:0:
64,192,34247,1,0,0:0:0:0:
448,192,34434,128,0,34622:0:0:0:0:
192,192,34434,1,0,0:0:0:0:
64,192,34622,128,0,34809:0:0:0:0:
192,192,34622,1,0,0:0:0:0:
192,192,34809,128,0,34997:0:0:0:0:
448,192,34809,1,0,0:0:0:0:
448,192,34997,128,0,35184:0:0:0:0:
64,192,34997,1,0,0:0:0:0:
320,192,34997,1,0,0:0:0:0:
320,192,35184,128,0,35372:0:0:0:0:
64,192,35184,1,0,0:0:0:0:
192,192,35278,1,0,0:0:0:0:
64,192,35372,128,0,35559:0:0:0:0:
448,192,35372,1,0,0:0:0:0:
448,192,35559,128,0,35747:0:0:0:0:
192,192,35559,1,0,0:0:0:0:
192,192,35747,128,0,35934:0:0:0:0:
320,192,35747,1,0,0:0:0:0:
64,192,35840,1,0,0:0:0:0:
320,192,35934,128,0,36122:0:0:0:0:
448,192,35934,1,0,0:0:0:0:
192,192,36028,1,0,0:0:0:0:
64,192,36122,128,0,36309:0:0:0:0:
448,192,36122,1,0,0:0:0:0:
192,192,36215,1,0,0:0:0:0:
448,192,36309,128,0,36497:0:0:0:0:
320,192,36309,1,0,0:0:0:0:
64,192,36403,1,0,0:0:0:0:
192,192,36497,1,0,0:0:0:0:
320,192,36497,1,0,0:0:0:0:
64,192,36684,1,0,0:0:0:0:
192,192,36684,1,0,0:0:0:0:
320,192,36872,1,0,0:0:0:0:
448,192,36872,1,0,0:0:0:0:
64,192,36872,1,0,0:0:0:0:
320,192,37059,1,0,0:0:0:0:
192,192,37059,1,0,0:0:0:0:
64,192,37153,1,0,0:0:0:0:
320,192,37247,1,0,0:0:0:0:
448,192,37247,1,0,0:0:0:0:
64,192,37340,1,0,0:0:0:0:
192,192,37434,1,0,0:0:0:0:
320,192,37528,1,0,0:0:0:0:
448,192,37622,1,0,0:0:0:0:
64,192,37622,1,0,0:0:0:0:
192,192,37622,1,0,0:0:0:0:
64,192,37809,1,0,0:0:0:0:
448,192,37809,1,0,0:0:0:0:
192,192,37809,1,0,0:0:0:0:
320,192,37903,1,0,0:0:0:0:
192,192,37997,1,0,0:0:0:0:
64,192,38090,1,0,0:0:0:0:
192,192,38184,1,0,0:0:0:0:
320,192,38184,1,0,0:0:0:0:
320,192,38372,1,0,0:0:0:0:
448,192,38372,1,0,0:0:0:0:
64,192,38372,1,0,0:0:0:0:
64,192,38559,1,0,0:0:0:0:
192,192,38559,1,0,0:0:0:0:
448,192,38559,1,0,0:0:0:0:
320,192,38653,1,0,0:0:0:0:
448,192,38747,1,0,0:0:0:0:
64,192,38747,1,0,0:0:0:0:
192,192,38840,1,0,0:0:0:0:
320,192,38840,1,0,0:0:0:0:
320,192,38934,1,0,0:0:0:0:
192,192,38934,1,0,0:0:0:0:
448,192,39122,1,0,0:0:0:0:
192,192,39122,1,0,0:0:0:0:
64,192,39122,1,0,0:0:0:0:
320,192,39309,1,0,0:0:0:0:
64,192,39309,1,0,0:0:0:0:
448,192,39309,1,0,0:0:0:0:
64,192,39497,1,0,0:0:0:0:
192,192,39497,1,0,0:0:0:0:
192,192,39684,1,0,0:0:0:0:
320,192,39684,1,0,0:0:0:0:
448,192,39872,1,0,0:0:0:0:
320,192,39872,1,0,0:0:0:0:
64,192,39872,1,0,0:0:0:0:
192,192,39965,1,0,0:0:0:0:
64,192,40059,1,0,0:0:0:0:
448,192,40059,1,0,0:0:0:0:
320,192,40153,1,0,0:0:0:0:
192,192,40247,1,0,0:0:0:0:
64,192,40247,1,0,0:0:0:0:
448,192,40340,1,0,0:0:0:0:
64,192,40434,1,0,0:0:0:0:
320,192,40434,1,0,0:0:0:0:
192,192,40528,1,0,0:0:0:0:
320,192,40622,1,0,0:0:0:0:
448,192,40622,1,0,0:0:0:0:
64,192,40809,1,0,0:0:0:0:
320,192,40809,1,0,0:0:0:0:
192,192,40903,1,0,0:0:0:0:
320,192,40997,1,0,0:0:0:0:
448,192,40997,1,0,0:0:0:0:
192,192,41090,1,0,0:0:0:0:
64,192,41090,1,0,0:0:0:0:
320,192,41184,1,0,0:0:0:0:
448,192,41278,1,0,0:0:0:0:
64,192,41372,1,0,0:0:0:0:
192,192,41372,1,0,0:0:0:0:
320,192,41465,1,0,0:0:0:0:
448,192,41497,1,0,0:0:0:0:
64,192,41559,1,0,0:0:0:0:
192,192,41559,1,0,0:0:0:0:
192,192,41653,1,0,0:0:0:0:
448,192,41747,1,0,0:0:0:0:
64,192,41840,1,0,0:0:0:0:
320,192,41840,1,0,0:0:0:0:
192,192,41934,1,0,0:0:0:0:
320,192,42028,1,0,0:0:0:0:
448,192,42122,1,0,0:0:0:0:
192,192,42168,1,0,0:0:0:0:
320,192,42215,1,0,0:0:0:0:
64,192,42262,1,0,0:0:0:0:
192,192,42309,1,0,0:0:0:0:
448,192,42403,1,0,0:0:0:0:
192,192,42497,1,0,0:0:0:0:
64,192,42497,1,0,0:0:0:0:
320,192,42497,1,0,0:0:0:0:
64,192,42684,1,0,0:0:0:0:
320,192,42684,1,0,0:0:0:0:
192,192,42872,1,0,0:0:0:0:
448,192,42872,1,0,0:0:0:0:
320,192,42872,1,0,0:0:0:0:
64,192,43059,1,0,0:0:0:0:
192,192,43059,1,0,0:0:0:0:
320,192,43153,1,0,0:0:0:0:
448,192,43247,1,0,0:0:0:0:
64,192,43247,1,0,0:0:0:0:
320,192,43340,1,0,0:0:0:0:
192,192,43434,1,0,0:0:0:0:
64,192,43528,1,0,0:0:0:0:
320,192,43622,1,0,0:0:0:0:
448,192,43622,1,0,0:0:0:0:
192,192,43622,1,0,0:0:0:0:
320,192,43809,1,0,0:0:0:0:
448,192,43809,1,0,0:0:0:0:
64,192,43809,1,0,0:0:0:0:
192,192,43903,1,0,0:0:0:0:
64,192,43997,1,0,0:0:0:0:
320,192,43997,1,0,0:0:0:0:
320,192,44090,1,0,0:0:0:0:
64,192,44090,1,0,0:0:0:0:
192,192,44184,1,0,0:0:0:0:
448,192,44184,1,0,0:0:0:0:
320,192,44278,1,0,0:0:0:0:
64,192,44372,1,0,0:0:0:0:
192,192,44372,1,0,0:0:0:0:
320,192,44465,1,0,0:0:0:0:
448,192,44559,1,0,0:0:0:0:
64,192,44559,1,0,0:0:0:0:
192,192,44653,1,0,0:0:0:0:
320,192,44747,1,0,0:0:0:0:
448,192,44747,1,0,0:0:0:0:
192,192,44840,1,0,0:0:0:0:
64,192,44934,1,0,0:0:0:0:
320,192,45028,1,0,0:0:0:0:
192,192,45122,1,0,0:0:0:0:
448,192,45215,1,0,0:0:0:0:
192,192,45309,1,0,0:0:0:0:
64,192,45403,1,0,0:0:0:0:
320,192,45497,1,0,0:0:0:0:
448,192,45497,1,0,0:0:0:0:
64,192,45684,1,0,0:0:0:0:
192,192,45684,1,0,0:0:0:0:
448,192,45872,1,0,0:0:0:0:
64,192,45872,1,0,0:0:0:0:
320,192,45872,1,0,0:0:0:0:
320,192,46059,1,0,0:0:0:0:
192,192,46059,1,0,0:0:0:0:
64,192,46153,1,0,0:0:0:0:
192,192,46247,1,0,0:0:0:0:
448,192,46247,1,0,0:0:0:0:
320,192,46340,1,0,0:0:0:0:
64,192,46434,1,0,0:0:0:0:
448,192,46434,1,0,0:0:0:0:
64,192,46622,1,0,0:0:0:0:
192,192,46622,1,0,0:0:0:0:
320,192,46622,1,0,0:0:0:0:
192,192,46809,1,0,0:0:0:0:
448,192,46809,1,0,0:0:0:0:
320,192,46903,1,0,0:0:0:0:
64,192,46997,1,0,0:0:0:0:
448,192,46997,1,0,0:0:0:0:
192,192,46997,1,0,0:0:0:0:
320,192,47184,1,0,0:0:0:0:
192,192,47372,1,0,0:0:0:0:
64,192,47559,1,0,0:0:0:0:
448,192,47747,1,0,0:0:0:0:
320,192,47934,1,0,0:0:0:0:
192,192,48122,1,0,0:0:0:0:
64,192,48309,1,0,0:0:0:0:
448,192,48497,1,0,0:0:0:0:
320,192,48684,1,0,0:0:0:0:
192,192,48872,1,0,0:0:0:0:
320,192,49059,1,0,0:0:0:0:
192,192,49247,1,0,0:0:0:0:
64,192,49434,1,0,0:0:0:0:
320,192,49622,1,0,0:0:0:0:
192,192,49809,1,0,0:0:0:0:
320,192,49997,1,0,0:0:0:0:
448,192,49997,1,0,0:0:0:0:
64,192,49997,1,0,0:0:0:0:
64,192,50278,1,0,0:0:0:0:
448,192,50278,1,0,0:0:0:0:
192,192,50278,1,0,0:0:0:0:
64,192,50559,1,0,0:0:0:0:
320,192,50559,1,0,0:0:0:0:
448,192,50559,1,0,0:0:0:0:
192,192,50653,1,0,0:0:0:0:
320,192,50747,1,0,0:0:0:0:
64,192,50840,1,0,0:0:0:0:
320,192,50934,1,0,0:0:0:0:
448,192,50997,1,0,0:0:0:0:
192,192,51122,1,0,0:0:0:0:
64,192,51122,1,0,0:0:0:0:
320,192,51247,1,0,0:0:0:0:
448,192,51309,1,0,0:0:0:0:
192,192,51309,1,0,0:0:0:0:
64,192,51309,1,0,0:0:0:0:
320,192,51372,1,0,0:0:0:0:
64,192,51497,1,0,0:0:0:0:
192,192,51622,1,0,0:0:0:0:
320,192,51684,1,0,0:0:0:0:
448,192,51684,1,0,0:0:0:0:
64,192,51747,1,0,0:0:0:0:
448,192,51872,1,0,0:0:0:0:
320,192,51997,1,0,0:0:0:0:
448,192,52059,1,0,0:0:0:0:
192,192,52122,1,0,0:0:0:0:
64,192,52247,1,0,0:0:0:0:
320,192,52247,1,0,0:0:0:0:
192,192,52340,1,0,0:0:0:0:
320,192,52340,1,0,0:0:0:0:
448,192,52434,1,0,0:0:0:0:
192,192,52434,1,0,0:0:0:0:
64,192,52528,1,0,0:0:0:0:
320,192,52622,1,0,0:0:0:0:
192,192,52622,1,0,0:0:0:0:
448,192,52715,1,0,0:0:0:0:
64,192,52809,1,0,0:0:0:0:
192,192,52809,1,0,0:0:0:0:
320,192,52903,1,0,0:0:0:0:
64,192,52997,1,0,0:0:0:0:
448,192,52997,1,0,0:0:0:0:
192,192,53090,1,0,0:0:0:0:
320,192,53278,1,0,0:0:0:0:
192,192,53372,1,0,0:0:0:0:
448,192,53559,1,0,0:0:0:0:
64,192,53559,1,0,0:0:0:0:
320,192,53653,1,0,0:0:0:0:
64,192,53747,1,0,0:0:0:0:
192,192,53747,1,0,0:0:0:0:
320,192,53840,1,0,0:0:0:0:
192,192,53934,1,0,0:0:0:0:
64,192,54028,1,0,0:0:0:0:
320,192,54122,1,0,0:0:0:0:
448,192,54122,1,0,0:0:0:0:
192,192,54309,1,0,0:0:0:0:
64,192,54497,1,0,0:0:0:0:
320,192,54497,1,0,0:0:0:0:
448,192,54497,1,0,0:0:0:0:
192,192,54684,1,0,0:0:0:0:
64,192,54684,1,0,0:0:0:0:
320,192,54778,1,0,0:0:0:0:
448,192,54872,1,0,0:0:0:0:
64,192,54872,1,0,0:0:0:0:
192,192,55059,1,0,0:0:0:0:
448,192,55059,1,0,0:0:0:0:
320,192,55153,1,0,0:0:0:0:
192,192,55247,1,0,0:0:0:0:
64,192,55247,1,0,0:0:0:0:
320,192,55309,1,0,0:0:0:0:
64,192,55372,1,0,0:0:0:0:
320,192,55434,1,0,0:0:0:0:
64,192,55497,1,0,0:0:0:0:
320,192,55559,1,0,0:0:0:0:
192,192,55622,1,0,0:0:0:0:
64,192,55622,1,0,0:0:0:0:
448,192,55684,1,0,0:0:0:0:
64,192,55747,1,0,0:0:0:0:
448,192,55809,1,0,0:0:0:0:
64,192,55872,1,0,0:0:0:0:
448,192,55934,1,0,0:0:0:0:
64,192,55997,1,0,0:0:0:0:
192,192,55997,1,0,0:0:0:0:
448,192,56059,1,0,0:0:0:0:
192,192,56122,1,0,0:0:0:0:
448,192,56184,1,0,0:0:0:0:
192,192,56247,1,0,0:0:0:0:
64,192,56278,1,0,0:0:0:0:
448,192,56309,1,0,0:0:0:0:
192,192,56372,1,0,0:0:0:0:
448,192,56434,1,0,0:0:0:0:
192,192,56497,1,0,0:0:0:0:
320,192,56559,1,0,0:0:0:0:
448,192,56559,1,0,0:0:0:0:
64,192,56622,1,0,0:0:0:0:
448,192,56684,1,0,0:0:0:0:
64,192,56747,1,0,0:0:0:0:
320,192,56809,1,0,0:0:0:0:
192,192,56872,1,0,0:0:0:0:
448,192,56934,1,0,0:0:0:0:
192,192,56997,1,0,0:0:0:0:
320,192,57059,1,0,0:0:0:0:
64,192,57122,1,0,0:0:0:0:
448,192,57184,1,0,0:0:0:0:
320,192,57247,1,0,0:0:0:0:
192,192,57309,1,0,0:0:0:0:
64,192,57309,1,0,0:0:0:0:
448,192,57309,1,0,0:0:0:0:
320,192,57372,1,0,0:0:0:0:
192,192,57434,1,0,0:0:0:0:
64,192,57497,1,0,0:0:0:0:
448,192,57559,1,0,0:0:0:0:
192,192,57622,1,0,0:0:0:0:
320,192,57684,1,0,0:0:0:0:
64,192,57747,1,0,0:0:0:0:
320,192,57809,1,0,0:0:0:0:
192,192,57872,1,0,0:0:0:0:
448,192,57934,1,0,0:0:0:0:
64,192,57997,1,0,0:0:0:0:
320,192,58059,1,0,0:0:0:0:
448,192,58059,1,0,0:0:0:0:
64,192,58122,1,0,0:0:0:0:
448,192,58184,1,0,0:0:0:0:
192,192,58247,1,0,0:0:0:0:
64,192,58247,1,0,0:0:0:0:
320,192,58309,1,0,0:0:0:0:
448,192,58340,1,0,0:0:0:0:
64,192,58372,1,0,0:0:0:0:
448,192,58434,1,0,0:0:0:0:
192,192,58434,1,0,0:0:0:0:
320,192,58497,1,0,0:0:0:0:
192,192,58559,1,0,0:0:0:0:
64,192,58622,1,0,0:0:0:0:
448,192,58622,1,0,0:0:0:0:
320,192,58684,1,0,0:0:0:0:
192,192,58747,1,0,0:0:0:0:
448,192,58809,1,0,0:0:0:0:
320,192,58809,1,0,0:0:0:0:
64,192,58872,1,0,0:0:0:0:
192,192,58934,1,0,0:0:0:0:
320,192,58997,1,0,0:0:0:0:
64,192,58997,1,0,0:0:0:0:
448,192,58997,128,0,59184:0:0:0:0:
192,192,59184,1,0,0:0:0:0:
64,192,59184,1,0,0:0:0:0:
320,192,59278,1,0,0:0:0:0:
448,192,59372,1,0,0:0:0:0:
64,192,59372,1,0,0:0:0:0:
320,192,59465,1,0,0:0:0:0:
192,192,59465,1,0,0:0:0:0:
64,192,59559,1,0,0:0:0:0:
320,192,59559,1,0,0:0:0:0:
448,192,59653,1,0,0:0:0:0:
192,192,59747,1,0,0:0:0:0:
64,192,59747,1,0,0:0:0:0:
320,192,59840,1,0,0:0:0:0:
448,192,59840,1,0,0:0:0:0:
64,192,59934,1,0,0:0:0:0:
192,192,60028,1,0,0:0:0:0:
320,192,60122,1,0,0:0:0:0:
448,192,60122,1,0,0:0:0:0:
192,192,60215,1,0,0:0:0:0:
64,192,60309,1,0,0:0:0:0:
448,192,60309,1,0,0:0:0:0:
320,192,60403,1,0,0:0:0:0:
192,192,60403,1,0,0:0:0:0:
64,192,60497,1,0,0:0:0:0:
448,192,60497,1,0,0:0:0:0:
320,192,60590,1,0,0:0:0:0:
192,192,60684,1,0,0:0:0:0:
64,192,60684,1,0,0:0:0:0:
320,192,60778,1,0,0:0:0:0:
448,192,60872,1,0,0:0:0:0:
192,192,60872,1,0,0:0:0:0:
64,192,60965,1,0,0:0:0:0:
320,192,60965,1,0,0:0:0:0:
192,192,61059,1,0,0:0:0:0:
320,192,61153,1,0,0:0:0:0:
64,192,61247,1,0,0:0:0:0:
448,192,61247,1,0,0:0:0:0:
64,192,61340,1,0,0:0:0:0:
448,192,61340,1,0,0:0:0:0:
192,192,61434,1,0,0:0:0:0:
320,192,61528,1,0,0:0:0:0:
448,192,61622,1,0,0:0:0:0:
64,192,61622,1,0,0:0:0:0:
320,192,61715,1,0,0:0:0:0:
192,192,61809,1,0,0:0:0:0:
64,192,61809,1,0,0:0:0:0:
320,192,61903,1,0,0:0:0:0:
64,192,61997,1,0,0:0:0:0:
448,192,61997,1,0,0:0:0:0:
192,192,62184,1,0,0:0:0:0:
320,192,62278,1,0,0:0:0:0:
448,192,62278,1,0,0:0:0:0:
64,192,62372,1,0,0:0:0:0:
192,192,62559,1,0,0:0:0:0:
448,192,62559,1,0,0:0:0:0:
320,192,62653,1,0,0:0:0:0:
64,192,62747,1,0,0:0:0:0:
192,192,62840,1,0,0:0:0:0:
320,192,62934,1,0,0:0:0:0:
448,192,62934,1,0,0:0:0:0:
64,192,63122,1,0,0:0:0:0:
320,192,63122,1,0,0:0:0:0:
192,192,63309,1,0,0:0:0:0:
64,192,63309,1,0,0:0:0:0:
448,192,63309,1,0,0:0:0:0:
320,192,63497,1,0,0:0:0:0:
192,192,63590,1,0,0:0:0:0:
320,192,63684,1,0,0:0:0:0:
448,192,63684,1,0,0:0:0:0:
64,192,63872,1,0,0:0:0:0:
192,192,64059,1,0,0:0:0:0:
448,192,64059,1,0,0:0:0:0:
64,192,64059,1,0,0:0:0:0:
320,192,64153,1,0,0:0:0:0:
192,192,64247,1,0,0:0:0:0:
64,192,64247,1,0,0:0:0:0:
448,192,64340,1,0,0:0:0:0:
64,192,64340,1,0,0:0:0:0:
320,192,64434,1,0,0:0:0:0:
448,192,64434,1,0,0:0:0:0:
192,192,64528,1,0,0:0:0:0:
64,192,64622,1,0,0:0:0:0:
448,192,64622,1,0,0:0:0:0:
320,192,64622,1,0,0:0:0:0:
192,192,64809,1,0,0:0:0:0:
64,192,64809,1,0,0:0:0:0:
320,192,64809,1,0,0:0:0:0:
448,192,64997,1,0,0:0:0:0:
192,192,64997,128,0,65184:0:0:0:0:
64,192,65184,1,0,0:0:0:0:
320,192,65184,128,0,65372:0:0:0:0:
192,192,65372,1,0,0:0:0:0:
64,192,65372,128,0,65559:0:0:0:0:
320,192,65559,1,0,0:0:0:0:
448,192,65559,128,0,65747:0:0:0:0:
192,192,65653,1,0,0:0:0:0:
64,192,65747,1,0,0:0:0:0:
320,192,65840,1,0,0:0:0:0:
192,192,65934,1,0,0:0:0:0:
320,192,66122,1,0,0:0:0:0:
448,192,66122,1,0,0:0:0:0:
64,192,66309,1,0,0:0:0:0:
64,192,66497,1,0,0:0:0:0:
192,192,66497,1,0,0:0:0:0:
448,192,66497,1,0,0:0:0:0:
320,192,66684,1,0,0:0:0:0:
192,192,66778,1,0,0:0:0:0:
320,192,66872,1,0,0:0:0:0:
448,192,66872,1,0,0:0:0:0:
64,192,66872,1,0,0:0:0:0:
64,192,67059,1,0,0:0:0:0:
320,192,67059,1,0,0:0:0:0:
448,192,67059,1,0,0:0:0:0:
192,192,67153,1,0,0:0:0:0:
448,192,67247,1,0,0:0:0:0:
192,192,67340,1,0,0:0:0:0:
64,192,67340,1,0,0:0:0:0:
320,192,67340,1,0,0:0:0:0:
448,192,67434,1,0,0:0:0:0:
64,192,67528,1,0,0:0:0:0:
320,192,67622,1,0,0:0:0:0:
448,192,67622,1,0,0:0:0:0:
192,192,67622,1,0,0:0:0:0:
64,192,67715,1,0,0:0:0:0:
320,192,67809,1,0,0:0:0:0:
448,192,67903,1,0,0:0:0:0:
192,192,67903,1,0,0:0:0:0:
64,192,67903,1,0,0:0:0:0:
320,192,67997,1,0,0:0:0:0:
192,192,67997,1,0,0:0:0:0:
448,192,68184,1,0,0:0:0:0:
320,192,68278,1,0,0:0:0:0:
192,192,68278,1,0,0:0:0:0:
64,192,68372,1,0,0:0:0:0:
192,192,68559,1,0,0:0:0:0:
320,192,68559,1,0,0:0:0:0:
448,192,68653,1,0,0:0:0:0:
64,192,68747,1,0,0:0:0:0:
320,192,68840,1,0,0:0:0:0:
192,192,68934,1,0,0:0:0:0:
64,192,68934,1,0,0:0:0:0:
192,192,69122,1,0,0:0:0:0:
448,192,69122,1,0,0:0:0:0:
64,192,69309,1,0,0:0:0:0:
320,192,69309,1,0,0:0:0:0:
448,192,69309,1,0,0:0:0:0:
192,192,69497,1,0,0:0:0:0:
448,192,69590,1,0,0:0:0:0:
320,192,69684,1,0,0:0:0:0:
192,192,69684,1,0,0:0:0:0:
64,192,69684,1,0,0:0:0:0:
64,192,69872,1,0,0:0:0:0:
320,192,69872,1,0,0:0:0:0:
192,192,70059,1,0,0:0:0:0:
448,192,70059,1,0,0:0:0:0:
320,192,70153,1,0,0:0:0:0:
64,192,70247,1,0,0:0:0:0:
192,192,70247,1,0,0:0:0:0:
192,192,70340,1,0,0:0:0:0:
320,192,70340,1,0,0:0:0:0:
320,192,70434,1,0,0:0:0:0:
448,192,70434,1,0,0:0:0:0:
64,192,70528,1,0,0:0:0:0:
192,192,70622,1,0,0:0:0:0:
448,192,70622,1,0,0:0:0:0:
320,192,70715,1,0,0:0:0:0:
192,192,70809,1,0,0:0:0:0:
64,192,70809,1,0,0:0:0:0:
320,192,70997,1,0,0:0:0:0:
448,192,70997,128,0,71559:0:0:0:0:
192,192,71184,1,0,0:0:0:0:
64,192,71372,1,0,0:0:0:0:
320,192,71559,128,0,72122:0:0:0:0:
192,192,71559,1,0,0:0:0:0:
64,192,71653,1,0,0:0:0:0:
448,192,71747,1,0,0:0:0:0:
64,192,71840,1,0,0:0:0:0:
192,192,71934,1,0,0:0:0:0:
448,192,72122,1,0,0:0:0:0:
64,192,72122,128,0,72497:0:0:0:0:
192,192,72309,1,0,0:0:0:0:
320,192,72309,1,0,0:0:0:0:
192,192,72497,1,0,0:0:0:0:
320,192,72497,1,0,0:0:0:0:
448,192,72497,1,0,0:0:0:0:
64,192,72590,1,0,0:0:0:0:
192,192,72684,1,0,0:0:0:0:
320,192,72684,1,0,0:0:0:0:
448,192,72778,1,0,0:0:0:0:
320,192,72872,1,0,0:0:0:0:
192,192,72872,1,0,0:0:0:0:
64,192,72872,1,0,0:0:0:0:
192,192,73059,1,0,0:0:0:0:
320,192,73059,1,0,0:0:0:0:
448,192,73059,1,0,0:0:0:0:
192,192,73153,1,0,0:0:0:0:
64,192,73153,1,0,0:0:0:0:
320,192,73247,1,0,0:0:0:0:
448,192,73340,1,0,0:0:0:0:
64,192,73340,1,0,0:0:0:0:
192,192,73434,1,0,0:0:0:0:
320,192,73528,1,0,0:0:0:0:
448,192,73622,1,0,0:0:0:0:
64,192,73622,1,0,0:0:0:0:
192,192,73715,1,0,0:0:0:0:
320,192,73809,1,0,0:0:0:0:
192,192,73903,1,0,0:0:0:0:
64,192,73903,1,0,0:0:0:0:
320,192,73997,1,0,0:0:0:0:
448,192,73997,128,0,75247:0:0:0:0:
192,192,74184,1,0,0:0:0:0:
64,192,74278,1,0,0:0:0:0:
320,192,74278,1,0,0:0:0:0:
192,192,74372,1,0,0:0:0:0:
64,192,74559,1,0,0:0:0:0:
320,192,74559,1,0,0:0:0:0:
192,192,74653,1,0,0:0:0:0:
64,192,74747,1,0,0:0:0:0:
320,192,74840,1,0,0:0:0:0:
192,192,74934,1,0,0:0:0:0:
64,192,75122,1,0,0:0:0:0:
192,192,75122,1,0,0:0:0:0:
320,192,75247,128,0,75372:0:0:0:0:
64,192,75309,1,0,0:0:0:0:
448,192,75309,1,0,0:0:0:0:
192,192,75372,128,0,75497:0:0:0:0:
64,192,75497,128,0,76247:0:0:0:0:
320,192,75684,1,0,0:0:0:0:
448,192,75684,1,0,0:0:0:0:
192,192,75872,1,0,0:0:0:0:
320,192,75965,1,0,0:0:0:0:
448,192,76059,1,0,0:0:0:0:
192,192,76059,1,0,0:0:0:0:
320,192,76247,1,0,0:0:0:0:
448,192,76247,1,0,0:0:0:0:
192,192,76340,1,0,0:0:0:0:
320,192,76340,1,0,0:0:0:0:
192,192,76434,1,0,0:0:0:0:
64,192,76434,1,0,0:0:0:0:
64,192,76622,1,0,0:0:0:0:
320,192,76622,1,0,0:0:0:0:
448,192,76622,1,0,0:0:0:0:
192,192,76809,1,0,0:0:0:0:
64,192,76809,1,0,0:0:0:0:
448,192,76809,1,0,0:0:0:0:
64,192,76997,1,0,0:0:0:0:
320,192,76997,1,0,0:0:0:0:
192,192,77184,1,0,0:0:0:0:
320,192,77372,1,0,0:0:0:0:
448,192,77559,1,0,0:0:0:0:
192,192,77559,1,0,0:0:0:0:
64,192,77653,1,0,0:0:0:0:
320,192,77747,1,0,0:0:0:0:
192,192,77840,1,0,0:0:0:0:
64,192,77934,1,0,0:0:0:0:
320,192,77934,1,0,0:0:0:0:
192,192,78122,1,0,0:0:0:0:
448,192,78122,1,0,0:0:0:0:
320,192,78309,1,0,0:0:0:0:
64,192,78497,1,0,0:0:0:0:
192,192,78497,1,0,0:0:0:0:
448,192,78497,1,0,0:0:0:0:
320,192,78590,1,0,0:0:0:0:
192,192,78684,1,0,0:0:0:0:
64,192,78778,1,0,0:0:0:0:
320,192,78778,1,0,0:0:0:0:
448,192,78872,1,0,0:0:0:0:
192,192,78872,1,0,0:0:0:0:
320,192,78965,1,0,0:0:0:0:
192,192,79059,1,0,0:0:0:0:
64,192,79059,1,0,0:0:0:0:
448,192,79153,1,0,0:0:0:0:
192,192,79247,1,0,0:0:0:0:
64,192,79247,1,0,0:0:0:0:
320,192,79340,1,0,0:0:0:0:
448,192,79340,1,0,0:0:0:0:
64,192,79434,1,0,0:0:0:0:
320,192,79528,1,0,0:0:0:0:
448,192,79622,1,0,0:0:0:0:
64,192,79622,1,0,0:0:0:0:
192,192,79715,1,0,0:0:0:0:
448,192,79809,1,0,0:0:0:0:
64,192,79903,1,0,0:0:0:0:
320,192,79903,1,0,0:0:0:0:
192,192,79997,1,0,0:0:0:0:
448,192,79997,1,0,0:0:0:0:
320,192,80184,1,0,0:0:0:0:
192,192,80278,1,0,0:0:0:0:
448,192,80278,1,0,0:0:0:0:
64,192,80372,1,0,0:0:0:0:
320,192,80559,1,0,0:0:0:0:
448,192,80559,1,0,0:0:0:0:
64,192,80653,1,0,0:0:0:0:
192,192,80747,1,0,0:0:0:0:
320,192,80840,1,0,0:0:0:0:
448,192,80934,1,0,0:0:0:0:
64,192,80934,1,0,0:0:0:0:
192,192,81122,1,0,0:0:0:0:
320,192,81122,1,0,0:0:0:0:
64,192,81309,1,0,0:0:0:0:
320,192,81309,1,0,0:0:0:0:
448,192,81309,1,0,0:0:0:0:
192,192,81497,1,0,0:0:0:0:
320,192,81590,1,0,0:0:0:0:
448,192,81590,1,0,0:0:0:0:
192,192,81684,1,0,0:0:0:0:
64,192,81684,1,0,0:0:0:0:
64,192,81872,1,0,0:0:0:0:
448,192,81872,1,0,0:0:0:0:
192,192,82059,1,0,0:0:0:0:
64,192,82059,1,0,0:0:0:0:
448,192,82059,1,0,0:0:0:0:
320,192,82153,1,0,0:0:0:0:
448,192,82247,1,0,0:0:0:0:
64,192,82247,1,0,0:0:0:0:
192,192,82340,1,0,0:0:0:0:
448,192,82340,1,0,0:0:0:0:
320,192,82434,1,0,0:0:0:0:
192,192,82434,1,0,0:0:0:0:
64,192,82528,1,0,0:0:0:0:
320,192,82622,1,0,0:0:0:0:
448,192,82622,1,0,0:0:0:0:
192,192,82715,1,0,0:0:0:0:
64,192,82809,1,0,0:0:0:0:
448,192,82809,1,0,0:0:0:0:
192,192,82903,1,0,0:0:0:0:
448,192,82997,1,0,0:0:0:0:
320,192,82997,128,0,83184:0:0:0:0:
192,192,83184,128,0,83372:0:0:0:0:
448,192,83372,128,0,83559:0:0:0:0:
64,192,83559,128,0,83747:0:0:0:0:
192,192,83559,1,0,0:0:0:0:
320,192,83653,1,0,0:0:0:0:
192,192,83747,128,0,83934:0:0:0:0:
448,192,83747,1,0,0:0:0:0:
64,192,83840,1,0,0:0:0:0:
320,192,83934,128,0,84122:0:0:0:0:
448,192,83934,1,0,0:0:0:0:
192,192,84122,128,0,84309:0:0:0:0:
64,192,84122,1,0,0:0:0:0:
320,192,84309,128,0,84497:0:0:0:0:
448,192,84309,1,0,0:0:0:0:
448,192,84497,128,0,84684:0:0:0:0:
64,192,84497,1,0,0:0:0:0:
192,192,84497,1,0,0:0:0:0:
320,192,84590,1,0,0:0:0:0:
192,192,84684,128,0,84872:0:0:0:0:
64,192,84684,1,0,0:0:0:0:
320,192,84778,1,0,0:0:0:0:
448,192,84872,128,0,85059:0:0:0:0:
64,192,84872,1,0,0:0:0:0:
64,192,85059,128,0,85247:0:0:0:0:
320,192,85059,1,0,0:0:0:0:
192,192,85153,1,0,0:0:0:0:
320,192,85247,128,0,85434:0:0:0:0:
448,192,85247,1,0,0:0:0:0:
64,192,85340,1,0,0:0:0:0:
192,192,85434,128,0,85622:0:0:0:0:
448,192,85434,1,0,0:0:0:0:
64,192,85528,1,0,0:0:0:0:
320,192,85622,128,0,85809:0:0:0:0:
448,192,85622,1,0,0:0:0:0:
64,192,85715,1,0,0:0:0:0:
448,192,85809,128,0,85997:0:0:0:0:
192,192,85809,1,0,0:0:0:0:
320,192,85903,1,0,0:0:0:0:
192,192,85997,1,0,0:0:0:0:
64,192,85997,1,0,0:0:0:0:
320,192,86184,1,0,0:0:0:0:
192,192,86184,1,0,0:0:0:0:
320,192,86372,1,0,0:0:0:0:
448,192,86372,1,0,0:0:0:0:
64,192,86372,1,0,0:0:0:0:
192,192,86559,1,0,0:0:0:0:
448,192,86559,1,0,0:0:0:0:
320,192,86653,1,0,0:0:0:0:
192,192,86747,1,0,0:0:0:0:
64,192,86747,1,0,0:0:0:0:
448,192,86840,1,0,0:0:0:0:
192,192,86934,1,0,0:0:0:0:
320,192,87028,1,0,0:0:0:0:
64,192,87122,1,0,0:0:0:0:
192,192,87122,1,0,0:0:0:0:
448,192,87122,1,0,0:0:0:0:
192,192,87309,1,0,0:0:0:0:
64,192,87309,1,0,0:0:0:0:
448,192,87309,1,0,0:0:0:0:
320,192,87403,1,0,0:0:0:0:
64,192,87497,1,0,0:0:0:0:
192,192,87590,1,0,0:0:0:0:
320,192,87684,1,0,0:0:0:0:
448,192,87684,1,0,0:0:0:0:
192,192,87778,1,0,0:0:0:0:
448,192,87872,1,0,0:0:0:0:
64,192,87872,1,0,0:0:0:0:
320,192,87965,1,0,0:0:0:0:
192,192,88059,1,0,0:0:0:0:
448,192,88059,1,0,0:0:0:0:
64,192,88153,1,0,0:0:0:0:
192,192,88247,1,0,0:0:0:0:
448,192,88247,1,0,0:0:0:0:
320,192,88340,1,0,0:0:0:0:
64,192,88340,1,0,0:0:0:0:
320,192,88434,1,0,0:0:0:0:
64,192,88434,1,0,0:0:0:0:
320,192,88622,1,0,0:0:0:0:
192,192,88622,1,0,0:0:0:0:
448,192,88622,1,0,0:0:0:0:
192,192,88809,1,0,0:0:0:0:
64,192,88809,1,0,0:0:0:0:
320,192,88809,1,0,0:0:0:0:
320,192,88997,1,0,0:0:0:0:
64,192,88997,1,0,0:0:0:0:
64,192,89184,1,0,0:0:0:0:
448,192,89184,1,0,0:0:0:0:
64,192,89372,1,0,0:0:0:0:
320,192,89372,1,0,0:0:0:0:
448,192,89372,1,0,0:0:0:0:
192,192,89465,1,0,0:0:0:0:
320,192,89559,1,0,0:0:0:0:
64,192,89559,1,0,0:0:0:0:
448,192,89653,1,0,0:0:0:0:
192,192,89747,1,0,0:0:0:0:
64,192,89747,1,0,0:0:0:0:
448,192,89840,1,0,0:0:0:0:
320,192,89934,1,0,0:0:0:0:
192,192,89934,1,0,0:0:0:0:
64,192,90028,1,0,0:0:0:0:
192,192,90122,1,0,0:0:0:0:
320,192,90122,1,0,0:0:0:0:
448,192,90122,1,0,0:0:0:0:
192,192,90309,1,0,0:0:0:0:
448,192,90309,1,0,0:0:0:0:
64,192,90403,1,0,0:0:0:0:
320,192,90497,1,0,0:0:0:0:
448,192,90497,1,0,0:0:0:0:
192,192,90590,1,0,0:0:0:0:
64,192,90590,1,0,0:0:0:0:
320,192,90684,1,0,0:0:0:0:
192,192,90778,1,0,0:0:0:0:
448,192,90778,1,0,0:0:0:0:
448,192,90872,1,0,0:0:0:0:
64,192,90872,1,0,0:0:0:0:
192,192,90965,1,0,0:0:0:0:
320,192,90997,1,0,0:0:0:0:
64,192,91059,1,0,0:0:0:0:
448,192,91059,1,0,0:0:0:0:
64,192,91153,1,0,0:0:0:0:
192,192,91247,1,0,0:0:0:0:
320,192,91247,1,0,0:0:0:0:
448,192,91340,1,0,0:0:0:0:
320,192,91340,1,0,0:0:0:0:
192,192,91434,1,0,0:0:0:0:
448,192,91528,1,0,0:0:0:0:
64,192,91528,1,0,0:0:0:0:
192,192,91622,1,0,0:0:0:0:
64,192,91668,1,0,0:0:0:0:
320,192,91715,1,0,0:0:0:0:
192,192,91762,1,0,0:0:0:0:
448,192,91809,1,0,0:0:0:0:
320,192,91903,1,0,0:0:0:0:
192,192,91997,1,0,0:0:0:0:
448,192,91997,1,0,0:0:0:0:
64,192,91997,1,0,0:0:0:0:
64,192,92184,1,0,0:0:0:0:
320,192,92184,1,0,0:0:0:0:
320,192,92372,1,0,0:0:0:0:
64,192,92372,1,0,0:0:0:0:
448,192,92372,1,0,0:0:0:0:
192,192,92559,1,0,0:0:0:0:
448,192,92559,1,0,0:0:0:0:
320,192,92653,1,0,0:0:0:0:
192,192,92747,1,0,0:0:0:0:
64,192,92747,1,0,0:0:0:0:
448,192,92840,1,0,0:0:0:0:
192,192,92934,1,0,0:0:0:0:
320,192,93028,1,0,0:0:0:0:
64,192,93122,1,0,0:0:0:0:
448,192,93122,1,0,0:0:0:0:
192,192,93122,1,0,0:0:0:0:
64,192,93309,1,0,0:0:0:0:
320,192,93309,1,0,0:0:0:0:
192,192,93497,1,0,0:0:0:0:
448,192,93497,1,0,0:0:0:0:
448,192,93590,1,0,0:0:0:0:
192,192,93590,1,0,0:0:0:0:
320,192,93684,1,0,0:0:0:0:
64,192,93684,1,0,0:0:0:0:
192,192,93778,1,0,0:0:0:0:
320,192,93872,1,0,0:0:0:0:
448,192,93872,1,0,0:0:0:0:
64,192,93965,1,0,0:0:0:0:
192,192,94059,1,0,0:0:0:0:
320,192,94059,1,0,0:0:0:0:
448,192,94153,1,0,0:0:0:0:
64,192,94247,1,0,0:0:0:0:
192,192,94247,1,0,0:0:0:0:
320,192,94340,1,0,0:0:0:0:
64,192,94434,1,0,0:0:0:0:
320,192,94528,1,0,0:0:0:0:
448,192,94622,1,0,0:0:0:0:
192,192,94715,1,0,0:0:0:0:
320,192,94809,1,0,0:0:0:0:
64,192,94903,1,0,0:0:0:0:
192,192,94997,1,0,0:0:0:0:
448,192,94997,1,0,0:0:0:0:
64,192,95184,1,0,0:0:0:0:
320,192,95184,1,0,0:0:0:0:
192,192,95372,1,0,0:0:0:0:
448,192,95372,1,0,0:0:0:0:
320,192,95372,1,0,0:0:0:0:
192,192,95559,1,0,0:0:0:0:
64,192,95559,1,0,0:0:0:0:
320,192,95653,1,0,0:0:0:0:
448,192,95747,1,0,0:0:0:0:
64,192,95747,1,0,0:0:0:0:
192,192,95840,1,0,0:0:0:0:
320,192,95934,1,0,0:0:0:0:
448,192,95934,1,0,0:0:0:0:
64,192,96028,1,0,0:0:0:0:
192,192,96122,1,0,0:0:0:0:
448,192,96122,1,0,0:0:0:0:
320,192,96215,1,0,0:0:0:0:
64,192,96309,1,0,0:0:0:0:
192,192,96309,1,0,0:0:0:0:
320,192,96403,1,0,0:0:0:0:
448,192,96497,1,0,0:0:0:0:
64,192,96497,1,0,0:0:0:0:
320,192,96590,1,0,0:0:0:0:
192,192,96684,1,0,0:0:0:0:
64,192,96684,1,0,0:0:0:0:
448,192,96778,1,0,0:0:0:0:
320,192,96872,1,0,0:0:0:0:
192,192,96872,1,0,0:0:0:0:
192,192,96965,1,0,0:0:0:0:
320,192,96965,1,0,0:0:0:0:
64,192,97059,1,0,0:0:0:0:
448,192,97059,1,0,0:0:0:0:
192,192,97153,1,0,0:0:0:0:
320,192,97247,1,0,0:0:0:0:
448,192,97247,1,0,0:0:0:0:
320,192,97340,1,0,0:0:0:0:
448,192,97340,1,0,0:0:0:0:
192,192,97434,1,0,0:0:0:0:
64,192,97434,1,0,0:0:0:0:
448,192,97528,1,0,0:0:0:0:
320,192,97622,1,0,0:0:0:0:
64,192,97622,1,0,0:0:0:0:
192,192,97715,1,0,0:0:0:0:
320,192,97809,1,0,0:0:0:0:
448,192,97809,1,0,0:0:0:0:
64,192,97903,1,0,0:0:0:0:
320,192,97997,1,0,0:0:0:0:
448,192,97997,1,0,0:0:0:0:
192,192,97997,1,0,0:0:0:0:
64,192,98184,1,0,0:0:0:0:
320,192,98184,1,0,0:0:0:0:
192,192,98372,1,0,0:0:0:0:
64,192,98372,1,0,0:0:0:0:
448,192,98372,1,0,0:0:0:0:
320,192,98559,1,0,0:0:0:0:
448,192,98559,1,0,0:0:0:0:
192,192,98653,1,0,0:0:0:0:
64,192,98747,1,0,0:0:0:0:
448,192,98747,1,0,0:0:0:0:
192,192,98840,1,0,0:0:0:0:
320,192,98934,1,0,0:0:0:0:
448,192,99028,1,0,0:0:0:0:
64,192,99122,1,0,0:0:0:0:
192,192,99122,1,0,0:0:0:0:
320,192,99122,1,0,0:0:0:0:
192,192,99309,1,0,0:0:0:0:
64,192,99309,1,0,0:0:0:0:
320,192,99309,1,0,0:0:0:0:
448,192,99403,1,0,0:0:0:0:
192,192,99497,1,0,0:0:0:0:
320,192,99590,1,0,0:0:0:0:
64,192,99684,1,0,0:0:0:0:
192,192,99684,1,0,0:0:0:0:
320,192,99778,1,0,0:0:0:0:
448,192,99872,1,0,0:0:0:0:
64,192,99872,1,0,0:0:0:0:
192,192,99965,1,0,0:0:0:0:
320,192,100059,1,0,0:0:0:0:
448,192,100059,1,0,0:0:0:0:
192,192,100153,1,0,0:0:0:0:
64,192,100247,1,0,0:0:0:0:
448,192,100247,1,0,0:0:0:0:
192,192,100340,1,0,0:0:0:0:
448,192,100340,1,0,0:0:0:0:
192,192,100434,1,0,0:0:0:0:
320,192,100434,1,0,0:0:0:0:
64,192,100528,1,0,0:0:0:0:
320,192,100622,1,0,0:0:0:0:
448,192,100622,1,0,0:0:0:0:
192,192,100715,1,0,0:0:0:0:
64,192,100809,1,0,0:0:0:0:
320,192,100809,1,0,0:0:0:0:
448,192,100903,1,0,0:0:0:0:
320,192,100997,1,0,0:0:0:0:
192,192,100997,1,0,0:0:0:0:
64,192,100997,1,0,0:0:0:0:
192,192,101184,1,0,0:0:0:0:
448,192,101184,1,0,0:0:0:0:
320,192,101372,1,0,0:0:0:0:
448,192,101372,1,0,0:0:0:0:
64,192,101372,1,0,0:0:0:0:
192,192,101465,1,0,0:0:0:0:
320,192,101559,1,0,0:0:0:0:
64,192,101559,1,0,0:0:0:0:
448,192,101653,1,0,0:0:0:0:
192,192,101747,1,0,0:0:0:0:
64,192,101747,1,0,0:0:0:0:
448,192,101840,1,0,0:0:0:0:
320,192,101934,1,0,0:0:0:0:
192,192,101934,1,0,0:0:0:0:
64,192,102028,1,0,0:0:0:0:
320,192,102122,1,0,0:0:0:0:
448,192,102122,1,0,0:0:0:0:
192,192,102122,1,0,0:0:0:0:
64,192,102309,1,0,0:0:0:0:
320,192,102309,1,0,0:0:0:0:
192,192,102403,1,0,0:0:0:0:
448,192,102403,1,0,0:0:0:0:
320,192,102497,1,0,0:0:0:0:
448,192,102497,1,0,0:0:0:0:
192,192,102590,1,0,0:0:0:0:
64,192,102590,1,0,0:0:0:0:
320,192,102684,1,0,0:0:0:0:
448,192,102684,1,0,0:0:0:0:
192,192,102778,1,0,0:0:0:0:
64,192,102872,1,0,0:0:0:0:
320,192,102872,1,0,0:0:0:0:
192,192,102965,1,0,0:0:0:0:
448,192,102997,1,0,0:0:0:0:
64,192,103059,1,0,0:0:0:0:
320,192,103059,1,0,0:0:0:0:
320,192,103153,1,0,0:0:0:0:
192,192,103247,1,0,0:0:0:0:
64,192,103247,1,0,0:0:0:0:
320,192,103340,1,0,0:0:0:0:
448,192,103340,1,0,0:0:0:0:
192,192,103434,1,0,0:0:0:0:
64,192,103434,1,0,0:0:0:0:
320,192,103528,1,0,0:0:0:0:
448,192,103622,1,0,0:0:0:0:
192,192,103622,1,0,0:0:0:0:
64,192,103622,1,0,0:0:0:0:
320,192,103668,1,0,0:0:0:0:
64,192,103715,1,0,0:0:0:0:
192,192,103762,1,0,0:0:0:0:
448,192,103809,1,0,0:0:0:0:
64,192,103903,1,0,0:0:0:0:
192,192,103997,1,0,0:0:0:0:
320,192,103997,1,0,0:0:0:0:
448,192,103997,1,0,0:0:0:0:
64,192,104184,1,0,0:0:0:0:
320,192,104184,1,0,0:0:0:0:
192,192,104372,1,0,0:0:0:0:
64,192,104372,1,0,0:0:0:0:
448,192,104372,1,0,0:0:0:0:
448,192,104559,1,0,0:0:0:0:
192,192,104559,1,0,0:0:0:0:
320,192,104653,1,0,0:0:0:0:
64,192,104747,1,0,0:0:0:0:
448,192,104747,1,0,0:0:0:0:
192,192,104840,1,0,0:0:0:0:
320,192,104934,1,0,0:0:0:0:
192,192,105028,1,0,0:0:0:0:
64,192,105122,1,0,0:0:0:0:
448,192,105122,1,0,0:0:0:0:
320,192,105122,1,0,0:0:0:0:
320,192,105309,1,0,0:0:0:0:
448,192,105309,1,0,0:0:0:0:
64,192,105309,1,0,0:0:0:0:
192,192,105403,1,0,0:0:0:0:
448,192,105497,1,0,0:0:0:0:
320,192,105497,1,0,0:0:0:0:
320,192,105590,1,0,0:0:0:0:
448,192,105590,1,0,0:0:0:0:
192,192,105684,1,0,0:0:0:0:
64,192,105684,1,0,0:0:0:0:
320,192,105778,1,0,0:0:0:0:
448,192,105872,1,0,0:0:0:0:
64,192,105872,1,0,0:0:0:0:
192,192,105965,1,0,0:0:0:0:
320,192,106059,1,0,0:0:0:0:
448,192,106059,1,0,0:0:0:0:
192,192,106153,1,0,0:0:0:0:
64,192,106247,1,0,0:0:0:0:
448,192,106247,1,0,0:0:0:0:
192,192,106340,1,0,0:0:0:0:
320,192,106434,1,0,0:0:0:0:
448,192,106434,1,0,0:0:0:0:
64,192,106528,1,0,0:0:0:0:
192,192,106622,1,0,0:0:0:0:
320,192,106622,1,0,0:0:0:0:
448,192,106715,1,0,0:0:0:0:
192,192,106809,1,0,0:0:0:0:
64,192,106809,1,0,0:0:0:0:
320,192,106903,1,0,0:0:0:0:
64,192,106997,1,0,0:0:0:0:
448,192,106997,1,0,0:0:0:0:
192,192,107059,1,0,0:0:0:0:
448,192,107122,1,0,0:0:0:0:
192,192,107184,1,0,0:0:0:0:
64,192,107184,1,0,0:0:0:0:
320,192,107247,1,0,0:0:0:0:
64,192,107309,1,0,0:0:0:0:
320,192,107372,1,0,0:0:0:0:
448,192,107372,1,0,0:0:0:0:
192,192,107434,1,0,0:0:0:0:
320,192,107497,1,0,0:0:0:0:
448,192,107559,1,0,0:0:0:0:
64,192,107559,1,0,0:0:0:0:
192,192,107622,1,0,0:0:0:0:
320,192,107684,1,0,0:0:0:0:
192,192,107747,1,0,0:0:0:0:
64,192,107747,1,0,0:0:0:0:
448,192,107809,1,0,0:0:0:0:
320,192,107872,1,0,0:0:0:0:
192,192,107934,1,0,0:0:0:0:
64,192,107934,1,0,0:0:0:0:
320,192,107997,1,0,0:0:0:0:
448,192,108059,1,0,0:0:0:0:
64,192,108122,1,0,0:0:0:0:
192,192,108122,1,0,0:0:0:0:
448,192,108184,1,0,0:0:0:0:
64,192,108247,1,0,0:0:0:0:
192,192,108309,1,0,0:0:0:0:
320,192,108309,1,0,0:0:0:0:
448,192,108372,1,0,0:0:0:0:
192,192,108434,1,0,0:0:0:0:
320,192,108497,1,0,0:0:0:0:
448,192,108497,1,0,0:0:0:0:
64,192,108497,1,0,0:0:0:0:
320,192,108684,1,0,0:0:0:0:
192,192,108872,1,0,0:0:0:0:
64,192,109059,1,0,0:0:0:0:
448,192,109247,1,0,0:0:0:0:
320,192,109434,1,0,0:0:0:0:
192,192,109622,1,0,0:0:0:0:
64,192,109809,1,0,0:0:0:0:
448,192,109997,1,0,0:0:0:0:
320,192,110184,1,0,0:0:0:0:
192,192,110372,1,0,0:0:0:0:
320,192,110559,1,0,0:0:0:0:
192,192,110747,1,0,0:0:0:0:
64,192,110934,1,0,0:0:0:0:
320,192,111122,1,0,0:0:0:0:
192,192,111309,1,0,0:0:0:0:
320,192,111497,1,0,0:0:0:0:
448,192,111497,1,0,0:0:0:0:
64,192,111684,1,0,0:0:0:0:
320,192,111778,1,0,0:0:0:0:
448,192,111778,1,0,0:0:0:0:
192,192,111872,1,0,0:0:0:0:
320,192,112059,1,0,0:0:0:0:
448,192,112059,1,0,0:0:0:0:
192,192,112153,1,0,0:0:0:0:
64,192,112247,1,0,0:0:0:0:
320,192,112340,1,0,0:0:0:0:
192,192,112434,1,0,0:0:0:0:
64,192,112622,1,0,0:0:0:0:
320,192,112622,1,0,0:0:0:0:
192,192,112809,1,0,0:0:0:0:
64,192,112809,1,0,0:0:0:0:
448,192,112809,1,0,0:0:0:0:
320,192,112997,1,0,0:0:0:0:
64,192,113090,1,0,0:0:0:0:
192,192,113184,1,0,0:0:0:0:
320,192,113184,1,0,0:0:0:0:
448,192,113372,1,0,0:0:0:0:
192,192,113372,1,0,0:0:0:0:
320,192,113559,1,0,0:0:0:0:
448,192,113559,1,0,0:0:0:0:
64,192,113559,1,0,0:0:0:0:
192,192,113653,1,0,0:0:0:0:
320,192,113747,1,0,0:0:0:0:
448,192,113747,1,0,0:0:0:0:
64,192,113840,1,0,0:0:0:0:
320,192,113840,1,0,0:0:0:0:
192,192,113934,1,0,0:0:0:0:
64,192,113934,1,0,0:0:0:0:
320,192,114028,1,0,0:0:0:0:
448,192,114122,1,0,0:0:0:0:
192,192,114122,1,0,0:0:0:0:
64,192,114122,1,0,0:0:0:0:
64,192,114309,1,0,0:0:0:0:
320,192,114309,1,0,0:0:0:0:
448,192,114309,1,0,0:0:0:0:
64,192,114497,1,0,0:0:0:0:
192,192,114622,1,0,0:0:0:0:
320,192,114747,1,0,0:0:0:0:
320,192,114997,1,0,0:0:0:0:
192,192,115059,1,0,0:0:0:0:
448,192,115153,1,0,0:0:0:0:
320,192,115247,1,0,0:0:0:0:
64,192,115247,1,0,0:0:0:0:
448,192,115340,1,0,0:0:0:0:
192,192,115434,1,0,0:0:0:0:
320,192,115622,1,0,0:0:0:0:
448,192,115622,1,0,0:0:0:0:
192,192,115747,1,0,0:0:0:0:
320,192,115872,1,0,0:0:0:0:
192,192,115997,1,0,0:0:0:0:
64,192,115997,1,0,0:0:0:0:
448,192,116122,1,0,0:0:0:0:
192,192,116247,1,0,0:0:0:0:
448,192,116372,1,0,0:0:0:0:
64,192,116372,1,0,0:0:0:0:
192,192,116497,1,0,0:0:0:0:
320,192,116622,1,0,0:0:0:0:
448,192,116747,1,0,0:0:0:0:
64,192,116747,1,0,0:0:0:0:
192,192,116747,1,0,0:0:0:0:
64,192,116840,1,0,0:0:0:0:
320,192,116840,1,0,0:0:0:0:
448,192,116934,1,0,0:0:0:0:
192,192,117028,1,0,0:0:0:0:
64,192,117122,1,0,0:0:0:0:
320,192,117122,1,0,0:0:0:0:
448,192,117122,1,0,0:0:0:0:
192,192,117215,1,0,0:0:0:0:
320,192,117309,1,0,0:0:0:0:
448,192,117403,1,0,0:0:0:0:
64,192,117403,1,0,0:0:0:0:
192,192,117497,1,0,0:0:0:0:
64,192,117497,1,0,0:0:0:0:
448,192,117559,1,0,0:0:0:0:
192,192,117622,1,0,0:0:0:0:
448,192,117684,1,0,0:0:0:0:
192,192,117747,1,0,0:0:0:0:
64,192,117778,1,0,0:0:0:0:
448,192,117809,1,0,0:0:0:0:
192,192,117872,1,0,0:0:0:0:
320,192,117934,1,0,0:0:0:0:
64,192,117997,1,0,0:0:0:0:
320,192,118059,1,0,0:0:0:0:
448,192,118059,1,0,0:0:0:0:
192,192,118122,1,0,0:0:0:0:
64,192,118184,1,0,0:0:0:0:
320,192,118247,1,0,0:0:0:0:
448,192,118247,1,0,0:0:0:0:
192,192,118309,1,0,0:0:0:0:
320,192,118372,1,0,0:0:0:0:
64,192,118434,1,0,0:0:0:0:
192,192,118497,1,0,0:0:0:0:
448,192,118559,1,0,0:0:0:0:
192,192,118622,1,0,0:0:0:0:
320,192,118684,1,0,0:0:0:0:
64,192,118747,1,0,0:0:0:0:
448,192,118809,1,0,0:0:0:0:
320,192,118809,1,0,0:0:0:0:
192,192,118809,1,0,0:0:0:0:
64,192,118872,1,0,0:0:0:0:
320,192,118934,1,0,0:0:0:0:
192,192,118997,1,0,0:0:0:0:
448,192,119059,1,0,0:0:0:0:
192,192,119122,1,0,0:0:0:0:
448,192,119184,1,0,0:0:0:0:
64,192,119184,1,0,0:0:0:0:
192,192,119247,1,0,0:0:0:0:
448,192,119309,1,0,0:0:0:0:
64,192,119372,1,0,0:0:0:0:
320,192,119434,1,0,0:0:0:0:
64,192,119497,1,0,0:0:0:0:
320,192,119559,1,0,0:0:0:0:
192,192,119559,1,0,0:0:0:0:
448,192,119622,1,0,0:0:0:0:
192,192,119684,1,0,0:0:0:0:
320,192,119747,1,0,0:0:0:0:
448,192,119747,1,0,0:0:0:0:
192,192,119840,1,0,0:0:0:0:
320,192,119840,1,0,0:0:0:0:
192,192,119934,1,0,0:0:0:0:
64,192,119934,1,0,0:0:0:0:
448,192,119997,1,0,0:0:0:0:
320,192,120059,1,0,0:0:0:0:
64,192,120122,1,0,0:0:0:0:
448,192,120122,1,0,0:0:0:0:
320,192,120215,1,0,0:0:0:0:
192,192,120309,1,0,0:0:0:0:
64,192,120309,1,0,0:0:0:0:
320,192,120403,1,0,0:0:0:0:
448,192,120497,1,0,0:0:0:0:
64,192,120497,1,0,0:0:0:0:
320,192,120684,1,0,0:0:0:0:
64,192,120684,1,0,0:0:0:0:
192,192,120872,1,0,0:0:0:0:
64,192,120872,1,0,0:0:0:0:
320,192,121059,1,0,0:0:0:0:
448,192,121059,1,0,0:0:0:0:
192,192,121153,1,0,0:0:0:0:
320,192,121247,1,0,0:0:0:0:
64,192,121247,1,0,0:0:0:0:
192,192,121340,1,0,0:0:0:0:
320,192,121434,1,0,0:0:0:0:
448,192,121434,1,0,0:0:0:0:
192,192,121528,1,0,0:0:0:0:
64,192,121622,1,0,0:0:0:0:
448,192,121622,1,0,0:0:0:0:
192,192,121809,1,0,0:0:0:0:
64,192,121997,1,0,0:0:0:0:
192,192,121997,1,0,0:0:0:0:
320,192,122122,1,0,0:0:0:0:
448,192,122247,1,0,0:0:0:0:
320,192,122372,1,0,0:0:0:0:
64,192,122372,1,0,0:0:0:0:
192,192,122497,1,0,0:0:0:0:
192,192,122622,1,0,0:0:0:0:
320,192,122747,1,0,0:0:0:0:
448,192,122747,1,0,0:0:0:0:
192,192,122840,1,0,0:0:0:0:
64,192,122840,1,0,0:0:0:0:
320,192,122934,1,0,0:0:0:0:
64,192,123028,1,0,0:0:0:0:
448,192,123122,1,0,0:0:0:0:
320,192,123122,1,0,0:0:0:0:
192,192,123215,1,0,0:0:0:0:
320,192,123309,1,0,0:0:0:0:
64,192,123403,1,0,0:0:0:0:
448,192,123403,1,0,0:0:0:0:
192,192,123497,1,0,0:0:0:0:
320,192,123497,1,0,0:0:0:0:
64,192,123684,1,0,0:0:0:0:
320,192,123778,1,0,0:0:0:0:
448,192,123778,1,0,0:0:0:0:
192,192,123872,1,0,0:0:0:0:
64,192,124059,1,0,0:0:0:0:
448,192,124059,1,0,0:0:0:0:
320,192,124153,1,0,0:0:0:0:
192,192,124247,1,0,0:0:0:0:
64,192,124340,1,0,0:0:0:0:
320,192,124434,1,0,0:0:0:0:
192,192,124434,1,0,0:0:0:0:
192,192,124622,1,0,0:0:0:0:
448,192,124622,1,0,0:0:0:0:
64,192,124747,1,0,0:0:0:0:
320,192,124809,1,0,0:0:0:0:
448,192,124809,1,0,0:0:0:0:
192,192,124872,1,0,0:0:0:0:
320,192,124997,1,0,0:0:0:0:
448,192,125122,1,0,0:0:0:0:
192,192,125372,1,0,0:0:0:0:
64,192,125372,1,0,0:0:0:0:
320,192,125559,1,0,0:0:0:0:
448,192,125559,1,0,0:0:0:0:
64,192,125559,1,0,0:0:0:0:
192,192,125653,1,0,0:0:0:0:
320,192,125747,1,0,0:0:0:0:
448,192,125747,1,0,0:0:0:0:
64,192,125840,1,0,0:0:0:0:
448,192,125840,1,0,0:0:0:0:
192,192,125934,1,0,0:0:0:0:
64,192,125934,1,0,0:0:0:0:
320,192,126028,1,0,0:0:0:0:
448,192,126122,1,0,0:0:0:0:
192,192,126122,1,0,0:0:0:0:
64,192,126215,1,0,0:0:0:0:
320,192,126309,1,0,0:0:0:0:
192,192,126309,1,0,0:0:0:0:
448,192,126372,1,0,0:0:0:0:
64,192,126497,1,0,0:0:0:0:
192,192,126622,1,0,0:0:0:0:
320,192,126747,1,0,0:0:0:0:
448,192,126872,1,0,0:0:0:0:
64,192,127059,1,0,0:0:0:0:
192,192,127059,1,0,0:0:0:0:
320,192,127153,1,0,0:0:0:0:
192,192,127247,1,0,0:0:0:0:
64,192,127340,1,0,0:0:0:0:
320,192,127434,1,0,0:0:0:0:
192,192,127622,1,0,0:0:0:0:
448,192,127622,1,0,0:0:0:0:
320,192,127747,1,0,0:0:0:0:
64,192,127872,1,0,0:0:0:0:
192,192,127997,1,0,0:0:0:0:
448,192,127997,1,0,0:0:0:0:
320,192,128090,1,0,0:0:0:0:
192,192,128184,1,0,0:0:0:0:
64,192,128278,1,0,0:0:0:0:
320,192,128372,1,0,0:0:0:0:
448,192,128372,1,0,0:0:0:0:
320,192,128559,1,0,0:0:0:0:
448,192,128559,1,0,0:0:0:0:
192,192,128653,1,0,0:0:0:0:
64,192,128747,1,0,0:0:0:0:
448,192,128747,1,0,0:0:0:0:
320,192,128840,1,0,0:0:0:0:
192,192,128840,1,0,0:0:0:0:
448,192,128934,1,0,0:0:0:0:
64,192,129028,1,0,0:0:0:0:
192,192,129028,1,0,0:0:0:0:
320,192,129122,1,0,0:0:0:0:
448,192,129122,1,0,0:0:0:0:
64,192,129215,1,0,0:0:0:0:
192,192,129309,1,0,0:0:0:0:
320,192,129403,1,0,0:0:0:0:
448,192,129403,1,0,0:0:0:0:
192,192,129497,1,0,0:0:0:0:
64,192,129497,1,0,0:0:0:0:
320,192,129622,1,0,0:0:0:0:
64,192,129778,1,0,0:0:0:0:
192,192,129778,1,0,0:0:0:0:
192,192,130059,1,0,0:0:0:0:
448,192,130059,1,0,0:0:0:0:
320,192,130153,1,0,0:0:0:0:
64,192,130247,1,0,0:0:0:0:
192,192,130340,1,0,0:0:0:0:
320,192,130434,1,0,0:0:0:0:
448,192,130434,1,0,0:0:0:0:
192,192,130622,1,0,0:0:0:0:
448,192,130747,1,0,0:0:0:0:
192,192,130872,1,0,0:0:0:0:
320,192,130997,1,0,0:0:0:0:
64,192,131122,1,0,0:0:0:0:
320,192,131247,1,0,0:0:0:0:
192,192,131372,1,0,0:0:0:0:
64,192,131497,1,0,0:0:0:0:
448,192,131622,1,0,0:0:0:0:
64,192,131747,1,0,0:0:0:0:
192,192,131747,1,0,0:0:0:0:
448,192,131840,1,0,0:0:0:0:
320,192,131872,1,0,0:0:0:0:
192,192,131934,1,0,0:0:0:0:
448,192,131997,1,0,0:0:0:0:
320,192,132122,1,0,0:0:0:0:
64,192,132122,1,0,0:0:0:0:
192,192,132247,1,0,0:0:0:0:
448,192,132309,1,0,0:0:0:0:
64,192,132372,1,0,0:0:0:0:
320,192,132497,1,0,0:0:0:0:
448,192,132497,1,0,0:0:0:0:
192,192,132559,1,0,0:0:0:0:
320,192,132622,1,0,0:0:0:0:
64,192,132684,1,0,0:0:0:0:
320,192,132747,1,0,0:0:0:0:
192,192,132809,1,0,0:0:0:0:
448,192,132872,1,0,0:0:0:0:
192,192,132934,1,0,0:0:0:0:
320,192,132997,1,0,0:0:0:0:
64,192,133059,1,0,0:0:0:0:
192,192,133122,1,0,0:0:0:0:
320,192,133184,1,0,0:0:0:0:
448,192,133247,1,0,0:0:0:0:
192,192,133309,1,0,0:0:0:0:
448,192,133372,1,0,0:0:0:0:
192,192,133434,1,0,0:0:0:0:
320,192,133497,1,0,0:0:0:0:
64,192,133559,1,0,0:0:0:0:
320,192,133622,1,0,0:0:0:0:
192,192,133684,1,0,0:0:0:0:
448,192,133747,1,0,0:0:0:0:
64,192,133809,1,0,0:0:0:0:
192,192,133872,1,0,0:0:0:0:
320,192,133934,1,0,0:0:0:0:
448,192,133997,1,0,0:0:0:0:
192,192,133997,1,0,0:0:0:0:
64,192,133997,1,0,0:0:0:0:
320,192,134059,1,0,0:0:0:0:
64,192,134122,1,0,0:0:0:0:
448,192,134184,1,0,0:0:0:0:
192,192,134247,1,0,0:0:0:0:
320,192,134309,1,0,0:0:0:0:
192,192,134372,1,0,0:0:0:0:
64,192,134372,1,0,0:0:0:0:
448,192,134434,1,0,0:0:0:0:
64,192,134497,1,0,0:0:0:0:
320,192,134559,1,0,0:0:0:0:
448,192,134559,1,0,0:0:0:0:
192,192,134622,1,0,0:0:0:0:
320,192,134684,1,0,0:0:0:0:
64,192,134747,1,0,0:0:0:0:
192,192,134809,1,0,0:0:0:0:
448,192,134840,1,0,0:0:0:0:
320,192,134872,1,0,0:0:0:0:
64,192,134934,1,0,0:0:0:0:
448,192,134997,1,0,0:0:0:0:
320,192,135059,1,0,0:0:0:0:
64,192,135122,1,0,0:0:0:0:
192,192,135122,1,0,0:0:0:0:
320,192,135184,1,0,0:0:0:0:
192,192,135247,1,0,0:0:0:0:
64,192,135309,1,0,0:0:0:0:
320,192,135372,1,0,0:0:0:0:
448,192,135403,1,0,0:0:0:0:
192,192,135434,1,0,0:0:0:0:
64,192,135497,1,0,0:0:0:0:
448,192,135497,1,0,0:0:0:0:
320,192,135559,1,0,0:0:0:0:
192,192,135622,1,0,0:0:0:0:
448,192,135684,1,0,0:0:0:0:
192,192,135747,1,0,0:0:0:0:
320,192,135809,1,0,0:0:0:0:
64,192,135872,1,0,0:0:0:0:
320,192,135934,1,0,0:0:0:0:
192,192,135997,1,0,0:0:0:0:
448,192,136059,1,0,0:0:0:0:
64,192,136122,1,0,0:0:0:0:
320,192,136184,1,0,0:0:0:0:
64,192,136247,1,0,0:0:0:0:
448,192,136309,1,0,0:0:0:0:
192,192,136372,1,0,0:0:0:0:
448,192,136434,1,0,0:0:0:0:
192,192,136497,1,0,0:0:0:0:
320,192,136559,1,0,0:0:0:0:
64,192,136622,1,0,0:0:0:0:
320,192,136684,1,0,0:0:0:0:
192,192,136747,1,0,0:0:0:0:
320,192,136809,1,0,0:0:0:0:
64,192,136872,1,0,0:0:0:0:
448,192,136934,1,0,0:0:0:0:
64,192,136997,1,0,0:0:0:0:
320,192,137059,1,0,0:0:0:0:
192,192,137122,1,0,0:0:0:0:
448,192,137184,1,0,0:0:0:0:
192,192,137247,1,0,0:0:0:0:
320,192,137309,1,0,0:0:0:0:
64,192,137372,1,0,0:0:0:0:
448,192,137434,1,0,0:0:0:0:
320,192,137497,1,0,0:0:0:0:
192,192,137559,1,0,0:0:0:0:
64,192,137622,1,0,0:0:0:0:
320,192,137684,1,0,0:0:0:0:
192,192,137747,1,0,0:0:0:0:
448,192,137809,1,0,0:0:0:0:
64,192,137872,1,0,0:0:0:0:
320,192,137934,1,0,0:0:0:0:
192,192,137997,1,0,0:0:0:0:
64,192,138059,1,0,0:0:0:0:
320,192,138122,1,0,0:0:0:0:
448,192,138184,1,0,0:0:0:0:
192,192,138247,1,0,0:0:0:0:
320,192,138309,1,0,0:0:0:0:
64,192,138372,1,0,0:0:0:0:
320,192,138434,1,0,0:0:0:0:
192,192,138528,1,0,0:0:0:0:
448,192,138622,128,0,138715:0:0:0:0:
