osu file format v13

[General]
AudioFilename: Prelude in C minor.mp3
AudioLeadIn: 0
PreviewTime: -1
Countdown: 0
SampleSet: None
StackLeniency: 0.7
Mode: 0
LetterboxInBreaks: 1
WidescreenStoryboard: 1

[Editor]
DistanceSpacing: 1
BeatDivisor: 8
GridSize: 8
TimelineZoom: 8

[Metadata]
Title:The Wrath of ET Blocko
TitleUnicode:The Wrath of ET Blocko
Artist:iJinjin
ArtistUnicode:iJinjin
Creator:iJinjin
Version:The Deadly Fireworks of ET Blocko
Source:
Tags:
BeatmapID:578079
BeatmapSetID:249218

[Difficulty]
HPDrainRate:0
CircleSize:7
OverallDifficulty:10
ApproachRate:10
SliderMultiplier:1.4
SliderTickRate:1

[Events]
//Background and Video events
0,0,"blocko.png",0,0
//Break Periods
//Storyboard Layer 0 (Background)
//Storyboard Layer 1 (Fail)
//Storyboard Layer 2 (Pass)
//Storyboard Layer 3 (Foreground)
//Storyboard Sound Samples

[TimingPoints]
0,9.765625,4,1,0,0,1,0

[HitObjects]
64,56,0,5,0,0:0:0:0:
440,352,1,1,0,0:0:0:0:
24,32,2,1,0,0:0:0:0:
464,304,3,1,0,0:0:0:0:
40,336,6,1,0,0:0:0:0:
464,32,7,1,0,0:0:0:0:
40,264,8,1,0,0:0:0:0:
408,280,9,1,0,0:0:0:0:
120,32,10,1,0,0:0:0:0:
376,360,12,1,0,0:0:0:0:
8,80,13,1,0,0:0:0:0:
504,216,14,1,0,0:0:0:0:
0,344,15,1,0,0:0:0:0:
480,48,17,1,0,0:0:0:0:
8,8,18,1,0,0:0:0:0:
488,368,19,1,0,0:0:0:0:
64,16,20,1,0,0:0:0:0:
400,320,21,1,0,0:0:0:0:
16,296,23,1,0,0:0:0:0:
488,64,24,1,0,0:0:0:0:
456,256,25,1,0,0:0:0:0:
440,8,26,1,0,0:0:0:0:
56,88,28,1,0,0:0:0:0:
480,272,29,1,0,0:0:0:0:
56,304,30,1,0,0:0:0:0:
104,64,31,1,0,0:0:0:0:
448,64,32,1,0,0:0:0:0:
104,8,34,1,0,0:0:0:0:
360,320,35,1,0,0:0:0:0:
80,272,36,1,0,0:0:0:0:
416,48,37,1,0,0:0:0:0:
88,88,39,1,0,0:0:0:0:
96,312,40,1,0,0:0:0:0:
432,296,42,1,0,0:0:0:0:
384,16,43,1,0,0:0:0:0:
136,88,45,1,0,0:0:0:0:
80,336,46,1,0,0:0:0:0:
384,288,47,1,0,0:0:0:0:
416,24,48,1,0,0:0:0:0:
32,56,50,1,0,0:0:0:0:
56,344,51,1,0,0:0:0:0:
464,336,52,1,0,0:0:0:0:
424,64,53,1,0,0:0:0:0:
80,32,54,1,0,0:0:0:0:
32,360,56,1,0,0:0:0:0:
408,344,57,1,0,0:0:0:0:
48,8,58,1,0,0:0:0:0:
64,368,59,1,0,0:0:0:0:
440,328,61,1,0,0:0:0:0:
384,48,62,1,0,0:0:0:0:
0,48,63,1,0,0:0:0:0:
480,8,64,1,0,0:0:0:0:
104,360,65,1,0,0:0:0:0:
416,376,67,1,0,0:0:0:0:
152,8,68,1,0,0:0:0:0:
496,320,69,1,0,0:0:0:0:
0,264,70,1,0,0:0:0:0:
432,40,72,1,0,0:0:0:0:
56,40,73,1,0,0:0:0:0:
16,320,74,1,0,0:0:0:0:
456,376,75,1,0,0:0:0:0:
128,304,76,1,0,0:0:0:0:
128,56,78,1,0,0:0:0:0:
136,344,80,1,0,0:0:0:0:
160,48,81,5,0,0:0:0:0:
344,336,83,1,0,0:0:0:0:
24,96,84,1,0,0:0:0:0:
112,320,85,1,0,0:0:0:0:
440,48,86,1,0,0:0:0:0:
432,264,87,1,0,0:0:0:0:
96,64,89,1,0,0:0:0:0:
368,336,90,1,0,0:0:0:0:
136,296,92,1,0,0:0:0:0:
376,64,93,1,0,0:0:0:0:
144,56,96,1,0,0:0:0:0:
104,272,97,1,0,0:0:0:0:
368,320,98,1,0,0:0:0:0:
160,72,100,1,0,0:0:0:0:
360,40,101,1,0,0:0:0:0:
464,224,102,1,0,0:0:0:0:
48,240,103,1,0,0:0:0:0:
8,232,104,1,0,0:0:0:0:
88,240,106,1,0,0:0:0:0:
40,56,107,1,0,0:0:0:0:
96,80,108,1,0,0:0:0:0:
376,32,109,1,0,0:0:0:0:
408,8,111,1,0,0:0:0:0:
432,224,112,1,0,0:0:0:0:
408,248,113,1,0,0:0:0:0:
144,104,114,1,0,0:0:0:0:
104,112,115,1,0,0:0:0:0:
80,128,117,1,0,0:0:0:0:
72,152,118,1,0,0:0:0:0:
72,176,119,1,0,0:0:0:0:
88,192,120,1,0,0:0:0:0:
112,200,122,1,0,0:0:0:0:
136,192,123,1,0,0:0:0:0:
144,152,124,1,0,0:0:0:0:
152,176,125,1,0,0:0:0:0:
168,208,126,1,0,0:0:0:0:
184,184,128,1,0,0:0:0:0:
192,136,129,1,0,0:0:0:0:
112,168,130,1,0,0:0:0:0:
168,128,131,1,0,0:0:0:0:
208,216,133,1,0,0:0:0:0:
144,232,134,1,0,0:0:0:0:
208,176,136,1,0,0:0:0:0:
168,160,137,1,0,0:0:0:0:
232,152,139,1,0,0:0:0:0:
112,136,141,1,0,0:0:0:0:
112,232,142,1,0,0:0:0:0:
176,248,144,1,0,0:0:0:0:
240,208,145,1,0,0:0:0:0:
224,112,146,1,0,0:0:0:0:
192,96,148,1,0,0:0:0:0:
136,272,150,1,0,0:0:0:0:
208,248,152,1,0,0:0:0:0:
56,208,153,1,0,0:0:0:0:
248,184,155,1,0,0:0:0:0:
256,136,156,1,0,0:0:0:0:
32,168,157,1,0,0:0:0:0:
224,88,158,1,0,0:0:0:0:
48,136,159,1,0,0:0:0:0:
24,200,162,1,0,0:0:0:0:
208,64,163,1,0,0:0:0:0:
256,96,166,1,0,0:0:0:0:
280,176,167,1,0,0:0:0:0:
248,240,169,1,0,0:0:0:0:
288,216,170,1,0,0:0:0:0:
16,144,172,1,0,0:0:0:0:
176,288,173,1,0,0:0:0:0:
224,288,174,1,0,0:0:0:0:
232,48,175,1,0,0:0:0:0:
320,184,177,1,0,0:0:0:0:
264,56,178,1,0,0:0:0:0:
264,280,179,1,0,0:0:0:0:
0,176,181,1,0,0:0:0:0:
200,24,183,1,0,0:0:0:0:
408,120,184,5,0,0:0:0:0:
248,336,185,1,0,0:0:0:0:
24,208,186,1,0,0:0:0:0:
160,8,187,1,0,0:0:0:0:
424,120,189,1,0,0:0:0:0:
256,344,190,1,0,0:0:0:0:
16,208,191,1,0,0:0:0:0:
144,8,192,1,0,0:0:0:0:
448,120,194,1,0,0:0:0:0:
272,360,195,1,0,0:0:0:0:
0,208,196,1,0,0:0:0:0:
176,8,197,1,0,0:0:0:0:
464,120,198,1,0,0:0:0:0:
280,368,200,1,0,0:0:0:0:
8,208,201,1,0,0:0:0:0:
128,8,202,1,0,0:0:0:0:
464,360,203,1,0,0:0:0:0:
464,8,205,1,0,0:0:0:0:
16,8,206,1,0,0:0:0:0:
16,360,207,1,0,0:0:0:0:
440,368,208,1,0,0:0:0:0:
440,16,209,1,0,0:0:0:0:
24,16,211,1,0,0:0:0:0:
24,344,212,1,0,0:0:0:0:
432,344,213,1,0,0:0:0:0:
424,16,214,1,0,0:0:0:0:
200,8,216,1,0,0:0:0:0:
24,224,217,1,0,0:0:0:0:
64,320,219,1,0,0:0:0:0:
384,40,220,1,0,0:0:0:0:
88,48,222,1,0,0:0:0:0:
384,296,223,1,0,0:0:0:0:
320,88,224,1,0,0:0:0:0:
328,240,225,1,0,0:0:0:0:
160,248,227,1,0,0:0:0:0:
128,128,228,1,0,0:0:0:0:
232,80,229,1,0,0:0:0:0:
240,168,230,1,0,0:0:0:0:
360,160,231,1,0,0:0:0:0:
264,272,233,1,0,0:0:0:0:
104,184,234,1,0,0:0:0:0:
184,144,235,1,0,0:0:0:0:
320,0,236,1,0,0:0:0:0:
272,312,238,1,0,0:0:0:0:
184,368,239,1,0,0:0:0:0:
368,112,240,1,0,0:0:0:0:
32,120,241,1,0,0:0:0:0:
464,296,242,1,0,0:0:0:0:
24,264,244,1,0,0:0:0:0:
288,24,245,1,0,0:0:0:0:
320,352,246,1,0,0:0:0:0:
208,216,247,1,0,0:0:0:0:
456,80,249,1,0,0:0:0:0:
176,80,250,1,0,0:0:0:0:
8,112,251,1,0,0:0:0:0:
384,344,252,1,0,0:0:0:0:
304,128,253,1,0,0:0:0:0:
224,0,255,1,0,0:0:0:0:
144,64,256,1,0,0:0:0:0:
64,272,257,1,0,0:0:0:0:
56,168,258,1,0,0:0:0:0:
408,224,260,1,0,0:0:0:0:
184,304,261,1,0,0:0:0:0:
416,64,262,1,0,0:0:0:0:
328,288,263,1,0,0:0:0:0:
360,208,264,5,0,0:0:0:0:
112,96,266,1,0,0:0:0:0:
48,320,267,1,0,0:0:0:0:
344,136,268,1,0,0:0:0:0:
112,40,269,1,0,0:0:0:0:
352,368,270,1,0,0:0:0:0:
232,320,272,1,0,0:0:0:0:
264,40,273,1,0,0:0:0:0:
144,176,274,1,0,0:0:0:0:
136,360,275,1,0,0:0:0:0:
448,168,277,1,0,0:0:0:0:
240,136,278,1,0,0:0:0:0:
48,112,279,1,0,0:0:0:0:
272,56,280,1,0,0:0:0:0:
64,280,281,1,0,0:0:0:0:
392,80,283,1,0,0:0:0:0:
40,96,284,1,0,0:0:0:0:
256,304,285,1,0,0:0:0:0:
168,368,286,1,0,0:0:0:0:
384,216,288,1,0,0:0:0:0:
320,72,289,1,0,0:0:0:0:
120,32,290,1,0,0:0:0:0:
280,296,291,1,0,0:0:0:0:
312,256,292,1,0,0:0:0:0:
296,112,294,1,0,0:0:0:0:
112,248,295,1,0,0:0:0:0:
304,104,296,1,0,0:0:0:0:
72,80,297,1,0,0:0:0:0:
440,344,299,1,0,0:0:0:0:
48,352,300,1,0,0:0:0:0:
360,16,301,1,0,0:0:0:0:
48,16,302,1,0,0:0:0:0:
104,296,303,1,0,0:0:0:0:
416,128,305,1,0,0:0:0:0:
200,328,306,1,0,0:0:0:0:
24,96,307,1,0,0:0:0:0:
288,312,308,1,0,0:0:0:0:
320,56,310,1,0,0:0:0:0:
176,48,311,1,0,0:0:0:0:
152,336,312,1,0,0:0:0:0:
24,176,313,1,0,0:0:0:0:
408,176,314,1,0,0:0:0:0:
368,256,316,1,0,0:0:0:0:
304,144,317,1,0,0:0:0:0:
288,248,318,1,0,0:0:0:0:
320,200,319,1,0,0:0:0:0:
192,280,321,1,0,0:0:0:0:
360,16,322,1,0,0:0:0:0:
264,216,323,1,0,0:0:0:0:
264,80,324,1,0,0:0:0:0:
104,288,325,1,0,0:0:0:0:
24,40,327,1,0,0:0:0:0:
456,328,328,1,0,0:0:0:0:
64,344,329,1,0,0:0:0:0:
320,104,330,1,0,0:0:0:0:
248,32,332,1,0,0:0:0:0:
472,192,333,1,0,0:0:0:0:
216,352,334,1,0,0:0:0:0:
48,64,335,1,0,0:0:0:0:
392,32,336,1,0,0:0:0:0:
376,256,338,1,0,0:0:0:0:
328,304,339,1,0,0:0:0:0:
152,336,340,1,0,0:0:0:0:
16,176,341,1,0,0:0:0:0:
352,48,343,1,0,0:0:0:0:
280,16,344,1,0,0:0:0:0:
416,184,345,1,0,0:0:0:0:
224,256,346,1,0,0:0:0:0:
120,144,347,1,0,0:0:0:0:
216,48,349,1,0,0:0:0:0:
480,32,350,1,0,0:0:0:0:
392,88,351,1,0,0:0:0:0:
384,192,352,1,0,0:0:0:0:
384,296,354,1,0,0:0:0:0:
128,48,355,1,0,0:0:0:0:
72,232,356,1,0,0:0:0:0:
32,88,357,1,0,0:0:0:0:
288,88,358,1,0,0:0:0:0:
440,64,360,1,0,0:0:0:0:
432,184,361,1,0,0:0:0:0:
224,248,362,1,0,0:0:0:0:
48,264,363,1,0,0:0:0:0:
40,96,364,1,0,0:0:0:0:
176,40,366,1,0,0:0:0:0:
200,160,367,1,0,0:0:0:0:
144,272,368,1,0,0:0:0:0:
440,312,369,1,0,0:0:0:0:
312,128,371,1,0,0:0:0:0:
232,32,372,1,0,0:0:0:0:
144,208,373,1,0,0:0:0:0:
368,184,374,1,0,0:0:0:0:
264,160,375,1,0,0:0:0:0:
304,232,377,1,0,0:0:0:0:
304,296,378,1,0,0:0:0:0:
48,320,379,1,0,0:0:0:0:
120,168,380,1,0,0:0:0:0:
40,80,382,1,0,0:0:0:0:
192,72,383,1,0,0:0:0:0:
368,64,384,1,0,0:0:0:0:
432,32,385,1,0,0:0:0:0:
416,152,386,1,0,0:0:0:0:
336,272,388,1,0,0:0:0:0:
304,200,389,1,0,0:0:0:0:
376,88,390,1,0,0:0:0:0:
312,48,391,1,0,0:0:0:0:
304,160,393,5,0,0:0:0:0:
144,56,394,1,0,0:0:0:0:
104,160,395,1,0,0:0:0:0:
128,240,396,1,0,0:0:0:0:
320,96,397,1,0,0:0:0:0:
184,40,399,1,0,0:0:0:0:
16,32,400,1,0,0:0:0:0:
208,272,401,1,0,0:0:0:0:
432,56,402,1,0,0:0:0:0:
424,192,404,1,0,0:0:0:0:
384,240,405,1,0,0:0:0:0:
312,80,406,1,0,0:0:0:0:
72,256,407,1,0,0:0:0:0:
64,304,408,1,0,0:0:0:0:
464,368,410,1,0,0:0:0:0:
168,328,411,1,0,0:0:0:0:
256,256,412,1,0,0:0:0:0:
392,24,415,1,0,0:0:0:0:
336,104,416,1,0,0:0:0:0:
112,280,417,1,0,0:0:0:0:
56,352,418,1,0,0:0:0:0:
144,136,419,1,0,0:0:0:0:
256,0,421,1,0,0:0:0:0:
336,152,422,1,0,0:0:0:0:
368,144,423,1,0,0:0:0:0:
416,104,424,1,0,0:0:0:0:
464,160,426,1,0,0:0:0:0:
72,312,427,1,0,0:0:0:0:
192,176,428,1,0,0:0:0:0:
192,128,429,1,0,0:0:0:0:
336,384,430,1,0,0:0:0:0:
48,288,432,1,0,0:0:0:0:
392,144,433,1,0,0:0:0:0:
184,56,434,1,0,0:0:0:0:
360,32,435,1,0,0:0:0:0:
64,168,437,1,0,0:0:0:0:
368,296,438,1,0,0:0:0:0:
96,80,439,1,0,0:0:0:0:
368,72,440,1,0,0:0:0:0:
152,200,441,1,0,0:0:0:0:
288,280,443,1,0,0:0:0:0:
200,48,444,1,0,0:0:0:0:
192,208,445,1,0,0:0:0:0:
288,256,446,1,0,0:0:0:0:
456,336,447,1,0,0:0:0:0:
424,48,449,1,0,0:0:0:0:
336,256,450,1,0,0:0:0:0:
320,320,451,1,0,0:0:0:0:
208,328,452,1,0,0:0:0:0:
368,160,454,1,0,0:0:0:0:
160,128,455,1,0,0:0:0:0:
296,64,456,1,0,0:0:0:0:
272,128,458,1,0,0:0:0:0:
184,200,460,1,0,0:0:0:0:
480,304,461,1,0,0:0:0:0:
264,176,462,1,0,0:0:0:0:
360,128,463,1,0,0:0:0:0:
256,40,465,1,0,0:0:0:0:
160,88,466,1,0,0:0:0:0:
176,192,467,1,0,0:0:0:0:
24,248,469,1,0,0:0:0:0:
24,120,471,1,0,0:0:0:0:
24,72,472,1,0,0:0:0:0:
152,56,473,1,0,0:0:0:0:
424,192,474,1,0,0:0:0:0:
368,264,476,1,0,0:0:0:0:
288,320,477,1,0,0:0:0:0:
368,200,478,1,0,0:0:0:0:
40,112,479,1,0,0:0:0:0:
80,72,480,1,0,0:0:0:0:
24,16,482,1,0,0:0:0:0:
304,88,483,1,0,0:0:0:0:
296,176,484,1,0,0:0:0:0:
336,224,485,1,0,0:0:0:0:
400,272,487,1,0,0:0:0:0:
144,272,488,1,0,0:0:0:0:
96,8,489,5,0,0:0:0:0:
232,152,490,1,0,0:0:0:0:
184,248,491,1,0,0:0:0:0:
72,360,493,1,0,0:0:0:0:
376,360,494,1,0,0:0:0:0:
376,184,495,1,0,0:0:0:0:
440,288,496,1,0,0:0:0:0:
320,296,498,1,0,0:0:0:0:
88,224,499,1,0,0:0:0:0:
48,64,500,1,0,0:0:0:0:
56,8,501,1,0,0:0:0:0:
448,56,502,1,0,0:0:0:0:
0,336,504,1,0,0:0:0:0:
272,336,505,1,0,0:0:0:0:
192,176,506,1,0,0:0:0:0:
328,80,507,1,0,0:0:0:0:
88,48,509,1,0,0:0:0:0:
368,56,510,1,0,0:0:0:0:
120,24,511,1,0,0:0:0:0:
328,24,512,1,0,0:0:0:0:
424,320,513,1,0,0:0:0:0:
304,200,516,1,0,0:0:0:0:
24,312,517,1,0,0:0:0:0:
248,312,518,1,0,0:0:0:0:
72,56,520,1,0,0:0:0:0:
272,48,521,1,0,0:0:0:0:
88,280,522,1,0,0:0:0:0:
328,304,523,1,0,0:0:0:0:
176,336,524,1,0,0:0:0:0:
424,320,526,1,0,0:0:0:0:
112,296,527,1,0,0:0:0:0:
8,272,528,1,0,0:0:0:0:
104,288,529,1,0,0:0:0:0:
416,320,531,1,0,0:0:0:0:
448,240,532,1,0,0:0:0:0:
216,80,533,1,0,0:0:0:0:
144,64,534,1,0,0:0:0:0:
384,48,535,1,0,0:0:0:0:
128,16,537,1,0,0:0:0:0:
104,144,538,1,0,0:0:0:0:
104,296,539,1,0,0:0:0:0:
112,328,540,1,0,0:0:0:0:
352,344,541,1,0,0:0:0:0:
432,280,543,1,0,0:0:0:0:
168,304,544,1,0,0:0:0:0:
104,40,545,1,0,0:0:0:0:
64,16,546,1,0,0:0:0:0:
360,88,548,1,0,0:0:0:0:
208,144,549,1,0,0:0:0:0:
192,248,550,1,0,0:0:0:0:
136,256,551,1,0,0:0:0:0:
40,96,552,1,0,0:0:0:0:
48,16,554,1,0,0:0:0:0:
296,72,555,1,0,0:0:0:0:
352,168,556,1,0,0:0:0:0:
96,232,557,1,0,0:0:0:0:
136,288,559,1,0,0:0:0:0:
360,328,560,1,0,0:0:0:0:
400,256,561,1,0,0:0:0:0:
48,96,562,1,0,0:0:0:0:
64,32,563,1,0,0:0:0:0:
160,24,565,1,0,0:0:0:0:
192,168,567,1,0,0:0:0:0:
16,176,568,1,0,0:0:0:0:
176,304,570,1,0,0:0:0:0:
96,144,571,1,0,0:0:0:0:
184,128,572,1,0,0:0:0:0:
104,128,573,1,0,0:0:0:0:
160,80,574,1,0,0:0:0:0:
64,88,576,1,0,0:0:0:0:
80,128,577,1,0,0:0:0:0:
96,224,578,1,0,0:0:0:0:
304,240,579,1,0,0:0:0:0:
352,88,581,1,0,0:0:0:0:
416,160,582,1,0,0:0:0:0:
368,248,583,1,0,0:0:0:0:
288,288,584,1,0,0:0:0:0:
224,312,585,1,0,0:0:0:0:
112,280,587,1,0,0:0:0:0:
120,192,588,1,0,0:0:0:0:
64,168,589,1,0,0:0:0:0:
104,104,590,1,0,0:0:0:0:
312,104,592,1,0,0:0:0:0:
400,232,593,1,0,0:0:0:0:
440,272,594,1,0,0:0:0:0:
440,216,595,1,0,0:0:0:0:
216,216,596,1,0,0:0:0:0:
80,280,598,1,0,0:0:0:0:
112,88,599,1,0,0:0:0:0:
328,96,600,1,0,0:0:0:0:
136,120,601,1,0,0:0:0:0:
64,56,603,5,0,0:0:0:0:
440,352,604,1,0,0:0:0:0:
440,352,605,1,0,0:0:0:0:
464,304,606,1,0,0:0:0:0:
464,304,607,1,0,0:0:0:0:
40,336,609,1,0,0:0:0:0:
40,336,610,1,0,0:0:0:0:
40,264,611,1,0,0:0:0:0:
408,280,612,1,0,0:0:0:0:
408,280,613,1,0,0:0:0:0:
40,264,614,1,0,0:0:0:0:
376,360,615,1,0,0:0:0:0:
8,80,616,1,0,0:0:0:0:
504,216,617,1,0,0:0:0:0:
0,344,618,1,0,0:0:0:0:
0,344,619,1,0,0:0:0:0:
504,216,620,1,0,0:0:0:0:
0,344,621,1,0,0:0:0:0:
488,368,622,1,0,0:0:0:0:
488,368,623,1,0,0:0:0:0:
400,320,624,1,0,0:0:0:0:
400,320,625,1,0,0:0:0:0:
16,296,626,1,0,0:0:0:0:
488,64,627,1,0,0:0:0:0:
456,256,628,1,0,0:0:0:0:
456,256,629,1,0,0:0:0:0:
488,64,630,1,0,0:0:0:0:
56,88,631,1,0,0:0:0:0:
480,272,632,1,0,0:0:0:0:
56,304,633,1,0,0:0:0:0:
104,64,634,1,0,0:0:0:0:
448,64,635,1,0,0:0:0:0:
448,64,636,1,0,0:0:0:0:
104,64,637,1,0,0:0:0:0:
360,320,638,1,0,0:0:0:0:
80,272,639,1,0,0:0:0:0:
416,48,640,1,0,0:0:0:0:
416,48,641,1,0,0:0:0:0:
88,88,642,1,0,0:0:0:0:
96,312,643,1,0,0:0:0:0:
96,312,644,1,0,0:0:0:0:
432,296,645,1,0,0:0:0:0:
432,296,646,1,0,0:0:0:0:
136,88,648,1,0,0:0:0:0:
80,336,649,1,0,0:0:0:0:
384,288,650,1,0,0:0:0:0:
384,288,651,1,0,0:0:0:0:
80,336,652,1,0,0:0:0:0:
32,56,653,1,0,0:0:0:0:
56,344,654,1,0,0:0:0:0:
464,336,655,1,0,0:0:0:0:
424,64,656,1,0,0:0:0:0:
424,64,657,1,0,0:0:0:0:
464,336,658,1,0,0:0:0:0:
32,360,659,1,0,0:0:0:0:
408,344,660,1,0,0:0:0:0:
408,344,661,1,0,0:0:0:0:
64,368,662,1,0,0:0:0:0:
64,368,663,1,0,0:0:0:0:
440,328,664,1,0,0:0:0:0:
384,48,665,1,0,0:0:0:0:
0,48,666,1,0,0:0:0:0:
0,48,667,1,0,0:0:0:0:
104,360,668,1,0,0:0:0:0:
104,360,669,1,0,0:0:0:0:
416,376,670,1,0,0:0:0:0:
416,376,671,1,0,0:0:0:0:
496,320,672,1,0,0:0:0:0:
0,264,673,1,0,0:0:0:0:
0,264,674,1,0,0:0:0:0:
496,320,675,1,0,0:0:0:0:
0,264,676,1,0,0:0:0:0:
16,320,677,1,0,0:0:0:0:
456,376,678,1,0,0:0:0:0:
128,304,679,1,0,0:0:0:0:
128,304,680,1,0,0:0:0:0:
128,56,681,1,0,0:0:0:0:
128,56,682,1,0,0:0:0:0:
136,344,683,1,0,0:0:0:0:
160,48,684,5,0,0:0:0:0:
160,48,685,5,0,0:0:0:0:
344,336,686,1,0,0:0:0:0:
24,96,687,1,0,0:0:0:0:
112,320,688,1,0,0:0:0:0:
440,48,689,1,0,0:0:0:0:
432,264,690,1,0,0:0:0:0:
432,264,691,1,0,0:0:0:0:
96,64,692,1,0,0:0:0:0:
368,336,693,1,0,0:0:0:0:
368,336,694,1,0,0:0:0:0:
136,296,695,1,0,0:0:0:0:
376,64,696,1,0,0:0:0:0:
376,64,697,1,0,0:0:0:0:
136,296,698,1,0,0:0:0:0:
144,56,699,1,0,0:0:0:0:
104,272,700,1,0,0:0:0:0:
368,320,701,1,0,0:0:0:0:
368,320,702,1,0,0:0:0:0:
160,72,703,1,0,0:0:0:0:
160,72,704,1,0,0:0:0:0:
464,224,705,1,0,0:0:0:0:
48,240,706,1,0,0:0:0:0:
8,232,707,1,0,0:0:0:0:
8,232,708,1,0,0:0:0:0:
88,240,709,1,0,0:0:0:0:
40,56,710,1,0,0:0:0:0:
96,80,711,1,0,0:0:0:0:
96,80,712,1,0,0:0:0:0:
40,56,713,1,0,0:0:0:0:
96,80,714,1,0,0:0:0:0:
432,224,715,1,0,0:0:0:0:
408,248,716,1,0,0:0:0:0:
144,104,717,1,0,0:0:0:0:
104,112,718,1,0,0:0:0:0:
104,112,719,1,0,0:0:0:0:
80,128,720,1,0,0:0:0:0:
72,152,721,1,0,0:0:0:0:
72,176,722,1,0,0:0:0:0:
88,192,723,1,0,0:0:0:0:
88,192,724,1,0,0:0:0:0:
112,200,725,1,0,0:0:0:0:
136,192,726,1,0,0:0:0:0:
144,152,727,1,0,0:0:0:0:
152,176,728,1,0,0:0:0:0:
168,208,729,1,0,0:0:0:0:
168,208,730,1,0,0:0:0:0:
184,184,731,1,0,0:0:0:0:
192,136,732,1,0,0:0:0:0:
112,168,733,1,0,0:0:0:0:
168,128,734,1,0,0:0:0:0:
168,128,735,1,0,0:0:0:0:
208,216,736,1,0,0:0:0:0:
144,232,737,1,0,0:0:0:0:
144,232,738,1,0,0:0:0:0:
208,176,739,1,0,0:0:0:0:
168,160,740,1,0,0:0:0:0:
168,160,741,1,0,0:0:0:0:
232,152,742,1,0,0:0:0:0:
232,152,743,1,0,0:0:0:0:
112,136,744,1,0,0:0:0:0:
112,232,745,1,0,0:0:0:0:
112,232,746,1,0,0:0:0:0:
176,248,747,1,0,0:0:0:0:
240,208,748,1,0,0:0:0:0:
224,112,749,1,0,0:0:0:0:
224,112,750,1,0,0:0:0:0:
192,96,751,1,0,0:0:0:0:
192,96,752,1,0,0:0:0:0:
136,272,753,1,0,0:0:0:0:
136,272,754,1,0,0:0:0:0:
208,248,755,1,0,0:0:0:0:
56,208,756,1,0,0:0:0:0:
56,208,757,1,0,0:0:0:0:
248,184,758,1,0,0:0:0:0:
256,136,759,1,0,0:0:0:0:
32,168,760,1,0,0:0:0:0:
224,88,761,1,0,0:0:0:0:
48,136,762,1,0,0:0:0:0:
48,136,763,1,0,0:0:0:0:
224,88,764,1,0,0:0:0:0:
24,200,765,1,0,0:0:0:0:
208,64,766,1,0,0:0:0:0:
208,64,767,1,0,0:0:0:0:
24,200,768,1,0,0:0:0:0:
256,96,769,1,0,0:0:0:0:
280,176,770,1,0,0:0:0:0:
280,176,771,1,0,0:0:0:0:
248,240,772,1,0,0:0:0:0:
288,216,773,1,0,0:0:0:0:
288,216,774,1,0,0:0:0:0:
16,144,775,1,0,0:0:0:0:
176,288,776,1,0,0:0:0:0:
224,288,777,1,0,0:0:0:0:
232,48,778,1,0,0:0:0:0:
232,48,779,1,0,0:0:0:0:
320,184,780,1,0,0:0:0:0:
264,56,781,1,0,0:0:0:0:
264,280,782,1,0,0:0:0:0:
264,280,783,1,0,0:0:0:0:
0,176,784,1,0,0:0:0:0:
0,176,785,1,0,0:0:0:0:
320,184,786,1,0,0:0:0:0:
408,120,787,5,0,0:0:0:0:
248,336,788,1,0,0:0:0:0:
24,208,789,1,0,0:0:0:0:
24,208,790,1,0,0:0:0:0:
248,336,791,1,0,0:0:0:0:
424,120,792,1,0,0:0:0:0:
256,344,793,1,0,0:0:0:0:
16,208,794,1,0,0:0:0:0:
16,208,795,1,0,0:0:0:0:
256,344,796,1,0,0:0:0:0:
448,120,797,1,0,0:0:0:0:
272,360,798,1,0,0:0:0:0:
0,208,799,1,0,0:0:0:0:
0,208,800,1,0,0:0:0:0:
464,120,801,1,0,0:0:0:0:
464,120,802,1,0,0:0:0:0:
280,368,803,1,0,0:0:0:0:
8,208,804,1,0,0:0:0:0:
8,208,805,1,0,0:0:0:0:
464,360,806,1,0,0:0:0:0:
464,360,807,1,0,0:0:0:0:
464,360,809,1,0,0:0:0:0:
16,360,810,1,0,0:0:0:0:
440,368,811,1,0,0:0:0:0:
440,368,812,1,0,0:0:0:0:
16,360,813,1,0,0:0:0:0:
440,368,814,1,0,0:0:0:0:
24,344,815,1,0,0:0:0:0:
432,344,816,1,0,0:0:0:0:
432,344,817,1,0,0:0:0:0:
24,344,818,1,0,0:0:0:0:
432,344,819,1,0,0:0:0:0:
24,224,820,1,0,0:0:0:0:
24,224,821,1,0,0:0:0:0:
64,320,822,1,0,0:0:0:0:
64,320,823,1,0,0:0:0:0:
88,48,825,1,0,0:0:0:0:
384,296,826,1,0,0:0:0:0:
320,88,827,1,0,0:0:0:0:
328,240,828,1,0,0:0:0:0:
328,240,829,1,0,0:0:0:0:
160,248,830,1,0,0:0:0:0:
128,128,831,1,0,0:0:0:0:
232,80,832,1,0,0:0:0:0:
240,168,833,1,0,0:0:0:0:
360,160,834,1,0,0:0:0:0:
360,160,835,1,0,0:0:0:0:
264,272,836,1,0,0:0:0:0:
104,184,837,1,0,0:0:0:0:
184,144,838,1,0,0:0:0:0:
184,144,839,1,0,0:0:0:0:
104,184,840,1,0,0:0:0:0:
272,312,841,1,0,0:0:0:0:
184,368,842,1,0,0:0:0:0:
368,112,843,1,0,0:0:0:0:
32,120,844,1,0,0:0:0:0:
464,296,845,1,0,0:0:0:0:
464,296,846,1,0,0:0:0:0:
24,264,847,1,0,0:0:0:0:
24,264,848,1,0,0:0:0:0:
320,352,849,1,0,0:0:0:0:
208,216,850,1,0,0:0:0:0:
208,216,851,1,0,0:0:0:0:
456,80,852,1,0,0:0:0:0:
176,80,853,1,0,0:0:0:0:
8,112,854,1,0,0:0:0:0:
384,344,855,1,0,0:0:0:0:
304,128,856,1,0,0:0:0:0:
304,128,857,1,0,0:0:0:0:
384,344,858,1,0,0:0:0:0:
144,64,859,1,0,0:0:0:0:
64,272,860,1,0,0:0:0:0:
56,168,861,1,0,0:0:0:0:
56,168,862,1,0,0:0:0:0:
408,224,863,1,0,0:0:0:0:
184,304,864,1,0,0:0:0:0:
416,64,865,1,0,0:0:0:0:
328,288,866,1,0,0:0:0:0:
360,208,867,5,0,0:0:0:0:
360,208,868,5,0,0:0:0:0:
112,96,869,1,0,0:0:0:0:
48,320,870,1,0,0:0:0:0:
344,136,871,1,0,0:0:0:0:
344,136,872,1,0,0:0:0:0:
352,368,873,1,0,0:0:0:0:
352,368,874,1,0,0:0:0:0:
232,320,875,1,0,0:0:0:0:
232,320,876,1,0,0:0:0:0:
144,176,877,1,0,0:0:0:0:
136,360,878,1,0,0:0:0:0:
136,360,879,1,0,0:0:0:0:
448,168,880,1,0,0:0:0:0:
240,136,881,1,0,0:0:0:0:
48,112,882,1,0,0:0:0:0:
272,56,883,1,0,0:0:0:0:
64,280,884,1,0,0:0:0:0:
64,280,885,1,0,0:0:0:0:
392,80,886,1,0,0:0:0:0:
40,96,887,1,0,0:0:0:0:
256,304,888,1,0,0:0:0:0:
168,368,889,1,0,0:0:0:0:
168,368,890,1,0,0:0:0:0:
384,216,891,1,0,0:0:0:0:
320,72,892,1,0,0:0:0:0:
320,72,893,1,0,0:0:0:0:
280,296,894,1,0,0:0:0:0:
312,256,895,1,0,0:0:0:0:
312,256,896,1,0,0:0:0:0:
296,112,897,1,0,0:0:0:0:
112,248,898,1,0,0:0:0:0:
304,104,899,1,0,0:0:0:0:
72,80,900,1,0,0:0:0:0:
72,80,901,1,0,0:0:0:0:
440,344,902,1,0,0:0:0:0:
48,352,903,1,0,0:0:0:0:
48,352,904,1,0,0:0:0:0:
440,344,905,1,0,0:0:0:0:
104,296,906,1,0,0:0:0:0:
104,296,907,1,0,0:0:0:0:
416,128,908,1,0,0:0:0:0:
200,328,909,1,0,0:0:0:0:
24,96,910,1,0,0:0:0:0:
288,312,911,1,0,0:0:0:0:
288,312,912,1,0,0:0:0:0:
320,56,913,1,0,0:0:0:0:
176,48,914,1,0,0:0:0:0:
152,336,915,1,0,0:0:0:0:
24,176,916,1,0,0:0:0:0:
408,176,917,1,0,0:0:0:0:
408,176,918,1,0,0:0:0:0:
368,256,919,1,0,0:0:0:0:
304,144,920,1,0,0:0:0:0:
288,248,921,1,0,0:0:0:0:
320,200,922,1,0,0:0:0:0:
320,200,923,1,0,0:0:0:0:
192,280,924,1,0,0:0:0:0:
192,280,925,1,0,0:0:0:0:
264,216,926,1,0,0:0:0:0:
264,80,927,1,0,0:0:0:0:
104,288,928,1,0,0:0:0:0:
104,288,929,1,0,0:0:0:0:
264,80,930,1,0,0:0:0:0:
456,328,931,1,0,0:0:0:0:
64,344,932,1,0,0:0:0:0:
320,104,933,1,0,0:0:0:0:
320,104,934,1,0,0:0:0:0:
64,344,935,1,0,0:0:0:0:
472,192,936,1,0,0:0:0:0:
216,352,937,1,0,0:0:0:0:
48,64,938,1,0,0:0:0:0:
48,64,939,1,0,0:0:0:0:
216,352,940,1,0,0:0:0:0:
376,256,941,1,0,0:0:0:0:
328,304,942,1,0,0:0:0:0:
152,336,943,1,0,0:0:0:0:
16,176,944,1,0,0:0:0:0:
16,176,945,1,0,0:0:0:0:
352,48,946,1,0,0:0:0:0:
352,48,947,1,0,0:0:0:0:
416,184,948,1,0,0:0:0:0:
224,256,949,1,0,0:0:0:0:
120,144,950,1,0,0:0:0:0:
120,144,951,1,0,0:0:0:0:
64,56,952,5,0,0:0:0:0:
440,352,953,1,0,0:0:0:0:
392,88,954,1,0,0:0:0:0:
464,304,955,1,0,0:0:0:0:
384,192,956,1,0,0:0:0:0:
384,296,957,1,0,0:0:0:0:
40,336,958,1,0,0:0:0:0:
72,232,959,1,0,0:0:0:0:
40,264,960,1,0,0:0:0:0:
408,280,961,1,0,0:0:0:0:
288,88,962,1,0,0:0:0:0:
440,64,963,1,0,0:0:0:0:
376,360,964,1,0,0:0:0:0:
8,80,965,1,0,0:0:0:0:
504,216,966,1,0,0:0:0:0:
0,344,967,1,0,0:0:0:0:
40,96,968,1,0,0:0:0:0:
48,264,969,1,0,0:0:0:0:
200,160,970,1,0,0:0:0:0:
488,368,971,1,0,0:0:0:0:
440,312,972,1,0,0:0:0:0:
400,320,973,1,0,0:0:0:0:
312,128,974,1,0,0:0:0:0:
16,296,975,1,0,0:0:0:0:
488,64,976,1,0,0:0:0:0:
456,256,977,1,0,0:0:0:0:
264,160,978,1,0,0:0:0:0:
264,160,979,1,0,0:0:0:0:
56,88,980,1,0,0:0:0:0:
480,272,981,1,0,0:0:0:0:
56,304,982,1,0,0:0:0:0:
104,64,983,1,0,0:0:0:0:
448,64,984,1,0,0:0:0:0:
40,80,985,1,0,0:0:0:0:
192,72,986,1,0,0:0:0:0:
360,320,987,1,0,0:0:0:0:
80,272,988,1,0,0:0:0:0:
416,48,989,1,0,0:0:0:0:
416,152,990,1,0,0:0:0:0:
88,88,991,1,0,0:0:0:0:
96,312,992,1,0,0:0:0:0:
376,88,993,1,0,0:0:0:0:
432,296,994,1,0,0:0:0:0:
312,48,995,1,0,0:0:0:0:
304,160,996,5,0,0:0:0:0:
136,88,997,1,0,0:0:0:0:
80,336,998,1,0,0:0:0:0:
384,288,999,1,0,0:0:0:0:
320,96,1000,1,0,0:0:0:0:
320,96,1001,1,0,0:0:0:0:
32,56,1002,1,0,0:0:0:0:
56,344,1003,1,0,0:0:0:0:
464,336,1004,1,0,0:0:0:0:
424,64,1005,1,0,0:0:0:0:
432,56,1006,1,0,0:0:0:0:
424,192,1007,1,0,0:0:0:0:
32,360,1008,1,0,0:0:0:0:
408,344,1009,1,0,0:0:0:0:
72,256,1010,1,0,0:0:0:0:
64,368,1011,1,0,0:0:0:0:
64,304,1012,1,0,0:0:0:0:
440,328,1013,1,0,0:0:0:0:
384,48,1014,1,0,0:0:0:0:
0,48,1015,1,0,0:0:0:0:
256,256,1016,1,0,0:0:0:0:
104,360,1017,1,0,0:0:0:0:
256,256,1018,1,0,0:0:0:0:
416,376,1019,1,0,0:0:0:0:
112,280,1020,1,0,0:0:0:0:
496,320,1021,1,0,0:0:0:0:
0,264,1022,1,0,0:0:0:0:
144,136,1023,1,0,0:0:0:0:
56,352,1024,1,0,0:0:0:0:
336,152,1025,1,0,0:0:0:0:
16,320,1026,1,0,0:0:0:0:
456,376,1027,1,0,0:0:0:0:
128,304,1028,1,0,0:0:0:0:
464,160,1029,1,0,0:0:0:0:
128,56,1030,1,0,0:0:0:0:
192,176,1031,1,0,0:0:0:0:
136,344,1032,1,0,0:0:0:0:
160,48,1033,5,0,0:0:0:0:
336,384,1034,1,0,0:0:0:0:
344,336,1035,1,0,0:0:0:0:
24,96,1036,1,0,0:0:0:0:
112,320,1037,1,0,0:0:0:0:
440,48,1038,1,0,0:0:0:0:
432,264,1039,1,0,0:0:0:0:
64,168,1040,1,0,0:0:0:0:
96,64,1041,1,0,0:0:0:0:
368,336,1042,1,0,0:0:0:0:
368,72,1043,1,0,0:0:0:0:
136,296,1044,1,0,0:0:0:0:
376,64,1045,1,0,0:0:0:0:
288,280,1046,1,0,0:0:0:0:
200,48,1047,1,0,0:0:0:0:
144,56,1048,1,0,0:0:0:0:
104,272,1049,1,0,0:0:0:0:
368,320,1050,1,0,0:0:0:0:
456,336,1051,1,0,0:0:0:0:
160,72,1052,1,0,0:0:0:0:
336,256,1053,1,0,0:0:0:0:
464,224,1054,1,0,0:0:0:0:
48,240,1055,1,0,0:0:0:0:
8,232,1056,1,0,0:0:0:0:
368,160,1057,1,0,0:0:0:0:
88,240,1058,1,0,0:0:0:0:
40,56,1059,1,0,0:0:0:0:
96,80,1060,1,0,0:0:0:0:
272,128,1061,1,0,0:0:0:0:
272,128,1062,1,0,0:0:0:0:
184,200,1063,1,0,0:0:0:0:
432,224,1064,1,0,0:0:0:0:
408,248,1065,1,0,0:0:0:0:
144,104,1066,1,0,0:0:0:0:
104,112,1067,1,0,0:0:0:0:
264,176,1068,1,0,0:0:0:0:
80,128,1069,1,0,0:0:0:0:
72,152,1070,1,0,0:0:0:0:
72,176,1071,1,0,0:0:0:0:
88,192,1072,1,0,0:0:0:0:
24,248,1073,1,0,0:0:0:0:
112,200,1074,1,0,0:0:0:0:
136,192,1075,1,0,0:0:0:0:
144,152,1076,1,0,0:0:0:0:
152,176,1077,1,0,0:0:0:0:
168,208,1078,1,0,0:0:0:0:
368,264,1079,1,0,0:0:0:0:
184,184,1080,1,0,0:0:0:0:
192,136,1081,1,0,0:0:0:0:
112,168,1082,1,0,0:0:0:0:
168,128,1083,1,0,0:0:0:0:
80,72,1084,1,0,0:0:0:0:
208,216,1085,1,0,0:0:0:0:
144,232,1086,1,0,0:0:0:0:
296,176,1087,1,0,0:0:0:0:
208,176,1088,1,0,0:0:0:0:
168,160,1089,1,0,0:0:0:0:
400,272,1090,1,0,0:0:0:0:
232,152,1091,1,0,0:0:0:0:
144,272,1092,1,0,0:0:0:0:
112,136,1093,1,0,0:0:0:0:
112,232,1094,1,0,0:0:0:0:
184,248,1095,1,0,0:0:0:0:
176,248,1096,1,0,0:0:0:0:
240,208,1097,1,0,0:0:0:0:
224,112,1098,1,0,0:0:0:0:
440,288,1099,1,0,0:0:0:0:
192,96,1100,1,0,0:0:0:0:
320,296,1101,1,0,0:0:0:0:
136,272,1102,1,0,0:0:0:0:
48,64,1103,1,0,0:0:0:0:
208,248,1104,1,0,0:0:0:0:
56,208,1105,1,0,0:0:0:0:
448,56,1106,1,0,0:0:0:0:
248,184,1107,1,0,0:0:0:0:
256,136,1108,1,0,0:0:0:0:
32,168,1109,1,0,0:0:0:0:
224,88,1110,1,0,0:0:0:0:
48,136,1111,1,0,0:0:0:0:
88,48,1112,1,0,0:0:0:0:
368,56,1113,1,0,0:0:0:0:
24,200,1114,1,0,0:0:0:0:
208,64,1115,1,0,0:0:0:0:
424,320,1116,1,0,0:0:0:0:
424,320,1117,1,0,0:0:0:0:
256,96,1118,1,0,0:0:0:0:
280,176,1119,1,0,0:0:0:0:
24,312,1120,1,0,0:0:0:0:
248,240,1121,1,0,0:0:0:0:
288,216,1122,1,0,0:0:0:0:
72,56,1123,1,0,0:0:0:0:
16,144,1124,1,0,0:0:0:0:
176,288,1125,1,0,0:0:0:0:
224,288,1126,1,0,0:0:0:0:
232,48,1127,1,0,0:0:0:0:
176,336,1128,1,0,0:0:0:0:
320,184,1129,1,0,0:0:0:0:
264,56,1130,1,0,0:0:0:0:
264,280,1131,1,0,0:0:0:0:
104,288,1132,1,0,0:0:0:0:
0,176,1133,1,0,0:0:0:0:
416,320,1134,1,0,0:0:0:0:
448,240,1135,1,0,0:0:0:0:
408,120,1136,5,0,0:0:0:0:
248,336,1137,1,0,0:0:0:0:
24,208,1138,1,0,0:0:0:0:
384,48,1139,1,0,0:0:0:0:
144,64,1140,1,0,0:0:0:0:
424,120,1141,1,0,0:0:0:0:
256,344,1142,1,0,0:0:0:0:
16,208,1143,1,0,0:0:0:0:
352,344,1144,1,0,0:0:0:0:
352,344,1145,1,0,0:0:0:0:
448,120,1146,1,0,0:0:0:0:
272,360,1147,1,0,0:0:0:0:
0,208,1148,1,0,0:0:0:0:
432,280,1149,1,0,0:0:0:0:
464,120,1150,1,0,0:0:0:0:
360,88,1151,1,0,0:0:0:0:
280,368,1152,1,0,0:0:0:0:
8,208,1153,1,0,0:0:0:0:
136,256,1154,1,0,0:0:0:0:
464,360,1155,1,0,0:0:0:0:
40,96,1156,1,0,0:0:0:0:
136,256,1157,1,0,0:0:0:0:
296,72,1158,1,0,0:0:0:0:
64,56,1159,5,0,0:0:0:0:
440,368,1160,1,0,0:0:0:0:
96,232,1161,1,0,0:0:0:0:
464,304,1162,1,0,0:0:0:0:
360,328,1163,1,0,0:0:0:0:
24,344,1164,1,0,0:0:0:0:
40,336,1165,1,0,0:0:0:0:
464,32,1166,1,0,0:0:0:0:
40,264,1167,1,0,0:0:0:0:
408,280,1168,1,0,0:0:0:0:
120,32,1169,1,0,0:0:0:0:
192,168,1170,1,0,0:0:0:0:
64,320,1171,1,0,0:0:0:0:
16,176,1172,1,0,0:0:0:0:
176,304,1173,1,0,0:0:0:0:
88,48,1174,1,0,0:0:0:0:
384,296,1175,1,0,0:0:0:0:
496,16,1176,1,0,0:0:0:0:
328,240,1177,1,0,0:0:0:0:
160,80,1178,1,0,0:0:0:0:
64,16,1179,1,0,0:0:0:0:
400,320,1180,1,0,0:0:0:0:
232,80,1181,1,0,0:0:0:0:
240,168,1182,1,0,0:0:0:0:
488,64,1183,1,0,0:0:0:0:
456,256,1184,1,0,0:0:0:0:
440,8,1185,1,0,0:0:0:0:
104,184,1186,1,0,0:0:0:0:
56,88,1187,1,0,0:0:0:0:
480,272,1188,1,0,0:0:0:0:
56,304,1189,1,0,0:0:0:0:
104,64,1190,1,0,0:0:0:0:
448,64,1191,1,0,0:0:0:0:
368,112,1192,1,0,0:0:0:0:
104,8,1193,1,0,0:0:0:0:
360,320,1194,1,0,0:0:0:0:
80,272,1195,1,0,0:0:0:0:
416,48,1196,1,0,0:0:0:0:
440,272,1197,1,0,0:0:0:0:
88,88,1198,1,0,0:0:0:0:
96,312,1199,1,0,0:0:0:0:
216,216,1200,1,0,0:0:0:0:
432,296,1201,1,0,0:0:0:0:
384,16,1202,1,0,0:0:0:0:
8,112,1203,1,0,0:0:0:0:
136,88,1204,1,0,0:0:0:0:
80,336,1205,1,0,0:0:0:0:
384,288,1206,1,0,0:0:0:0:
416,24,1207,1,0,0:0:0:0:
144,64,1208,1,0,0:0:0:0:
64,272,1209,1,0,0:0:0:0:
56,344,1210,1,0,0:0:0:0:
464,336,1211,1,0,0:0:0:0:
424,64,1212,1,0,0:0:0:0:
80,32,1213,1,0,0:0:0:0:
416,64,1214,1,0,0:0:0:0:
328,288,1215,1,0,0:0:0:0:
408,344,1216,1,0,0:0:0:0:
48,8,1217,1,0,0:0:0:0:
112,96,1218,1,0,0:0:0:0:
48,320,1219,1,0,0:0:0:0:
440,328,1220,1,0,0:0:0:0:
384,48,1221,1,0,0:0:0:0:
352,368,1222,1,0,0:0:0:0:
480,8,1223,1,0,0:0:0:0:
232,320,1224,1,0,0:0:0:0:
144,176,1226,1,0,0:0:0:0:
152,8,1227,1,0,0:0:0:0:
496,320,1228,1,0,0:0:0:0:
448,168,1229,1,0,0:0:0:0:
240,136,1230,1,0,0:0:0:0:
432,40,1231,1,0,0:0:0:0:
56,40,1232,1,0,0:0:0:0:
64,280,1233,1,0,0:0:0:0:
128,304,1235,1,0,0:0:0:0:
40,96,1236,1,0,0:0:0:0:
128,56,1237,1,0,0:0:0:0:
168,368,1238,1,0,0:0:0:0:
136,344,1239,1,0,0:0:0:0:
160,48,1240,5,0,0:0:0:0:
320,72,1241,1,0,0:0:0:0:
344,336,1242,1,0,0:0:0:0:
280,296,1243,1,0,0:0:0:0:
112,320,1244,1,0,0:0:0:0:
440,48,1245,1,0,0:0:0:0:
432,264,1246,1,0,0:0:0:0:
112,248,1247,1,0,0:0:0:0:
96,64,1248,1,0,0:0:0:0:
368,336,1249,1,0,0:0:0:0:
136,296,1251,1,0,0:0:0:0:
376,64,1252,1,0,0:0:0:0:
144,56,1255,1,0,0:0:0:0:
104,272,1256,1,0,0:0:0:0:
368,320,1257,1,0,0:0:0:0:
200,328,1258,1,0,0:0:0:0:
160,72,1259,1,0,0:0:0:0:
360,40,1260,1,0,0:0:0:0:
464,224,1261,1,0,0:0:0:0:
48,240,1262,1,0,0:0:0:0:
176,48,1263,1,0,0:0:0:0:
152,336,1264,1,0,0:0:0:0:
88,240,1265,1,0,0:0:0:0:
40,56,1266,1,0,0:0:0:0:
96,80,1267,1,0,0:0:0:0:
376,32,1268,1,0,0:0:0:0:
304,144,1269,1,0,0:0:0:0:
408,8,1270,1,0,0:0:0:0:
432,224,1271,1,0,0:0:0:0:
408,248,1272,1,0,0:0:0:0:
144,104,1273,1,0,0:0:0:0:
64,56,1274,5,0,0:0:0:0:
264,216,1275,1,0,0:0:0:0:
80,128,1276,1,0,0:0:0:0:
464,304,1277,1,0,0:0:0:0:
72,176,1278,1,0,0:0:0:0:
88,192,1279,1,0,0:0:0:0:
40,336,1280,1,0,0:0:0:0:
464,32,1281,1,0,0:0:0:0:
40,264,1282,1,0,0:0:0:0:
408,280,1283,1,0,0:0:0:0:
120,32,1284,1,0,0:0:0:0:
168,208,1285,1,0,0:0:0:0:
216,352,1286,1,0,0:0:0:0:
184,184,1287,1,0,0:0:0:0:
192,136,1288,1,0,0:0:0:0:
112,168,1289,1,0,0:0:0:0:
168,128,1290,1,0,0:0:0:0:
496,16,1291,1,0,0:0:0:0:
208,216,1292,1,0,0:0:0:0:
144,232,1293,1,0,0:0:0:0:
64,16,1294,1,0,0:0:0:0:
400,320,1295,1,0,0:0:0:0:
168,160,1296,1,0,0:0:0:0:
416,184,1297,1,0,0:0:0:0:
488,64,1298,1,0,0:0:0:0:
456,256,1299,1,0,0:0:0:0:
440,8,1300,1,0,0:0:0:0:
112,232,1301,1,0,0:0:0:0:
56,88,1302,1,0,0:0:0:0:
480,272,1303,1,0,0:0:0:0:
56,304,1304,1,0,0:0:0:0:
104,64,1305,1,0,0:0:0:0:
448,64,1306,1,0,0:0:0:0:
192,96,1307,1,0,0:0:0:0:
104,8,1308,1,0,0:0:0:0:
360,320,1309,1,0,0:0:0:0:
80,272,1310,1,0,0:0:0:0:
416,48,1311,1,0,0:0:0:0:
56,208,1312,1,0,0:0:0:0:
88,88,1313,1,0,0:0:0:0:
96,312,1314,1,0,0:0:0:0:
256,136,1315,1,0,0:0:0:0:
432,296,1316,1,0,0:0:0:0:
384,16,1317,1,0,0:0:0:0:
48,136,1318,1,0,0:0:0:0:
136,88,1319,1,0,0:0:0:0:
80,336,1320,1,0,0:0:0:0:
384,288,1321,1,0,0:0:0:0:
416,24,1322,1,0,0:0:0:0:
312,128,1323,1,0,0:0:0:0:
56,344,1325,1,0,0:0:0:0:
464,336,1326,1,0,0:0:0:0:
424,64,1327,1,0,0:0:0:0:
80,32,1328,1,0,0:0:0:0:
288,216,1329,1,0,0:0:0:0:
304,296,1330,1,0,0:0:0:0:
408,344,1331,1,0,0:0:0:0:
48,8,1332,1,0,0:0:0:0:
224,288,1333,1,0,0:0:0:0:
232,48,1334,1,0,0:0:0:0:
440,328,1335,1,0,0:0:0:0:
384,48,1336,1,0,0:0:0:0:
264,56,1337,1,0,0:0:0:0:
480,8,1338,1,0,0:0:0:0:
336,272,1340,1,0,0:0:0:0:
304,200,1341,1,0,0:0:0:0:
152,8,1342,1,0,0:0:0:0:
496,320,1343,1,0,0:0:0:0:
248,336,1344,1,0,0:0:0:0:
304,160,1345,5,0,0:0:0:0:
432,40,1346,1,0,0:0:0:0:
56,40,1347,1,0,0:0:0:0:
424,120,1348,1,0,0:0:0:0:
256,344,1349,1,0,0:0:0:0:
128,304,1350,1,0,0:0:0:0:
144,8,1351,1,0,0:0:0:0:
128,56,1352,1,0,0:0:0:0:
448,120,1353,1,0,0:0:0:0:
136,344,1354,1,0,0:0:0:0:
160,48,1355,5,0,0:0:0:0:
176,8,1356,1,0,0:0:0:0:
344,336,1357,1,0,0:0:0:0:
312,80,1358,1,0,0:0:0:0:
112,320,1359,1,0,0:0:0:0:
440,48,1360,1,0,0:0:0:0:
432,264,1361,1,0,0:0:0:0:
464,368,1362,1,0,0:0:0:0:
96,64,1363,1,0,0:0:0:0:
368,336,1364,1,0,0:0:0:0:
136,296,1366,1,0,0:0:0:0:
376,64,1367,1,0,0:0:0:0:
440,16,1368,1,0,0:0:0:0:
112,280,1369,1,0,0:0:0:0:
144,56,1370,1,0,0:0:0:0:
104,272,1371,1,0,0:0:0:0:
368,320,1372,1,0,0:0:0:0:
424,16,1373,1,0,0:0:0:0:
160,72,1374,1,0,0:0:0:0:
360,40,1375,1,0,0:0:0:0:
464,224,1376,1,0,0:0:0:0:
48,240,1377,1,0,0:0:0:0:
64,320,1378,1,0,0:0:0:0:
384,40,1379,1,0,0:0:0:0:
88,240,1380,1,0,0:0:0:0:
40,56,1381,1,0,0:0:0:0:
96,80,1382,1,0,0:0:0:0:
376,32,1383,1,0,0:0:0:0:
328,240,1384,1,0,0:0:0:0:
408,8,1385,1,0,0:0:0:0:
432,224,1386,1,0,0:0:0:0:
408,248,1387,1,0,0:0:0:0:
144,104,1388,1,0,0:0:0:0:
104,112,1389,1,0,0:0:0:0:
360,160,1390,1,0,0:0:0:0:
80,128,1391,1,0,0:0:0:0:
72,152,1392,1,0,0:0:0:0:
72,176,1393,1,0,0:0:0:0:
88,192,1394,1,0,0:0:0:0:
320,0,1395,1,0,0:0:0:0:
112,200,1396,1,0,0:0:0:0:
136,192,1397,1,0,0:0:0:0:
144,152,1398,1,0,0:0:0:0:
152,176,1399,1,0,0:0:0:0:
168,208,1400,1,0,0:0:0:0:
464,296,1401,1,0,0:0:0:0:
184,184,1402,1,0,0:0:0:0:
192,136,1403,1,0,0:0:0:0:
112,168,1404,1,0,0:0:0:0:
168,128,1405,1,0,0:0:0:0:
208,216,1406,1,0,0:0:0:0:
208,216,1407,1,0,0:0:0:0:
144,232,1408,1,0,0:0:0:0:
176,80,1409,1,0,0:0:0:0:
208,176,1410,1,0,0:0:0:0:
168,160,1411,1,0,0:0:0:0:
304,128,1412,1,0,0:0:0:0:
232,152,1413,1,0,0:0:0:0:
224,0,1414,1,0,0:0:0:0:
112,136,1415,1,0,0:0:0:0:
112,232,1416,1,0,0:0:0:0:
56,168,1417,1,0,0:0:0:0:
176,248,1418,1,0,0:0:0:0:
240,208,1419,1,0,0:0:0:0:
224,112,1420,1,0,0:0:0:0:
416,64,1421,1,0,0:0:0:0:
192,96,1422,1,0,0:0:0:0:
360,208,1423,5,0,0:0:0:0:
136,272,1424,1,0,0:0:0:0:
112,96,1425,1,0,0:0:0:0:
208,248,1426,1,0,0:0:0:0:
56,208,1427,1,0,0:0:0:0:
112,40,1428,1,0,0:0:0:0:
248,184,1429,1,0,0:0:0:0:
256,136,1430,1,0,0:0:0:0:
232,320,1431,1,0,0:0:0:0:
224,88,1432,1,0,0:0:0:0:
48,136,1433,1,0,0:0:0:0:
304,88,1435,1,0,0:0:0:0:
448,168,1436,1,0,0:0:0:0:
208,64,1437,1,0,0:0:0:0:
48,112,1438,1,0,0:0:0:0:
272,56,1439,1,0,0:0:0:0:
256,96,1440,1,0,0:0:0:0:
280,176,1441,1,0,0:0:0:0:
392,80,1442,1,0,0:0:0:0:
248,240,1443,1,0,0:0:0:0:
288,216,1444,1,0,0:0:0:0:
72,360,1445,1,0,0:0:0:0:
376,360,1446,1,0,0:0:0:0:
176,288,1447,1,0,0:0:0:0:
224,288,1448,1,0,0:0:0:0:
232,48,1449,1,0,0:0:0:0:
280,296,1450,1,0,0:0:0:0:
320,184,1451,1,0,0:0:0:0:
264,56,1452,1,0,0:0:0:0:
264,280,1453,1,0,0:0:0:0:
112,248,1454,1,0,0:0:0:0:
304,104,1455,1,0,0:0:0:0:
72,80,1456,1,0,0:0:0:0:
200,24,1457,1,0,0:0:0:0:
408,120,1458,5,0,0:0:0:0:
248,336,1459,1,0,0:0:0:0:
360,16,1460,1,0,0:0:0:0:
160,8,1461,1,0,0:0:0:0:
104,296,1462,1,0,0:0:0:0:
424,120,1463,1,0,0:0:0:0:
256,344,1464,1,0,0:0:0:0:
200,328,1465,1,0,0:0:0:0:
144,8,1466,1,0,0:0:0:0:
288,312,1467,1,0,0:0:0:0:
448,120,1468,1,0,0:0:0:0:
64,56,1469,5,0,0:0:0:0:
176,48,1470,1,0,0:0:0:0:
176,8,1471,1,0,0:0:0:0:
464,304,1472,1,0,0:0:0:0:
408,176,1473,1,0,0:0:0:0:
88,280,1474,1,0,0:0:0:0:
40,336,1475,1,0,0:0:0:0:
464,32,1476,1,0,0:0:0:0:
40,264,1477,1,0,0:0:0:0:
408,280,1478,1,0,0:0:0:0:
120,32,1479,1,0,0:0:0:0:
192,280,1480,1,0,0:0:0:0:
360,16,1481,1,0,0:0:0:0:
264,216,1482,1,0,0:0:0:0:
440,16,1483,1,0,0:0:0:0:
104,288,1484,1,0,0:0:0:0:
216,80,1485,1,0,0:0:0:0:
496,16,1486,1,0,0:0:0:0:
432,344,1487,1,0,0:0:0:0:
424,16,1488,1,0,0:0:0:0:
64,16,1489,1,0,0:0:0:0:
400,320,1490,1,0,0:0:0:0:
248,32,1491,1,0,0:0:0:0:
472,192,1492,1,0,0:0:0:0:
488,64,1493,1,0,0:0:0:0:
456,256,1494,1,0,0:0:0:0:
440,8,1495,1,0,0:0:0:0:
88,48,1496,1,0,0:0:0:0:
56,88,1497,1,0,0:0:0:0:
480,272,1498,1,0,0:0:0:0:
56,304,1499,1,0,0:0:0:0:
104,64,1500,1,0,0:0:0:0:
448,64,1501,1,0,0:0:0:0:
128,128,1502,1,0,0:0:0:0:
104,8,1503,1,0,0:0:0:0:
360,320,1504,1,0,0:0:0:0:
80,272,1505,1,0,0:0:0:0:
416,48,1506,1,0,0:0:0:0:
264,272,1507,1,0,0:0:0:0:
88,88,1508,1,0,0:0:0:0:
96,312,1509,1,0,0:0:0:0:
320,0,1510,1,0,0:0:0:0:
432,296,1511,1,0,0:0:0:0:
384,16,1512,1,0,0:0:0:0:
384,296,1513,1,0,0:0:0:0:
136,88,1514,1,0,0:0:0:0:
80,336,1515,1,0,0:0:0:0:
384,288,1516,1,0,0:0:0:0:
416,24,1517,1,0,0:0:0:0:
288,24,1519,1,0,0:0:0:0:
56,344,1520,1,0,0:0:0:0:
464,336,1521,1,0,0:0:0:0:
424,64,1522,1,0,0:0:0:0:
80,32,1523,1,0,0:0:0:0:
176,80,1524,1,0,0:0:0:0:
176,40,1525,1,0,0:0:0:0:
408,344,1526,1,0,0:0:0:0:
48,8,1527,1,0,0:0:0:0:
440,312,1528,1,0,0:0:0:0:
224,0,1529,1,0,0:0:0:0:
440,328,1530,1,0,0:0:0:0:
384,48,1531,1,0,0:0:0:0:
56,168,1532,1,0,0:0:0:0:
480,8,1533,1,0,0:0:0:0:
408,224,1534,1,0,0:0:0:0:
184,304,1535,1,0,0:0:0:0:
416,64,1536,1,0,0:0:0:0:
152,8,1537,1,0,0:0:0:0:
496,320,1538,1,0,0:0:0:0:
120,168,1539,1,0,0:0:0:0:
112,96,1540,1,0,0:0:0:0:
432,40,1541,1,0,0:0:0:0:
56,40,1542,1,0,0:0:0:0:
112,40,1543,1,0,0:0:0:0:
432,32,1544,1,0,0:0:0:0:
128,304,1545,1,0,0:0:0:0:
232,320,1546,1,0,0:0:0:0:
128,56,1547,1,0,0:0:0:0:
144,176,1548,1,0,0:0:0:0:
136,344,1549,1,0,0:0:0:0:
160,48,1550,5,0,0:0:0:0:
448,168,1551,1,0,0:0:0:0:
344,336,1552,1,0,0:0:0:0:
48,112,1553,1,0,0:0:0:0:
112,320,1554,1,0,0:0:0:0:
440,48,1555,1,0,0:0:0:0:
432,264,1556,1,0,0:0:0:0:
392,80,1557,1,0,0:0:0:0:
96,64,1558,1,0,0:0:0:0:
368,336,1559,1,0,0:0:0:0:
208,272,1560,1,0,0:0:0:0:
136,296,1561,1,0,0:0:0:0:
376,64,1562,1,0,0:0:0:0:
320,72,1563,1,0,0:0:0:0:
120,32,1564,1,0,0:0:0:0:
144,56,1565,1,0,0:0:0:0:
104,272,1566,1,0,0:0:0:0:
368,320,1567,1,0,0:0:0:0:
296,112,1568,1,0,0:0:0:0:
160,72,1569,1,0,0:0:0:0:
360,40,1570,1,0,0:0:0:0:
464,224,1571,1,0,0:0:0:0:
48,240,1572,1,0,0:0:0:0:
440,344,1573,1,0,0:0:0:0:
392,24,1574,1,0,0:0:0:0:
88,240,1575,1,0,0:0:0:0:
40,56,1576,1,0,0:0:0:0:
96,80,1577,1,0,0:0:0:0:
376,32,1578,1,0,0:0:0:0:
416,128,1579,1,0,0:0:0:0:
408,8,1580,1,0,0:0:0:0:
432,224,1581,1,0,0:0:0:0:
408,248,1582,1,0,0:0:0:0:
144,104,1583,1,0,0:0:0:0:
104,112,1584,1,0,0:0:0:0:
176,48,1585,1,0,0:0:0:0:
80,128,1586,1,0,0:0:0:0:
72,152,1587,1,0,0:0:0:0:
72,176,1588,1,0,0:0:0:0:
88,192,1589,1,0,0:0:0:0:
368,256,1590,1,0,0:0:0:0:
112,200,1591,1,0,0:0:0:0:
136,192,1592,1,0,0:0:0:0:
144,152,1593,1,0,0:0:0:0:
152,176,1594,1,0,0:0:0:0:
168,208,1595,1,0,0:0:0:0:
360,16,1596,1,0,0:0:0:0:
184,184,1597,1,0,0:0:0:0:
192,136,1598,1,0,0:0:0:0:
112,168,1599,1,0,0:0:0:0:
168,128,1600,1,0,0:0:0:0:
208,216,1602,1,0,0:0:0:0:
144,232,1603,1,0,0:0:0:0:
320,104,1604,1,0,0:0:0:0:
208,176,1605,1,0,0:0:0:0:
168,160,1606,1,0,0:0:0:0:
472,192,1607,1,0,0:0:0:0:
232,152,1608,1,0,0:0:0:0:
48,64,1609,1,0,0:0:0:0:
112,136,1610,1,0,0:0:0:0:
112,232,1611,1,0,0:0:0:0:
376,256,1612,1,0,0:0:0:0:
176,248,1613,1,0,0:0:0:0:
240,208,1614,1,0,0:0:0:0:
224,112,1615,1,0,0:0:0:0:
192,96,1617,1,0,0:0:0:0:
280,16,1618,1,0,0:0:0:0:
136,272,1619,1,0,0:0:0:0:
224,256,1620,1,0,0:0:0:0:
208,248,1621,1,0,0:0:0:0:
56,208,1622,1,0,0:0:0:0:
216,48,1623,1,0,0:0:0:0:
248,184,1624,1,0,0:0:0:0:
256,136,1625,1,0,0:0:0:0:
384,192,1626,1,0,0:0:0:0:
224,88,1627,1,0,0:0:0:0:
48,136,1628,1,0,0:0:0:0:
128,48,1629,1,0,0:0:0:0:
72,232,1630,1,0,0:0:0:0:
208,64,1632,1,0,0:0:0:0:
424,192,1633,1,0,0:0:0:0:
440,64,1634,1,0,0:0:0:0:
256,96,1635,1,0,0:0:0:0:
64,56,1636,5,0,0:0:0:0:
48,264,1637,1,0,0:0:0:0:
248,240,1638,1,0,0:0:0:0:
464,304,1639,1,0,0:0:0:0:
176,40,1640,1,0,0:0:0:0:
200,160,1641,1,0,0:0:0:0:
40,336,1642,1,0,0:0:0:0:
464,32,1643,1,0,0:0:0:0:
40,264,1644,1,0,0:0:0:0:
408,280,1645,1,0,0:0:0:0:
120,32,1646,1,0,0:0:0:0:
264,56,1647,1,0,0:0:0:0:
264,280,1648,1,0,0:0:0:0:
264,160,1649,1,0,0:0:0:0:
184,248,1650,1,0,0:0:0:0:
304,232,1651,1,0,0:0:0:0:
200,24,1652,1,0,0:0:0:0:
496,16,1653,1,0,0:0:0:0:
248,336,1654,1,0,0:0:0:0:
440,288,1655,1,0,0:0:0:0:
64,16,1656,1,0,0:0:0:0:
400,320,1657,1,0,0:0:0:0:
424,120,1658,1,0,0:0:0:0:
256,344,1659,1,0,0:0:0:0:
488,64,1660,1,0,0:0:0:0:
456,256,1661,1,0,0:0:0:0:
440,8,1662,1,0,0:0:0:0:
448,120,1663,1,0,0:0:0:0:
56,88,1664,1,0,0:0:0:0:
480,272,1665,1,0,0:0:0:0:
56,304,1666,1,0,0:0:0:0:
104,64,1667,1,0,0:0:0:0:
448,64,1668,1,0,0:0:0:0:
104,160,1669,1,0,0:0:0:0:
104,8,1670,1,0,0:0:0:0:
360,320,1671,1,0,0:0:0:0:
80,272,1672,1,0,0:0:0:0:
416,48,1673,1,0,0:0:0:0:
464,8,1674,1,0,0:0:0:0:
88,88,1675,1,0,0:0:0:0:
96,312,1676,1,0,0:0:0:0:
248,312,1677,1,0,0:0:0:0:
432,296,1678,1,0,0:0:0:0:
384,16,1679,1,0,0:0:0:0:
312,80,1680,1,0,0:0:0:0:
136,88,1681,1,0,0:0:0:0:
80,336,1682,1,0,0:0:0:0:
384,288,1683,1,0,0:0:0:0:
416,24,1684,1,0,0:0:0:0:
200,8,1685,1,0,0:0:0:0:
256,256,1686,1,0,0:0:0:0:
56,344,1687,1,0,0:0:0:0:
464,336,1688,1,0,0:0:0:0:
424,64,1689,1,0,0:0:0:0:
80,32,1690,1,0,0:0:0:0:
88,48,1691,1,0,0:0:0:0:
384,296,1692,1,0,0:0:0:0:
408,344,1693,1,0,0:0:0:0:
48,8,1694,1,0,0:0:0:0:
256,0,1695,1,0,0:0:0:0:
160,248,1696,1,0,0:0:0:0:
440,328,1697,1,0,0:0:0:0:
384,48,1698,1,0,0:0:0:0:
240,168,1699,1,0,0:0:0:0:
480,8,1700,1,0,0:0:0:0:
72,312,1701,1,0,0:0:0:0:
264,272,1702,1,0,0:0:0:0:
104,184,1703,1,0,0:0:0:0:
152,8,1704,1,0,0:0:0:0:
496,320,1705,1,0,0:0:0:0:
48,288,1706,1,0,0:0:0:0:
272,312,1707,1,0,0:0:0:0:
432,40,1708,1,0,0:0:0:0:
56,40,1709,1,0,0:0:0:0:
136,256,1710,1,0,0:0:0:0:
464,296,1711,1,0,0:0:0:0:
128,304,1712,1,0,0:0:0:0:
96,80,1713,1,0,0:0:0:0:
128,56,1714,1,0,0:0:0:0:
152,200,1715,1,0,0:0:0:0:
136,344,1716,1,0,0:0:0:0:
160,48,1717,5,0,0:0:0:0:
456,80,1718,1,0,0:0:0:0:
344,336,1719,1,0,0:0:0:0:
288,256,1720,1,0,0:0:0:0:
112,320,1721,1,0,0:0:0:0:
440,48,1722,1,0,0:0:0:0:
432,264,1723,1,0,0:0:0:0:
224,0,1724,1,0,0:0:0:0:
96,64,1725,1,0,0:0:0:0:
368,336,1726,1,0,0:0:0:0:
56,168,1727,1,0,0:0:0:0:
136,296,1728,1,0,0:0:0:0:
376,64,1729,1,0,0:0:0:0:
184,304,1730,1,0,0:0:0:0:
416,64,1731,1,0,0:0:0:0:
144,56,1732,1,0,0:0:0:0:
104,272,1733,1,0,0:0:0:0:
368,320,1734,1,0,0:0:0:0:
112,96,1735,1,0,0:0:0:0:
160,72,1736,1,0,0:0:0:0:
360,40,1737,1,0,0:0:0:0:
464,224,1738,1,0,0:0:0:0:
48,240,1739,1,0,0:0:0:0:
160,88,1740,1,0,0:0:0:0:
232,320,1741,1,0,0:0:0:0:
88,240,1742,1,0,0:0:0:0:
40,56,1743,1,0,0:0:0:0:
96,80,1744,1,0,0:0:0:0:
376,32,1745,1,0,0:0:0:0:
448,168,1746,1,0,0:0:0:0:
408,8,1747,1,0,0:0:0:0:
432,224,1748,1,0,0:0:0:0:
408,248,1749,1,0,0:0:0:0:
144,104,1750,1,0,0:0:0:0:
104,112,1751,1,0,0:0:0:0:
392,80,1752,1,0,0:0:0:0:
80,128,1753,1,0,0:0:0:0:
72,152,1754,1,0,0:0:0:0:
72,176,1755,1,0,0:0:0:0:
88,192,1756,1,0,0:0:0:0:
384,216,1757,1,0,0:0:0:0:
112,200,1758,1,0,0:0:0:0:
136,192,1759,1,0,0:0:0:0:
144,152,1760,1,0,0:0:0:0:
152,176,1761,1,0,0:0:0:0:
168,208,1762,1,0,0:0:0:0:
296,112,1763,1,0,0:0:0:0:
184,184,1764,1,0,0:0:0:0:
192,136,1765,1,0,0:0:0:0:
112,168,1766,1,0,0:0:0:0:
168,128,1767,1,0,0:0:0:0:
440,344,1768,1,0,0:0:0:0:
208,216,1769,1,0,0:0:0:0:
144,232,1770,1,0,0:0:0:0:
48,16,1771,1,0,0:0:0:0:
208,176,1772,1,0,0:0:0:0:
168,160,1773,1,0,0:0:0:0:
416,128,1774,1,0,0:0:0:0:
232,152,1775,1,0,0:0:0:0:
448,56,1776,1,0,0:0:0:0:
112,136,1777,1,0,0:0:0:0:
112,232,1778,1,0,0:0:0:0:
320,56,1779,1,0,0:0:0:0:
176,248,1780,1,0,0:0:0:0:
240,208,1781,1,0,0:0:0:0:
224,112,1782,1,0,0:0:0:0:
408,176,1783,1,0,0:0:0:0:
192,96,1784,1,0,0:0:0:0:
368,256,1785,1,0,0:0:0:0:
136,272,1786,1,0,0:0:0:0:
288,248,1787,1,0,0:0:0:0:
208,248,1788,1,0,0:0:0:0:
56,208,1789,1,0,0:0:0:0:
192,280,1790,1,0,0:0:0:0:
248,184,1791,1,0,0:0:0:0:
256,136,1792,1,0,0:0:0:0:
264,80,1793,1,0,0:0:0:0:
224,88,1794,1,0,0:0:0:0:
48,136,1795,1,0,0:0:0:0:
88,280,1796,1,0,0:0:0:0:
456,328,1797,1,0,0:0:0:0:
64,344,1798,1,0,0:0:0:0:
208,64,1799,1,0,0:0:0:0:
424,320,1800,1,0,0:0:0:0:
248,32,1801,1,0,0:0:0:0:
256,96,1802,1,0,0:0:0:0:
280,176,1803,1,0,0:0:0:0:
48,64,1804,1,0,0:0:0:0:
248,240,1805,1,0,0:0:0:0:
288,216,1806,1,0,0:0:0:0:
376,256,1807,1,0,0:0:0:0:
328,304,1808,1,0,0:0:0:0:
176,288,1809,1,0,0:0:0:0:
224,288,1810,1,0,0:0:0:0:
232,48,1811,1,0,0:0:0:0:
352,48,1812,1,0,0:0:0:0:
320,184,1813,1,0,0:0:0:0:
264,56,1814,1,0,0:0:0:0:
264,280,1815,1,0,0:0:0:0:
120,144,1816,1,0,0:0:0:0:
432,280,1817,1,0,0:0:0:0:
216,48,1818,1,0,0:0:0:0:
200,24,1819,1,0,0:0:0:0:
408,120,1820,5,0,0:0:0:0:
64,56,1821,5,0,0:0:0:0:
360,88,1822,1,0,0:0:0:0:
160,8,1823,1,0,0:0:0:0:
464,304,1824,1,0,0:0:0:0:
424,120,1825,1,0,0:0:0:0:
256,344,1826,1,0,0:0:0:0:
40,336,1827,1,0,0:0:0:0:
464,32,1828,1,0,0:0:0:0:
40,264,1829,1,0,0:0:0:0:
408,280,1830,1,0,0:0:0:0:
120,32,1831,1,0,0:0:0:0:
48,264,1832,1,0,0:0:0:0:
176,8,1833,1,0,0:0:0:0:
464,120,1834,1,0,0:0:0:0:
176,40,1835,1,0,0:0:0:0:
200,160,1836,1,0,0:0:0:0:
144,272,1837,1,0,0:0:0:0:
496,16,1838,1,0,0:0:0:0:
160,24,1839,1,0,0:0:0:0:
312,128,1840,1,0,0:0:0:0:
64,16,1841,1,0,0:0:0:0:
400,320,1842,1,0,0:0:0:0:
368,184,1843,1,0,0:0:0:0:
264,160,1844,1,0,0:0:0:0:
488,64,1845,1,0,0:0:0:0:
456,256,1846,1,0,0:0:0:0:
440,8,1847,1,0,0:0:0:0:
48,320,1848,1,0,0:0:0:0:
56,88,1849,1,0,0:0:0:0:
480,272,1850,1,0,0:0:0:0:
56,304,1851,1,0,0:0:0:0:
104,64,1852,1,0,0:0:0:0:
448,64,1853,1,0,0:0:0:0:
432,32,1854,1,0,0:0:0:0:
104,8,1855,1,0,0:0:0:0:
360,320,1856,1,0,0:0:0:0:
80,272,1857,1,0,0:0:0:0:
416,48,1858,1,0,0:0:0:0:
384,296,1859,1,0,0:0:0:0:
88,88,1860,1,0,0:0:0:0:
96,312,1861,1,0,0:0:0:0:
304,160,1862,5,0,0:0:0:0:
432,296,1863,1,0,0:0:0:0:
384,16,1864,1,0,0:0:0:0:
232,80,1865,1,0,0:0:0:0:
136,88,1866,1,0,0:0:0:0:
80,336,1867,1,0,0:0:0:0:
384,288,1868,1,0,0:0:0:0:
416,24,1869,1,0,0:0:0:0:
104,184,1870,1,0,0:0:0:0:
184,144,1871,1,0,0:0:0:0:
56,344,1872,1,0,0:0:0:0:
464,336,1873,1,0,0:0:0:0:
424,64,1874,1,0,0:0:0:0:
80,32,1875,1,0,0:0:0:0:
368,112,1876,1,0,0:0:0:0:
64,304,1877,1,0,0:0:0:0:
408,344,1878,1,0,0:0:0:0:
48,8,1879,1,0,0:0:0:0:
168,328,1880,1,0,0:0:0:0:
288,24,1881,1,0,0:0:0:0:
440,328,1882,1,0,0:0:0:0:
384,48,1883,1,0,0:0:0:0:
392,24,1884,1,0,0:0:0:0:
480,8,1885,1,0,0:0:0:0:
176,80,1886,1,0,0:0:0:0:
408,280,1887,1,0,0:0:0:0:
384,344,1888,1,0,0:0:0:0:
152,8,1889,1,0,0:0:0:0:
496,320,1890,1,0,0:0:0:0:
224,0,1891,1,0,0:0:0:0:
144,64,1892,1,0,0:0:0:0:
432,40,1893,1,0,0:0:0:0:
56,40,1894,1,0,0:0:0:0:
464,160,1895,1,0,0:0:0:0:
408,224,1896,1,0,0:0:0:0:
128,304,1897,1,0,0:0:0:0:
416,64,1898,1,0,0:0:0:0:
128,56,1899,1,0,0:0:0:0:
360,208,1900,5,0,0:0:0:0:
136,344,1901,1,0,0:0:0:0:
160,48,1902,5,0,0:0:0:0:
48,320,1903,1,0,0:0:0:0:
344,336,1904,1,0,0:0:0:0:
112,40,1905,1,0,0:0:0:0:
112,320,1906,1,0,0:0:0:0:
440,48,1907,1,0,0:0:0:0:
432,264,1908,1,0,0:0:0:0:
264,40,1909,1,0,0:0:0:0:
96,64,1910,1,0,0:0:0:0:
368,336,1911,1,0,0:0:0:0:
288,280,1912,1,0,0:0:0:0:
136,296,1913,1,0,0:0:0:0:
376,64,1914,1,0,0:0:0:0:
48,112,1915,1,0,0:0:0:0:
272,56,1916,1,0,0:0:0:0:
144,56,1917,1,0,0:0:0:0:
104,272,1918,1,0,0:0:0:0:
368,320,1919,1,0,0:0:0:0:
40,96,1920,1,0,0:0:0:0:
160,72,1921,1,0,0:0:0:0:
360,40,1922,1,0,0:0:0:0:
464,224,1923,1,0,0:0:0:0:
48,240,1924,1,0,0:0:0:0:
320,72,1925,1,0,0:0:0:0:
120,32,1926,1,0,0:0:0:0:
88,240,1927,1,0,0:0:0:0:
40,56,1928,1,0,0:0:0:0:
96,80,1929,1,0,0:0:0:0:
376,32,1930,1,0,0:0:0:0:
112,248,1931,1,0,0:0:0:0:
408,8,1932,1,0,0:0:0:0:
432,224,1933,1,0,0:0:0:0:
408,248,1934,1,0,0:0:0:0:
144,104,1935,1,0,0:0:0:0:
104,112,1936,1,0,0:0:0:0:
360,16,1937,1,0,0:0:0:0:
80,128,1938,1,0,0:0:0:0:
72,152,1939,1,0,0:0:0:0:
72,176,1940,1,0,0:0:0:0:
88,192,1941,1,0,0:0:0:0:
200,328,1942,1,0,0:0:0:0:
112,200,1943,1,0,0:0:0:0:
136,192,1944,1,0,0:0:0:0:
144,152,1945,1,0,0:0:0:0:
152,176,1946,1,0,0:0:0:0:
168,208,1947,1,0,0:0:0:0:
152,336,1948,1,0,0:0:0:0:
184,184,1949,1,0,0:0:0:0:
192,136,1950,1,0,0:0:0:0:
112,168,1951,1,0,0:0:0:0:
168,128,1952,1,0,0:0:0:0:
304,144,1953,1,0,0:0:0:0:
208,216,1954,1,0,0:0:0:0:
144,232,1955,1,0,0:0:0:0:
400,272,1956,1,0,0:0:0:0:
208,176,1957,1,0,0:0:0:0:
168,160,1958,1,0,0:0:0:0:
264,216,1959,1,0,0:0:0:0:
232,152,1960,1,0,0:0:0:0:
104,288,1961,1,0,0:0:0:0:
112,136,1962,1,0,0:0:0:0:
112,232,1963,1,0,0:0:0:0:
456,328,1964,1,0,0:0:0:0:
176,248,1965,1,0,0:0:0:0:
240,208,1966,1,0,0:0:0:0:
224,112,1967,1,0,0:0:0:0:
248,32,1968,1,0,0:0:0:0:
192,96,1969,1,0,0:0:0:0:
56,8,1970,1,0,0:0:0:0:
136,272,1971,1,0,0:0:0:0:
392,32,1972,1,0,0:0:0:0:
208,248,1973,1,0,0:0:0:0:
56,208,1974,1,0,0:0:0:0:
328,304,1975,1,0,0:0:0:0:
248,184,1976,1,0,0:0:0:0:
256,136,1977,1,0,0:0:0:0:
88,48,1978,1,0,0:0:0:0:
224,88,1979,1,0,0:0:0:0:
48,136,1980,1,0,0:0:0:0:
416,184,1981,1,0,0:0:0:0:
224,256,1982,1,0,0:0:0:0:
120,144,1983,1,0,0:0:0:0:
208,64,1984,1,0,0:0:0:0:
216,48,1985,1,0,0:0:0:0:
480,32,1986,1,0,0:0:0:0:
256,96,1987,1,0,0:0:0:0:
280,176,1988,1,0,0:0:0:0:
72,56,1989,1,0,0:0:0:0:
248,240,1990,1,0,0:0:0:0:
288,216,1991,1,0,0:0:0:0:
72,232,1992,1,0,0:0:0:0:
176,336,1993,1,0,0:0:0:0:
176,288,1994,1,0,0:0:0:0:
224,288,1995,1,0,0:0:0:0:
232,48,1996,1,0,0:0:0:0:
432,184,1997,1,0,0:0:0:0:
320,184,1998,1,0,0:0:0:0:
264,56,1999,1,0,0:0:0:0:
264,280,2000,1,0,0:0:0:0:
448,240,2001,1,0,0:0:0:0:
176,40,2002,1,0,0:0:0:0:
200,160,2003,1,0,0:0:0:0:
200,24,2004,1,0,0:0:0:0:
408,120,2005,5,0,0:0:0:0:
248,336,2006,1,0,0:0:0:0:
312,128,2007,1,0,0:0:0:0:
160,8,2008,1,0,0:0:0:0:
144,208,2009,1,0,0:0:0:0:
424,120,2010,1,0,0:0:0:0:
256,344,2011,1,0,0:0:0:0:
432,280,2012,1,0,0:0:0:0:
144,8,2013,1,0,0:0:0:0:
304,296,2014,1,0,0:0:0:0:
448,120,2015,1,0,0:0:0:0:
120,168,2016,1,0,0:0:0:0:
360,88,2017,1,0,0:0:0:0:
176,8,2018,1,0,0:0:0:0:
464,120,2019,1,0,0:0:0:0:
368,64,2020,1,0,0:0:0:0:
432,32,2021,1,0,0:0:0:0:
416,152,2022,1,0,0:0:0:0:
128,8,2023,1,0,0:0:0:0:
336,272,2024,1,0,0:0:0:0:
304,200,2025,1,0,0:0:0:0:
464,8,2026,1,0,0:0:0:0:
312,48,2027,1,0,0:0:0:0:
136,288,2028,1,0,0:0:0:0:
304,160,2029,5,0,0:0:0:0:
440,16,2030,1,0,0:0:0:0:
104,160,2031,1,0,0:0:0:0:
128,240,2032,1,0,0:0:0:0:
320,96,2033,1,0,0:0:0:0:
432,344,2034,1,0,0:0:0:0:
424,16,2035,1,0,0:0:0:0:
192,168,2036,1,0,0:0:0:0:
200,8,2037,1,0,0:0:0:0:
432,56,2038,1,0,0:0:0:0:
176,304,2039,1,0,0:0:0:0:
64,320,2040,1,0,0:0:0:0:
384,40,2041,1,0,0:0:0:0:
312,80,2042,1,0,0:0:0:0:
88,48,2043,1,0,0:0:0:0:
384,296,2044,1,0,0:0:0:0:
320,88,2045,1,0,0:0:0:0:
328,240,2046,1,0,0:0:0:0:
168,328,2047,1,0,0:0:0:0:
160,248,2048,1,0,0:0:0:0:
128,128,2049,1,0,0:0:0:0:
232,80,2050,1,0,0:0:0:0:
240,168,2051,1,0,0:0:0:0:
360,160,2052,1,0,0:0:0:0:
112,280,2053,1,0,0:0:0:0:
264,272,2054,1,0,0:0:0:0:
104,184,2055,1,0,0:0:0:0:
184,144,2056,1,0,0:0:0:0:
320,0,2057,1,0,0:0:0:0:
336,152,2058,1,0,0:0:0:0:
272,312,2059,1,0,0:0:0:0:
416,104,2060,1,0,0:0:0:0:
368,112,2061,1,0,0:0:0:0:
464,160,2062,1,0,0:0:0:0:
464,296,2063,1,0,0:0:0:0:
192,176,2064,1,0,0:0:0:0:
192,128,2065,1,0,0:0:0:0:
288,24,2066,1,0,0:0:0:0:
80,280,2067,1,0,0:0:0:0:
208,216,2068,1,0,0:0:0:0:
392,144,2069,1,0,0:0:0:0:
456,80,2070,1,0,0:0:0:0:
176,80,2071,1,0,0:0:0:0:
64,56,2072,5,0,0:0:0:0:
384,344,2073,1,0,0:0:0:0:
304,128,2074,1,0,0:0:0:0:
96,80,2075,1,0,0:0:0:0:
224,0,2076,1,0,0:0:0:0:
144,64,2077,1,0,0:0:0:0:
64,272,2078,1,0,0:0:0:0:
56,168,2079,1,0,0:0:0:0:
200,48,2080,1,0,0:0:0:0:
408,224,2081,1,0,0:0:0:0:
184,304,2082,1,0,0:0:0:0:
416,64,2083,1,0,0:0:0:0:
328,288,2084,1,0,0:0:0:0:
360,208,2085,5,0,0:0:0:0:
336,256,2086,1,0,0:0:0:0:
112,96,2087,1,0,0:0:0:0:
48,320,2088,1,0,0:0:0:0:
344,136,2089,1,0,0:0:0:0:
112,40,2090,1,0,0:0:0:0:
160,128,2091,1,0,0:0:0:0:
296,64,2092,1,0,0:0:0:0:
232,320,2093,1,0,0:0:0:0:
264,40,2094,1,0,0:0:0:0:
144,176,2095,1,0,0:0:0:0:
184,200,2096,1,0,0:0:0:0:
480,304,2097,1,0,0:0:0:0:
448,168,2098,1,0,0:0:0:0:
240,136,2099,1,0,0:0:0:0:
48,112,2100,1,0,0:0:0:0:
272,56,2101,1,0,0:0:0:0:
64,280,2102,1,0,0:0:0:0:
176,192,2103,1,0,0:0:0:0:
392,80,2104,1,0,0:0:0:0:
40,96,2105,1,0,0:0:0:0:
256,304,2106,1,0,0:0:0:0:
360,320,2107,1,0,0:0:0:0:
80,272,2108,1,0,0:0:0:0:
384,216,2109,1,0,0:0:0:0:
320,72,2110,1,0,0:0:0:0:
120,32,2111,1,0,0:0:0:0:
280,296,2112,1,0,0:0:0:0:
312,256,2113,1,0,0:0:0:0:
368,200,2114,1,0,0:0:0:0:
296,112,2115,1,0,0:0:0:0:
112,248,2116,1,0,0:0:0:0:
304,104,2117,1,0,0:0:0:0:
72,80,2118,1,0,0:0:0:0:
304,88,2119,1,0,0:0:0:0:
440,344,2120,1,0,0:0:0:0:
336,224,2121,1,0,0:0:0:0:
360,16,2122,1,0,0:0:0:0:
48,16,2123,1,0,0:0:0:0:
104,296,2124,1,0,0:0:0:0:
96,8,2125,5,0,0:0:0:0:
416,128,2126,1,0,0:0:0:0:
200,328,2127,1,0,0:0:0:0:
48,264,2128,1,0,0:0:0:0:
288,312,2129,1,0,0:0:0:0:
408,344,2130,1,0,0:0:0:0:
320,56,2131,1,0,0:0:0:0:
176,48,2132,1,0,0:0:0:0:
152,336,2133,1,0,0:0:0:0:
320,296,2134,1,0,0:0:0:0:
408,176,2135,1,0,0:0:0:0:
48,64,2136,1,0,0:0:0:0:
368,256,2137,1,0,0:0:0:0:
304,144,2138,1,0,0:0:0:0:
288,248,2139,1,0,0:0:0:0:
320,200,2140,1,0,0:0:0:0:
272,336,2141,1,0,0:0:0:0:
192,280,2142,1,0,0:0:0:0:
360,16,2143,1,0,0:0:0:0:
264,216,2144,1,0,0:0:0:0:
264,80,2145,1,0,0:0:0:0:
104,288,2146,1,0,0:0:0:0:
120,24,2147,1,0,0:0:0:0:
328,24,2148,1,0,0:0:0:0:
456,328,2149,1,0,0:0:0:0:
64,344,2150,1,0,0:0:0:0:
320,104,2151,1,0,0:0:0:0:
64,56,2152,5,0,0:0:0:0:
248,32,2153,1,0,0:0:0:0:
472,192,2154,1,0,0:0:0:0:
464,304,2155,1,0,0:0:0:0:
48,64,2156,1,0,0:0:0:0:
392,32,2157,1,0,0:0:0:0:
40,336,2158,1,0,0:0:0:0:
464,32,2159,1,0,0:0:0:0:
40,264,2160,1,0,0:0:0:0:
408,280,2161,1,0,0:0:0:0:
120,32,2162,1,0,0:0:0:0:
112,296,2163,1,0,0:0:0:0:
352,48,2164,1,0,0:0:0:0:
280,16,2165,1,0,0:0:0:0:
416,184,2166,1,0,0:0:0:0:
224,256,2167,1,0,0:0:0:0:
120,144,2168,1,0,0:0:0:0:
496,16,2169,1,0,0:0:0:0:
216,48,2170,1,0,0:0:0:0:
480,32,2171,1,0,0:0:0:0:
64,16,2172,1,0,0:0:0:0:
400,320,2173,1,0,0:0:0:0:
104,144,2174,1,0,0:0:0:0:
384,296,2175,1,0,0:0:0:0:
488,64,2176,1,0,0:0:0:0:
456,256,2177,1,0,0:0:0:0:
440,8,2178,1,0,0:0:0:0:
288,88,2179,1,0,0:0:0:0:
56,88,2180,1,0,0:0:0:0:
480,272,2181,1,0,0:0:0:0:
56,304,2182,1,0,0:0:0:0:
104,64,2183,1,0,0:0:0:0:
448,64,2184,1,0,0:0:0:0:
40,96,2185,1,0,0:0:0:0:
104,8,2186,1,0,0:0:0:0:
360,320,2187,1,0,0:0:0:0:
80,272,2188,1,0,0:0:0:0:
416,48,2189,1,0,0:0:0:0:
440,312,2190,1,0,0:0:0:0:
88,88,2191,1,0,0:0:0:0:
96,312,2192,1,0,0:0:0:0:
232,32,2193,1,0,0:0:0:0:
432,296,2194,1,0,0:0:0:0:
384,16,2195,1,0,0:0:0:0:
264,160,2196,1,0,0:0:0:0:
136,88,2197,1,0,0:0:0:0:
80,336,2198,1,0,0:0:0:0:
384,288,2199,1,0,0:0:0:0:
416,24,2200,1,0,0:0:0:0:
120,168,2201,1,0,0:0:0:0:
112,168,2202,1,0,0:0:0:0:
56,344,2203,1,0,0:0:0:0:
464,336,2204,1,0,0:0:0:0:
424,64,2205,1,0,0:0:0:0:
80,32,2206,1,0,0:0:0:0:
416,152,2207,1,0,0:0:0:0:
184,128,2208,1,0,0:0:0:0:
408,344,2209,1,0,0:0:0:0:
48,8,2210,1,0,0:0:0:0:
376,88,2211,1,0,0:0:0:0:
312,48,2212,1,0,0:0:0:0:
440,328,2213,1,0,0:0:0:0:
384,48,2214,1,0,0:0:0:0:
144,56,2215,1,0,0:0:0:0:
480,8,2216,1,0,0:0:0:0:
128,240,2217,1,0,0:0:0:0:
320,96,2218,1,0,0:0:0:0:
368,248,2219,1,0,0:0:0:0:
152,8,2220,1,0,0:0:0:0:
496,320,2221,1,0,0:0:0:0:
208,272,2222,1,0,0:0:0:0:
432,56,2223,1,0,0:0:0:0:
432,40,2224,1,0,0:0:0:0:
56,40,2225,1,0,0:0:0:0:
384,240,2226,1,0,0:0:0:0:
312,80,2227,1,0,0:0:0:0:
128,304,2228,1,0,0:0:0:0:
64,304,2229,1,0,0:0:0:0:
128,56,2230,1,0,0:0:0:0:
440,216,2231,1,0,0:0:0:0:
136,344,2232,1,0,0:0:0:0:
160,48,2233,5,0,0:0:0:0:
80,280,2234,1,0,0:0:0:0:
344,336,2235,1,0,0:0:0:0:
392,24,2236,1,0,0:0:0:0:
112,320,2237,1,0,0:0:0:0:
440,48,2238,1,0,0:0:0:0:
432,264,2239,1,0,0:0:0:0:
144,136,2240,1,0,0:0:0:0:
96,64,2241,1,0,0:0:0:0:
368,336,2242,1,0,0:0:0:0:
336,152,2243,1,0,0:0:0:0:
136,296,2244,1,0,0:0:0:0:
376,64,2245,1,0,0:0:0:0:
40,336,2246,1,0,0:0:0:0:
464,160,2247,1,0,0:0:0:0:
144,56,2248,1,0,0:0:0:0:
104,272,2249,1,0,0:0:0:0:
368,320,2250,1,0,0:0:0:0:
264,280,2251,1,0,0:0:0:0:
160,72,2252,1,0,0:0:0:0:
360,40,2253,1,0,0:0:0:0:
464,224,2254,1,0,0:0:0:0:
48,240,2255,1,0,0:0:0:0:
360,32,2256,1,0,0:0:0:0:
248,336,2257,1,0,0:0:0:0:
88,240,2258,1,0,0:0:0:0:
40,56,2259,1,0,0:0:0:0:
96,80,2260,1,0,0:0:0:0:
376,32,2261,1,0,0:0:0:0:
152,200,2262,1,0,0:0:0:0:
408,8,2263,1,0,0:0:0:0:
432,224,2264,1,0,0:0:0:0:
408,248,2265,1,0,0:0:0:0:
144,104,2266,1,0,0:0:0:0:
104,112,2267,1,0,0:0:0:0:
456,336,2268,1,0,0:0:0:0:
80,128,2269,1,0,0:0:0:0:
72,152,2270,1,0,0:0:0:0:
72,176,2271,1,0,0:0:0:0:
88,192,2272,1,0,0:0:0:0:
208,328,2273,1,0,0:0:0:0:
112,200,2274,1,0,0:0:0:0:
136,192,2275,1,0,0:0:0:0:
144,152,2276,1,0,0:0:0:0:
152,176,2277,1,0,0:0:0:0:
168,208,2278,1,0,0:0:0:0:
272,128,2279,1,0,0:0:0:0:
184,184,2280,1,0,0:0:0:0:
192,136,2281,1,0,0:0:0:0:
112,168,2282,1,0,0:0:0:0:
168,128,2283,1,0,0:0:0:0:
360,128,2284,1,0,0:0:0:0:
208,216,2285,1,0,0:0:0:0:
144,232,2286,1,0,0:0:0:0:
160,88,2287,1,0,0:0:0:0:
208,176,2288,1,0,0:0:0:0:
168,160,2289,1,0,0:0:0:0:
56,344,2290,1,0,0:0:0:0:
232,152,2291,1,0,0:0:0:0:
424,64,2292,1,0,0:0:0:0:
112,136,2293,1,0,0:0:0:0:
112,232,2294,1,0,0:0:0:0:
424,192,2295,1,0,0:0:0:0:
176,248,2296,1,0,0:0:0:0:
240,208,2297,1,0,0:0:0:0:
224,112,2298,1,0,0:0:0:0:
368,200,2299,1,0,0:0:0:0:
192,96,2300,1,0,0:0:0:0:
80,72,2301,1,0,0:0:0:0:
136,272,2302,1,0,0:0:0:0:
360,160,2303,1,0,0:0:0:0:
208,248,2304,1,0,0:0:0:0:
56,208,2305,1,0,0:0:0:0:
336,224,2306,1,0,0:0:0:0:
64,56,2307,5,0,0:0:0:0:
256,136,2308,1,0,0:0:0:0:
144,272,2309,1,0,0:0:0:0:
464,304,2310,1,0,0:0:0:0:
48,136,2311,1,0,0:0:0:0:
184,248,2312,1,0,0:0:0:0:
40,336,2313,1,0,0:0:0:0:
464,32,2314,1,0,0:0:0:0:
40,264,2315,1,0,0:0:0:0:
408,280,2316,1,0,0:0:0:0:
120,32,2317,1,0,0:0:0:0:
256,96,2318,1,0,0:0:0:0:
280,176,2319,1,0,0:0:0:0:
88,224,2320,1,0,0:0:0:0:
248,240,2321,1,0,0:0:0:0:
288,216,2322,1,0,0:0:0:0:
448,56,2323,1,0,0:0:0:0:
496,16,2324,1,0,0:0:0:0:
176,288,2325,1,0,0:0:0:0:
224,288,2326,1,0,0:0:0:0:
64,16,2327,1,0,0:0:0:0:
400,320,2328,1,0,0:0:0:0:
320,184,2329,1,0,0:0:0:0:
264,56,2330,1,0,0:0:0:0:
488,64,2331,1,0,0:0:0:0:
456,256,2332,1,0,0:0:0:0:
440,8,2333,1,0,0:0:0:0:
424,320,2334,1,0,0:0:0:0:
56,88,2335,1,0,0:0:0:0:
480,272,2336,1,0,0:0:0:0:
56,304,2337,1,0,0:0:0:0:
104,64,2338,1,0,0:0:0:0:
448,64,2339,1,0,0:0:0:0:
160,72,2340,1,0,0:0:0:0:
104,8,2341,1,0,0:0:0:0:
360,320,2342,1,0,0:0:0:0:
80,272,2343,1,0,0:0:0:0:
416,48,2344,1,0,0:0:0:0:
176,336,2345,1,0,0:0:0:0:
88,88,2346,1,0,0:0:0:0:
96,312,2347,1,0,0:0:0:0:
112,296,2348,1,0,0:0:0:0:
432,296,2349,1,0,0:0:0:0:
384,16,2350,1,0,0:0:0:0:
432,224,2351,1,0,0:0:0:0:
136,88,2352,1,0,0:0:0:0:
80,336,2353,1,0,0:0:0:0:
384,288,2354,1,0,0:0:0:0:
416,24,2355,1,0,0:0:0:0:
384,48,2356,1,0,0:0:0:0:
464,8,2357,1,0,0:0:0:0:
56,344,2358,1,0,0:0:0:0:
464,336,2359,1,0,0:0:0:0:
424,64,2360,1,0,0:0:0:0:
80,32,2361,1,0,0:0:0:0:
352,344,2362,1,0,0:0:0:0:
144,152,2363,1,0,0:0:0:0:
408,344,2364,1,0,0:0:0:0:
48,8,2365,1,0,0:0:0:0:
424,16,2366,1,0,0:0:0:0:
64,16,2367,1,0,0:0:0:0:
440,328,2368,1,0,0:0:0:0:
384,48,2369,1,0,0:0:0:0:
208,144,2370,1,0,0:0:0:0:
480,8,2371,1,0,0:0:0:0:
384,40,2372,1,0,0:0:0:0:
40,96,2373,1,0,0:0:0:0:
88,48,2374,1,0,0:0:0:0:
152,8,2375,1,0,0:0:0:0:
496,320,2376,1,0,0:0:0:0:
328,240,2377,1,0,0:0:0:0:
96,232,2378,1,0,0:0:0:0:
432,40,2379,1,0,0:0:0:0:
56,40,2380,1,0,0:0:0:0:
232,80,2381,1,0,0:0:0:0:
240,168,2382,1,0,0:0:0:0:
128,304,2383,1,0,0:0:0:0:
64,32,2384,1,0,0:0:0:0:
128,56,2385,1,0,0:0:0:0:
104,184,2386,1,0,0:0:0:0:
136,344,2387,1,0,0:0:0:0:
160,48,2388,5,0,0:0:0:0:
136,272,2389,1,0,0:0:0:0:
344,336,2390,1,0,0:0:0:0:
176,304,2391,1,0,0:0:0:0:
112,320,2392,1,0,0:0:0:0:
440,48,2393,1,0,0:0:0:0:
432,264,2394,1,0,0:0:0:0:
160,80,2395,1,0,0:0:0:0:
96,64,2396,1,0,0:0:0:0:
368,336,2397,1,0,0:0:0:0:
80,128,2398,1,0,0:0:0:0:
136,296,2399,1,0,0:0:0:0:
376,64,2400,1,0,0:0:0:0:
456,80,2401,1,0,0:0:0:0:
176,80,2402,1,0,0:0:0:0:
144,56,2403,1,0,0:0:0:0:
104,272,2404,1,0,0:0:0:0:
368,320,2405,1,0,0:0:0:0:
224,312,2406,1,0,0:0:0:0:
160,72,2407,1,0,0:0:0:0:
360,40,2408,1,0,0:0:0:0:
464,224,2409,1,0,0:0:0:0:
48,240,2410,1,0,0:0:0:0:
104,104,2411,1,0,0:0:0:0:
408,224,2412,1,0,0:0:0:0:
88,240,2413,1,0,0:0:0:0:
40,56,2414,1,0,0:0:0:0:
96,80,2415,1,0,0:0:0:0:
376,32,2416,1,0,0:0:0:0:
216,216,2417,1,0,0:0:0:0:
408,8,2418,1,0,0:0:0:0:
432,224,2419,1,0,0:0:0:0:
408,248,2420,1,0,0:0:0:0:
144,104,2421,1,0,0:0:0:0:
104,112,2422,1,0,0:0:0:0:
408,120,2423,5,0,0:0:0:0:
80,128,2424,1,0,0:0:0:0:
72,152,2425,1,0,0:0:0:0:
72,176,2426,1,0,0:0:0:0:
88,192,2427,1,0,0:0:0:0:
464,304,2428,1,0,0:0:0:0:
112,200,2429,1,0,0:0:0:0:
136,192,2430,1,0,0:0:0:0:
144,152,2431,1,0,0:0:0:0:
152,176,2432,1,0,0:0:0:0:
168,208,2433,1,0,0:0:0:0:
408,280,2434,1,0,0:0:0:0:
184,184,2435,1,0,0:0:0:0:
192,136,2436,1,0,0:0:0:0:
112,168,2437,1,0,0:0:0:0:
168,128,2438,1,0,0:0:0:0:
200,160,2439,1,0,0:0:0:0:
208,216,2440,1,0,0:0:0:0:
144,232,2441,1,0,0:0:0:0:
120,32,2442,1,0,0:0:0:0:
208,176,2443,1,0,0:0:0:0:
168,160,2444,1,0,0:0:0:0:
400,320,2445,1,0,0:0:0:0:
232,152,2446,1,0,0:0:0:0:
112,248,2447,1,0,0:0:0:0:
112,136,2448,1,0,0:0:0:0:
112,232,2449,1,0,0:0:0:0:
456,256,2450,1,0,0:0:0:0:
176,248,2451,1,0,0:0:0:0:
240,208,2452,1,0,0:0:0:0:
224,112,2453,1,0,0:0:0:0:
48,16,2454,1,0,0:0:0:0:
192,96,2455,1,0,0:0:0:0:
448,64,2456,1,0,0:0:0:0:
136,272,2457,1,0,0:0:0:0:
200,328,2458,1,0,0:0:0:0:
208,248,2459,1,0,0:0:0:0:
56,208,2460,1,0,0:0:0:0:
416,48,2461,1,0,0:0:0:0:
248,184,2462,1,0,0:0:0:0:
256,136,2463,1,0,0:0:0:0:
152,336,2464,1,0,0:0:0:0:
224,88,2465,1,0,0:0:0:0:
48,136,2466,1,0,0:0:0:0:
432,296,2467,1,0,0:0:0:0:
368,256,2468,1,0,0:0:0:0:
304,144,2469,1,0,0:0:0:0:
208,64,2470,1,0,0:0:0:0:
320,200,2471,1,0,0:0:0:0:
384,288,2472,1,0,0:0:0:0:
256,96,2473,1,0,0:0:0:0:
280,176,2474,1,0,0:0:0:0:
264,216,2475,1,0,0:0:0:0:
248,240,2476,1,0,0:0:0:0:
288,216,2477,1,0,0:0:0:0:
424,64,2478,1,0,0:0:0:0:
464,336,2479,1,0,0:0:0:0:
176,288,2480,1,0,0:0:0:0:
224,288,2481,1,0,0:0:0:0:
232,48,2482,1,0,0:0:0:0:
320,184,2484,1,0,0:0:0:0:
264,56,2485,1,0,0:0:0:0:
64,56,2486,5,0,0:0:0:0:
48,64,2487,1,0,0:0:0:0:
392,32,2488,1,0,0:0:0:0:
464,304,2489,1,0,0:0:0:0:
200,24,2490,1,0,0:0:0:0:
408,120,2491,5,0,0:0:0:0:
40,336,2492,1,0,0:0:0:0:
464,32,2493,1,0,0:0:0:0:
40,264,2494,1,0,0:0:0:0:
408,280,2495,1,0,0:0:0:0:
120,32,2496,1,0,0:0:0:0:
256,344,2497,1,0,0:0:0:0:
224,256,2498,1,0,0:0:0:0:
144,8,2499,1,0,0:0:0:0:
128,304,2500,1,0,0:0:0:0:
448,120,2501,1,0,0:0:0:0:
480,32,2502,1,0,0:0:0:0:
496,16,2503,1,0,0:0:0:0:
176,8,2504,1,0,0:0:0:0:
464,120,2505,1,0,0:0:0:0:
64,16,2506,1,0,0:0:0:0:
400,320,2507,1,0,0:0:0:0:
72,232,2508,1,0,0:0:0:0:
128,8,2509,1,0,0:0:0:0:
488,64,2510,1,0,0:0:0:0:
456,256,2511,1,0,0:0:0:0:
440,8,2512,1,0,0:0:0:0:
432,184,2513,1,0,0:0:0:0:
56,88,2514,1,0,0:0:0:0:
480,272,2515,1,0,0:0:0:0:
56,304,2516,1,0,0:0:0:0:
104,64,2517,1,0,0:0:0:0:
448,64,2518,1,0,0:0:0:0:
200,160,2519,1,0,0:0:0:0:
104,8,2520,1,0,0:0:0:0:
360,320,2521,1,0,0:0:0:0:
80,272,2522,1,0,0:0:0:0:
416,48,2523,1,0,0:0:0:0:
232,32,2524,1,0,0:0:0:0:
88,88,2525,1,0,0:0:0:0:
96,312,2526,1,0,0:0:0:0:
384,40,2527,1,0,0:0:0:0:
432,296,2528,1,0,0:0:0:0:
384,16,2529,1,0,0:0:0:0:
384,296,2530,1,0,0:0:0:0:
136,88,2531,1,0,0:0:0:0:
80,336,2532,1,0,0:0:0:0:
384,288,2533,1,0,0:0:0:0:
416,24,2534,1,0,0:0:0:0:
128,128,2535,1,0,0:0:0:0:
232,80,2536,1,0,0:0:0:0:
56,344,2537,1,0,0:0:0:0:
464,336,2538,1,0,0:0:0:0:
424,64,2539,1,0,0:0:0:0:
80,32,2540,1,0,0:0:0:0:
104,184,2541,1,0,0:0:0:0:
184,144,2542,1,0,0:0:0:0:
408,344,2543,1,0,0:0:0:0:
48,8,2544,1,0,0:0:0:0:
272,312,2545,1,0,0:0:0:0:
144,56,2546,1,0,0:0:0:0:
440,328,2547,1,0,0:0:0:0:
384,48,2548,1,0,0:0:0:0:
464,296,2549,1,0,0:0:0:0:
480,8,2550,1,0,0:0:0:0:
184,40,2551,1,0,0:0:0:0:
288,24,2552,1,0,0:0:0:0:
208,272,2553,1,0,0:0:0:0:
152,8,2554,1,0,0:0:0:0:
496,320,2555,1,0,0:0:0:0:
456,80,2556,1,0,0:0:0:0:
176,80,2557,1,0,0:0:0:0:
432,40,2558,1,0,0:0:0:0:
56,40,2559,1,0,0:0:0:0:
304,128,2560,1,0,0:0:0:0:
168,160,2561,1,0,0:0:0:0:
128,304,2562,1,0,0:0:0:0:
144,64,2563,1,0,0:0:0:0:
128,56,2564,1,0,0:0:0:0:
56,168,2565,1,0,0:0:0:0:
136,344,2566,1,0,0:0:0:0:
160,48,2567,5,0,0:0:0:0:
184,304,2568,1,0,0:0:0:0:
344,336,2569,1,0,0:0:0:0:
328,288,2570,1,0,0:0:0:0:
112,320,2571,1,0,0:0:0:0:
440,48,2572,1,0,0:0:0:0:
432,264,2573,1,0,0:0:0:0:
48,320,2574,1,0,0:0:0:0:
96,64,2575,1,0,0:0:0:0:
368,336,2576,1,0,0:0:0:0:
56,208,2577,1,0,0:0:0:0:
136,296,2578,1,0,0:0:0:0:
376,64,2579,1,0,0:0:0:0:
264,40,2580,1,0,0:0:0:0:
144,176,2581,1,0,0:0:0:0:
144,56,2582,1,0,0:0:0:0:
104,272,2583,1,0,0:0:0:0:
368,320,2584,1,0,0:0:0:0:
240,136,2585,1,0,0:0:0:0:
160,72,2586,1,0,0:0:0:0:
360,40,2587,1,0,0:0:0:0:
464,224,2588,1,0,0:0:0:0:
48,240,2589,1,0,0:0:0:0:
392,80,2590,1,0,0:0:0:0:
40,96,2591,1,0,0:0:0:0:
88,240,2592,1,0,0:0:0:0:
40,56,2593,1,0,0:0:0:0:
96,80,2594,1,0,0:0:0:0:
376,32,2595,1,0,0:0:0:0:
320,72,2596,1,0,0:0:0:0:
408,8,2597,1,0,0:0:0:0:
432,224,2598,1,0,0:0:0:0:
408,248,2599,1,0,0:0:0:0:
144,104,2600,1,0,0:0:0:0:
104,112,2601,1,0,0:0:0:0:
112,248,2602,1,0,0:0:0:0:
80,128,2603,1,0,0:0:0:0:
72,152,2604,1,0,0:0:0:0:
72,176,2605,1,0,0:0:0:0:
88,192,2606,1,0,0:0:0:0:
160,128,2607,1,0,0:0:0:0:
112,200,2608,1,0,0:0:0:0:
136,192,2609,1,0,0:0:0:0:
144,152,2610,1,0,0:0:0:0:
152,176,2611,1,0,0:0:0:0:
168,208,2612,1,0,0:0:0:0:
200,328,2613,1,0,0:0:0:0:
184,184,2614,1,0,0:0:0:0:
192,136,2615,1,0,0:0:0:0:
112,168,2616,1,0,0:0:0:0:
168,128,2617,1,0,0:0:0:0:
176,48,2618,1,0,0:0:0:0:
208,216,2619,1,0,0:0:0:0:
144,232,2620,1,0,0:0:0:0:
408,176,2621,1,0,0:0:0:0:
208,176,2622,1,0,0:0:0:0:
168,160,2623,1,0,0:0:0:0:
304,144,2624,1,0,0:0:0:0:
232,152,2625,1,0,0:0:0:0:
320,200,2626,1,0,0:0:0:0:
112,136,2627,1,0,0:0:0:0:
112,232,2628,1,0,0:0:0:0:
360,16,2629,1,0,0:0:0:0:
176,248,2630,1,0,0:0:0:0:
240,208,2631,1,0,0:0:0:0:
224,112,2632,1,0,0:0:0:0:
136,88,2633,1,0,0:0:0:0:
192,96,2634,1,0,0:0:0:0:
456,328,2635,1,0,0:0:0:0:
136,272,2636,1,0,0:0:0:0:
320,104,2637,1,0,0:0:0:0:
208,248,2638,1,0,0:0:0:0:
56,208,2639,1,0,0:0:0:0:
472,192,2640,1,0,0:0:0:0:
248,184,2641,1,0,0:0:0:0:
256,136,2642,1,0,0:0:0:0:
392,32,2643,1,0,0:0:0:0:
224,88,2644,1,0,0:0:0:0:
48,136,2645,1,0,0:0:0:0:
328,304,2646,1,0,0:0:0:0:
152,336,2647,1,0,0:0:0:0:
440,288,2648,1,0,0:0:0:0:
208,64,2649,1,0,0:0:0:0:
352,48,2650,1,0,0:0:0:0:
280,16,2651,1,0,0:0:0:0:
256,96,2652,1,0,0:0:0:0:
280,176,2653,1,0,0:0:0:0:
120,144,2654,1,0,0:0:0:0:
248,240,2655,1,0,0:0:0:0:
288,216,2656,1,0,0:0:0:0:
480,32,2657,1,0,0:0:0:0:
392,88,2658,1,0,0:0:0:0:
176,288,2659,1,0,0:0:0:0:
224,288,2660,1,0,0:0:0:0:
232,48,2661,1,0,0:0:0:0:
128,48,2662,1,0,0:0:0:0:
320,184,2663,1,0,0:0:0:0:
264,56,2664,1,0,0:0:0:0:
264,280,2665,1,0,0:0:0:0:
464,296,2666,1,0,0:0:0:0:
440,64,2667,1,0,0:0:0:0:
432,184,2668,1,0,0:0:0:0:
200,24,2669,1,0,0:0:0:0:
408,120,2670,5,0,0:0:0:0:
248,336,2671,1,0,0:0:0:0:
72,56,2672,1,0,0:0:0:0:
160,8,2673,1,0,0:0:0:0:
200,160,2674,1,0,0:0:0:0:
424,120,2675,1,0,0:0:0:0:
256,344,2676,1,0,0:0:0:0:
304,128,2677,1,0,0:0:0:0:
144,8,2678,1,0,0:0:0:0:
232,32,2679,1,0,0:0:0:0:
448,120,2680,1,0,0:0:0:0:
368,184,2681,1,0,0:0:0:0:
264,160,2682,1,0,0:0:0:0:
176,8,2683,1,0,0:0:0:0:
464,120,2684,1,0,0:0:0:0:
304,296,2685,1,0,0:0:0:0:
48,320,2686,1,0,0:0:0:0:
120,168,2687,1,0,0:0:0:0:
128,8,2688,1,0,0:0:0:0:
40,80,2689,1,0,0:0:0:0:
192,72,2690,1,0,0:0:0:0:
464,8,2691,1,0,0:0:0:0:
432,32,2692,1,0,0:0:0:0:
416,152,2693,1,0,0:0:0:0:
440,16,2695,1,0,0:0:0:0:
304,200,2696,1,0,0:0:0:0:
376,88,2697,1,0,0:0:0:0:
312,48,2698,1,0,0:0:0:0:
432,344,2699,1,0,0:0:0:0:
424,16,2700,1,0,0:0:0:0:
144,56,2701,1,0,0:0:0:0:
200,8,2702,1,0,0:0:0:0:
128,240,2703,1,0,0:0:0:0:
320,96,2704,1,0,0:0:0:0:
64,320,2705,1,0,0:0:0:0:
384,40,2706,1,0,0:0:0:0:
296,72,2707,1,0,0:0:0:0:
88,48,2708,1,0,0:0:0:0:
384,296,2709,1,0,0:0:0:0:
320,88,2710,1,0,0:0:0:0:
328,240,2711,1,0,0:0:0:0:
384,240,2712,1,0,0:0:0:0:
160,248,2713,1,0,0:0:0:0:
128,128,2714,1,0,0:0:0:0:
232,80,2715,1,0,0:0:0:0:
240,168,2716,1,0,0:0:0:0:
360,160,2717,1,0,0:0:0:0:
168,328,2718,1,0,0:0:0:0:
264,272,2719,1,0,0:0:0:0:
104,184,2720,1,0,0:0:0:0:
184,144,2721,1,0,0:0:0:0:
320,0,2722,1,0,0:0:0:0:
336,104,2723,1,0,0:0:0:0:
272,312,2724,1,0,0:0:0:0:
104,128,2725,1,0,0:0:0:0:
368,112,2726,1,0,0:0:0:0:
104,296,2727,1,0,0:0:0:0:
464,296,2728,1,0,0:0:0:0:
336,152,2729,1,0,0:0:0:0:
368,144,2730,1,0,0:0:0:0:
64,56,2731,5,0,0:0:0:0:
288,312,2732,1,0,0:0:0:0:
208,216,2733,1,0,0:0:0:0:
464,304,2734,1,0,0:0:0:0:
456,80,2735,1,0,0:0:0:0:
176,80,2736,1,0,0:0:0:0:
40,336,2737,1,0,0:0:0:0:
464,32,2738,1,0,0:0:0:0:
40,264,2739,1,0,0:0:0:0:
408,280,2740,1,0,0:0:0:0:
120,32,2741,1,0,0:0:0:0:
144,64,2742,1,0,0:0:0:0:
64,272,2743,1,0,0:0:0:0:
56,168,2744,1,0,0:0:0:0:
368,296,2745,1,0,0:0:0:0:
408,224,2746,1,0,0:0:0:0:
184,304,2747,1,0,0:0:0:0:
496,16,2748,1,0,0:0:0:0:
328,288,2749,1,0,0:0:0:0:
360,208,2750,5,0,0:0:0:0:
64,16,2751,1,0,0:0:0:0:
400,320,2752,1,0,0:0:0:0:
48,320,2753,1,0,0:0:0:0:
344,136,2754,1,0,0:0:0:0:
488,64,2755,1,0,0:0:0:0:
456,256,2756,1,0,0:0:0:0:
440,8,2757,1,0,0:0:0:0:
232,320,2758,1,0,0:0:0:0:
56,88,2759,1,0,0:0:0:0:
480,272,2760,1,0,0:0:0:0:
56,304,2761,1,0,0:0:0:0:
104,64,2762,1,0,0:0:0:0:
448,64,2763,1,0,0:0:0:0:
240,136,2764,1,0,0:0:0:0:
104,8,2765,1,0,0:0:0:0:
360,320,2766,1,0,0:0:0:0:
80,272,2767,1,0,0:0:0:0:
416,48,2768,1,0,0:0:0:0:
392,80,2769,1,0,0:0:0:0:
88,88,2770,1,0,0:0:0:0:
96,312,2771,1,0,0:0:0:0:
256,40,2772,1,0,0:0:0:0:
432,296,2773,1,0,0:0:0:0:
384,16,2774,1,0,0:0:0:0:
320,72,2775,1,0,0:0:0:0:
136,88,2776,1,0,0:0:0:0:
80,336,2777,1,0,0:0:0:0:
384,288,2778,1,0,0:0:0:0:
416,24,2779,1,0,0:0:0:0:
296,112,2780,1,0,0:0:0:0:
112,248,2781,1,0,0:0:0:0:
56,344,2782,1,0,0:0:0:0:
464,336,2783,1,0,0:0:0:0:
424,64,2784,1,0,0:0:0:0:
80,32,2785,1,0,0:0:0:0:
40,112,2786,1,0,0:0:0:0:
360,16,2787,1,0,0:0:0:0:
408,344,2788,1,0,0:0:0:0:
48,8,2789,1,0,0:0:0:0:
304,88,2790,1,0,0:0:0:0:
416,128,2791,1,0,0:0:0:0:
440,328,2792,1,0,0:0:0:0:
384,48,2793,1,0,0:0:0:0:
288,312,2794,1,0,0:0:0:0:
480,8,2795,1,0,0:0:0:0:
320,56,2796,1,0,0:0:0:0:
176,48,2797,1,0,0:0:0:0:
152,336,2798,1,0,0:0:0:0:
152,8,2799,1,0,0:0:0:0:
496,320,2800,1,0,0:0:0:0:
80,336,2801,1,0,0:0:0:0:
368,256,2802,1,0,0:0:0:0:
432,40,2803,1,0,0:0:0:0:
56,40,2804,1,0,0:0:0:0:
320,200,2805,1,0,0:0:0:0:
88,224,2806,1,0,0:0:0:0:
128,304,2807,1,0,0:0:0:0:
360,16,2808,1,0,0:0:0:0:
128,56,2809,1,0,0:0:0:0:
264,80,2810,1,0,0:0:0:0:
136,344,2811,1,0,0:0:0:0:
160,48,2812,5,0,0:0:0:0:
192,176,2813,1,0,0:0:0:0:
344,336,2814,1,0,0:0:0:0:
64,344,2815,1,0,0:0:0:0:
112,320,2816,1,0,0:0:0:0:
440,48,2817,1,0,0:0:0:0:
432,264,2818,1,0,0:0:0:0:
472,192,2819,1,0,0:0:0:0:
96,64,2820,1,0,0:0:0:0:
368,336,2821,1,0,0:0:0:0:
392,32,2822,1,0,0:0:0:0:
136,296,2823,1,0,0:0:0:0:
376,64,2824,1,0,0:0:0:0:
328,304,2825,1,0,0:0:0:0:
152,336,2826,1,0,0:0:0:0:
144,56,2827,1,0,0:0:0:0:
104,272,2828,1,0,0:0:0:0:
368,320,2829,1,0,0:0:0:0:
280,16,2830,1,0,0:0:0:0:
160,72,2831,1,0,0:0:0:0:
360,40,2832,1,0,0:0:0:0:
464,224,2833,1,0,0:0:0:0:
48,240,2834,1,0,0:0:0:0:
216,48,2835,1,0,0:0:0:0:
480,32,2836,1,0,0:0:0:0:
88,240,2837,1,0,0:0:0:0:
40,56,2838,1,0,0:0:0:0:
96,80,2839,1,0,0:0:0:0:
376,32,2840,1,0,0:0:0:0:
128,48,2841,1,0,0:0:0:0:
408,8,2842,1,0,0:0:0:0:
432,224,2843,1,0,0:0:0:0:
408,248,2844,1,0,0:0:0:0:
144,104,2845,1,0,0:0:0:0:
104,112,2846,1,0,0:0:0:0:
432,184,2847,1,0,0:0:0:0:
80,128,2848,1,0,0:0:0:0:
72,152,2849,1,0,0:0:0:0:
72,176,2850,1,0,0:0:0:0:
88,192,2851,1,0,0:0:0:0:
176,40,2852,1,0,0:0:0:0:
112,200,2853,1,0,0:0:0:0:
136,192,2854,1,0,0:0:0:0:
144,152,2855,1,0,0:0:0:0:
152,176,2856,1,0,0:0:0:0:
168,208,2857,1,0,0:0:0:0:
232,32,2858,1,0,0:0:0:0:
184,184,2859,1,0,0:0:0:0:
192,136,2860,1,0,0:0:0:0:
112,168,2861,1,0,0:0:0:0:
168,128,2862,1,0,0:0:0:0:
304,232,2863,1,0,0:0:0:0:
208,216,2864,1,0,0:0:0:0:
144,232,2865,1,0,0:0:0:0:
120,168,2866,1,0,0:0:0:0:
208,176,2867,1,0,0:0:0:0:
168,160,2868,1,0,0:0:0:0:
192,72,2869,1,0,0:0:0:0:
232,152,2870,1,0,0:0:0:0:
432,32,2871,1,0,0:0:0:0:
112,136,2872,1,0,0:0:0:0:
112,232,2873,1,0,0:0:0:0:
336,272,2874,1,0,0:0:0:0:
176,248,2875,1,0,0:0:0:0:
240,208,2876,1,0,0:0:0:0:
224,112,2877,1,0,0:0:0:0:
96,144,2878,1,0,0:0:0:0:
192,96,2879,1,0,0:0:0:0:
144,56,2880,1,0,0:0:0:0:
136,272,2881,1,0,0:0:0:0:
128,240,2882,1,0,0:0:0:0:
208,248,2883,1,0,0:0:0:0:
56,208,2884,1,0,0:0:0:0:
184,40,2885,1,0,0:0:0:0:
248,184,2886,1,0,0:0:0:0:
256,136,2887,1,0,0:0:0:0:
432,56,2888,1,0,0:0:0:0:
224,88,2889,1,0,0:0:0:0:
48,136,2890,1,0,0:0:0:0:
384,240,2891,1,0,0:0:0:0:
312,80,2892,1,0,0:0:0:0:
72,256,2893,1,0,0:0:0:0:
208,64,2894,1,0,0:0:0:0:
120,192,2895,1,0,0:0:0:0:
64,168,2896,1,0,0:0:0:0:
256,96,2897,1,0,0:0:0:0:
280,176,2898,1,0,0:0:0:0:
312,104,2899,1,0,0:0:0:0:
248,240,2900,1,0,0:0:0:0:
288,216,2901,1,0,0:0:0:0:
336,104,2902,1,0,0:0:0:0:
112,280,2903,1,0,0:0:0:0:
176,288,2904,1,0,0:0:0:0:
224,288,2905,1,0,0:0:0:0:
232,48,2906,1,0,0:0:0:0:
256,0,2907,1,0,0:0:0:0:
320,184,2908,1,0,0:0:0:0:
264,56,2909,1,0,0:0:0:0:
264,280,2910,1,0,0:0:0:0:
256,136,2911,1,0,0:0:0:0:
464,160,2912,1,0,0:0:0:0:
72,312,2913,1,0,0:0:0:0:
200,24,2914,1,0,0:0:0:0:
408,120,2915,5,0,0:0:0:0:
248,336,2916,1,0,0:0:0:0:
40,336,2917,1,0,0:0:0:0:
160,8,2918,1,0,0:0:0:0:
392,144,2919,1,0,0:0:0:0:
424,120,2920,1,0,0:0:0:0:
256,344,2921,1,0,0:0:0:0:
280,176,2922,1,0,0:0:0:0:
144,8,2923,1,0,0:0:0:0:
368,296,2924,1,0,0:0:0:0:
448,120,2925,1,0,0:0:0:0:
368,72,2926,1,0,0:0:0:0:
152,200,2927,1,0,0:0:0:0:
176,8,2928,1,0,0:0:0:0:
464,120,2929,1,0,0:0:0:0:
200,48,2930,1,0,0:0:0:0:
192,208,2931,1,0,0:0:0:0:
288,256,2932,1,0,0:0:0:0:
128,8,2933,1,0,0:0:0:0:
488,64,2934,1,0,0:0:0:0:
424,48,2935,1,0,0:0:0:0:
464,8,2936,1,0,0:0:0:0:
320,320,2937,1,0,0:0:0:0:
208,328,2938,1,0,0:0:0:0:
480,272,2939,1,0,0:0:0:0:
440,16,2940,1,0,0:0:0:0:
160,128,2941,1,0,0:0:0:0:
296,64,2942,1,0,0:0:0:0:
448,64,2943,1,0,0:0:0:0:
432,344,2944,1,0,0:0:0:0:
424,16,2945,1,0,0:0:0:0:
184,200,2946,1,0,0:0:0:0:
200,8,2947,1,0,0:0:0:0:
264,176,2948,1,0,0:0:0:0:
360,128,2949,1,0,0:0:0:0:
64,320,2950,1,0,0:0:0:0:
64,56,2951,5,0,0:0:0:0:
160,88,2952,1,0,0:0:0:0:
88,48,2953,1,0,0:0:0:0:
464,304,2954,1,0,0:0:0:0:
320,88,2955,1,0,0:0:0:0:
328,240,2956,1,0,0:0:0:0:
40,336,2957,1,0,0:0:0:0:
464,32,2958,1,0,0:0:0:0:
40,264,2959,1,0,0:0:0:0:
408,280,2960,1,0,0:0:0:0:
120,32,2961,1,0,0:0:0:0:
360,160,2962,1,0,0:0:0:0:
288,320,2963,1,0,0:0:0:0:
264,272,2964,1,0,0:0:0:0:
104,184,2965,1,0,0:0:0:0:
184,144,2966,1,0,0:0:0:0:
320,0,2967,1,0,0:0:0:0:
496,16,2968,1,0,0:0:0:0:
272,312,2969,1,0,0:0:0:0:
296,176,2970,1,0,0:0:0:0:
64,16,2971,1,0,0:0:0:0:
400,320,2972,1,0,0:0:0:0:
464,296,2973,1,0,0:0:0:0:
144,272,2974,1,0,0:0:0:0:
488,64,2975,1,0,0:0:0:0:
456,256,2976,1,0,0:0:0:0:
440,8,2977,1,0,0:0:0:0:
208,216,2978,1,0,0:0:0:0:
56,88,2979,1,0,0:0:0:0:
480,272,2980,1,0,0:0:0:0:
56,304,2981,1,0,0:0:0:0:
104,64,2982,1,0,0:0:0:0:
448,64,2983,1,0,0:0:0:0:
304,128,2984,1,0,0:0:0:0:
104,8,2985,1,0,0:0:0:0:
360,320,2986,1,0,0:0:0:0:
80,272,2987,1,0,0:0:0:0:
416,48,2988,1,0,0:0:0:0:
56,168,2989,1,0,0:0:0:0:
88,88,2990,1,0,0:0:0:0:
96,312,2991,1,0,0:0:0:0:
184,304,2992,1,0,0:0:0:0:
432,296,2993,1,0,0:0:0:0:
384,16,2994,1,0,0:0:0:0:
360,208,2995,5,0,0:0:0:0:
136,88,2996,1,0,0:0:0:0:
80,336,2997,1,0,0:0:0:0:
384,288,2998,1,0,0:0:0:0:
416,24,2999,1,0,0:0:0:0:
112,40,3000,1,0,0:0:0:0:
368,336,3001,1,0,0:0:0:0:
56,344,3002,1,0,0:0:0:0:
464,336,3003,1,0,0:0:0:0:
424,64,3004,1,0,0:0:0:0:
80,32,3005,1,0,0:0:0:0:
72,56,3006,1,0,0:0:0:0:
272,48,3007,1,0,0:0:0:0:
408,344,3008,1,0,0:0:0:0:
48,8,3009,1,0,0:0:0:0:
48,112,3010,1,0,0:0:0:0:
272,56,3011,1,0,0:0:0:0:
440,328,3012,1,0,0:0:0:0:
384,48,3013,1,0,0:0:0:0:
392,80,3014,1,0,0:0:0:0:
480,8,3015,1,0,0:0:0:0:
256,304,3016,1,0,0:0:0:0:
416,320,3017,1,0,0:0:0:0:
448,240,3018,1,0,0:0:0:0:
152,8,3019,1,0,0:0:0:0:
496,320,3020,1,0,0:0:0:0:
120,32,3021,1,0,0:0:0:0:
280,296,3022,1,0,0:0:0:0:
432,40,3023,1,0,0:0:0:0:
56,40,3024,1,0,0:0:0:0:
296,112,3025,1,0,0:0:0:0:
112,248,3026,1,0,0:0:0:0:
128,304,3027,1,0,0:0:0:0:
72,80,3028,1,0,0:0:0:0:
128,56,3029,1,0,0:0:0:0:
440,344,3030,1,0,0:0:0:0:
136,344,3031,1,0,0:0:0:0:
160,48,3032,5,0,0:0:0:0:
48,16,3033,1,0,0:0:0:0:
344,336,3034,1,0,0:0:0:0:
208,144,3035,1,0,0:0:0:0:
112,320,3036,1,0,0:0:0:0:
440,48,3037,1,0,0:0:0:0:
432,264,3038,1,0,0:0:0:0:
288,312,3039,1,0,0:0:0:0:
96,64,3040,1,0,0:0:0:0:
368,336,3041,1,0,0:0:0:0:
176,48,3042,1,0,0:0:0:0:
136,296,3043,1,0,0:0:0:0:
376,64,3044,1,0,0:0:0:0:
408,176,3045,1,0,0:0:0:0:
360,328,3046,1,0,0:0:0:0:
144,56,3047,1,0,0:0:0:0:
104,272,3048,1,0,0:0:0:0:
368,320,3049,1,0,0:0:0:0:
320,200,3050,1,0,0:0:0:0:
160,72,3051,1,0,0:0:0:0:
360,40,3052,1,0,0:0:0:0:
464,224,3053,1,0,0:0:0:0:
48,240,3054,1,0,0:0:0:0:
264,80,3055,1,0,0:0:0:0:
104,288,3056,1,0,0:0:0:0:
88,240,3057,1,0,0:0:0:0:
40,56,3058,1,0,0:0:0:0:
96,80,3059,1,0,0:0:0:0:
376,32,3060,1,0,0:0:0:0:
320,104,3061,1,0,0:0:0:0:
408,8,3062,1,0,0:0:0:0:
432,224,3063,1,0,0:0:0:0:
408,248,3064,1,0,0:0:0:0:
144,104,3065,1,0,0:0:0:0:
104,112,3066,1,0,0:0:0:0:
392,32,3067,1,0,0:0:0:0:
80,128,3068,1,0,0:0:0:0:
72,152,3069,1,0,0:0:0:0:
72,176,3070,1,0,0:0:0:0:
88,192,3071,1,0,0:0:0:0:
304,144,3072,1,0,0:0:0:0:
112,200,3073,1,0,0:0:0:0:
136,192,3074,1,0,0:0:0:0:
144,152,3075,1,0,0:0:0:0:
152,176,3076,1,0,0:0:0:0:
168,208,3077,1,0,0:0:0:0:
120,144,3078,1,0,0:0:0:0:
184,184,3079,1,0,0:0:0:0:
192,136,3080,1,0,0:0:0:0:
112,168,3081,1,0,0:0:0:0:
168,128,3082,1,0,0:0:0:0:
384,192,3083,1,0,0:0:0:0:
208,216,3084,1,0,0:0:0:0:
144,232,3085,1,0,0:0:0:0:
128,48,3086,1,0,0:0:0:0:
208,176,3087,1,0,0:0:0:0:
168,160,3088,1,0,0:0:0:0:
288,88,3089,1,0,0:0:0:0:
232,152,3090,1,0,0:0:0:0:
440,64,3091,1,0,0:0:0:0:
112,136,3092,1,0,0:0:0:0:
112,232,3093,1,0,0:0:0:0:
48,264,3094,1,0,0:0:0:0:
176,248,3095,1,0,0:0:0:0:
240,208,3096,1,0,0:0:0:0:
224,112,3097,1,0,0:0:0:0:
200,160,3098,1,0,0:0:0:0:
192,96,3099,1,0,0:0:0:0:
440,312,3100,1,0,0:0:0:0:
136,272,3101,1,0,0:0:0:0:
312,128,3102,1,0,0:0:0:0:
208,248,3103,1,0,0:0:0:0:
56,208,3104,1,0,0:0:0:0:
368,184,3105,1,0,0:0:0:0:
248,184,3106,1,0,0:0:0:0:
256,136,3107,1,0,0:0:0:0:
304,232,3108,1,0,0:0:0:0:
224,88,3109,1,0,0:0:0:0:
48,136,3110,1,0,0:0:0:0:
120,168,3111,1,0,0:0:0:0:
40,264,3112,1,0,0:0:0:0:
40,80,3113,1,0,0:0:0:0:
208,64,3114,1,0,0:0:0:0:
368,64,3115,1,0,0:0:0:0:
432,32,3116,1,0,0:0:0:0:
256,96,3117,1,0,0:0:0:0:
280,176,3118,1,0,0:0:0:0:
336,272,3119,1,0,0:0:0:0:
248,240,3120,1,0,0:0:0:0:
288,216,3121,1,0,0:0:0:0:
312,48,3122,1,0,0:0:0:0:
104,64,3123,1,0,0:0:0:0:
176,288,3124,1,0,0:0:0:0:
224,288,3125,1,0,0:0:0:0:
232,48,3126,1,0,0:0:0:0:
128,240,3127,1,0,0:0:0:0:
320,184,3128,1,0,0:0:0:0:
264,56,3129,1,0,0:0:0:0:
264,280,3130,1,0,0:0:0:0:
432,296,3131,1,0,0:0:0:0:
208,272,3132,1,0,0:0:0:0:
432,56,3133,1,0,0:0:0:0:
200,24,3134,1,0,0:0:0:0:
408,120,3135,5,0,0:0:0:0:
248,336,3136,1,0,0:0:0:0:
312,80,3137,1,0,0:0:0:0:
160,8,3138,1,0,0:0:0:0:
64,304,3139,1,0,0:0:0:0:
424,120,3140,1,0,0:0:0:0:
256,344,3141,1,0,0:0:0:0:
168,328,3142,1,0,0:0:0:0:
144,8,3143,1,0,0:0:0:0:
464,336,3144,1,0,0:0:0:0:
448,120,3145,1,0,0:0:0:0:
392,24,3146,1,0,0:0:0:0:
336,104,3147,1,0,0:0:0:0:
176,8,3148,1,0,0:0:0:0:
464,120,3149,1,0,0:0:0:0:
144,136,3150,1,0,0:0:0:0:
384,48,3151,1,0,0:0:0:0:
256,0,3152,1,0,0:0:0:0:
128,8,3153,1,0,0:0:0:0:
368,144,3154,1,0,0:0:0:0:
416,104,3155,1,0,0:0:0:0:
464,8,3156,1,0,0:0:0:0:
464,160,3157,1,0,0:0:0:0:
72,312,3158,1,0,0:0:0:0:
64,56,3159,5,0,0:0:0:0:
440,16,3160,1,0,0:0:0:0:
496,320,3161,1,0,0:0:0:0:
464,304,3162,1,0,0:0:0:0:
48,288,3163,1,0,0:0:0:0:
432,344,3164,1,0,0:0:0:0:
40,336,3165,1,0,0:0:0:0:
464,32,3166,1,0,0:0:0:0:
40,264,3167,1,0,0:0:0:0:
408,280,3168,1,0,0:0:0:0:
120,32,3169,1,0,0:0:0:0:
64,320,3170,1,0,0:0:0:0:
384,40,3171,1,0,0:0:0:0:
152,200,3172,1,0,0:0:0:0:
88,48,3173,1,0,0:0:0:0:
384,296,3174,1,0,0:0:0:0:
320,88,3175,1,0,0:0:0:0:
496,16,3176,1,0,0:0:0:0:
288,256,3177,1,0,0:0:0:0:
160,248,3178,1,0,0:0:0:0:
64,16,3179,1,0,0:0:0:0:
400,320,3180,1,0,0:0:0:0:
240,168,3181,1,0,0:0:0:0:
360,160,3182,1,0,0:0:0:0:
488,64,3183,1,0,0:0:0:0:
456,256,3184,1,0,0:0:0:0:
440,8,3185,1,0,0:0:0:0:
184,144,3186,1,0,0:0:0:0:
56,88,3187,1,0,0:0:0:0:
480,272,3188,1,0,0:0:0:0:
56,304,3189,1,0,0:0:0:0:
104,64,3190,1,0,0:0:0:0:
448,64,3191,1,0,0:0:0:0:
480,304,3192,1,0,0:0:0:0:
104,8,3193,1,0,0:0:0:0:
360,320,3194,1,0,0:0:0:0:
80,272,3195,1,0,0:0:0:0:
416,48,3196,1,0,0:0:0:0:
160,88,3197,1,0,0:0:0:0:
88,88,3198,1,0,0:0:0:0:
96,312,3199,1,0,0:0:0:0:
456,80,3200,1,0,0:0:0:0:
432,296,3201,1,0,0:0:0:0:
384,16,3202,1,0,0:0:0:0:
384,344,3203,1,0,0:0:0:0:
136,88,3204,1,0,0:0:0:0:
80,336,3205,1,0,0:0:0:0:
384,288,3206,1,0,0:0:0:0:
416,24,3207,1,0,0:0:0:0:
64,272,3208,1,0,0:0:0:0:
56,168,3209,1,0,0:0:0:0:
56,344,3210,1,0,0:0:0:0:
464,336,3211,1,0,0:0:0:0:
424,64,3212,1,0,0:0:0:0:
80,32,3213,1,0,0:0:0:0:
328,288,3214,1,0,0:0:0:0:
360,208,3215,5,0,0:0:0:0:
408,344,3216,1,0,0:0:0:0:
48,8,3217,1,0,0:0:0:0:
48,320,3218,1,0,0:0:0:0:
344,136,3219,1,0,0:0:0:0:
440,328,3220,1,0,0:0:0:0:
384,48,3221,1,0,0:0:0:0:
184,248,3222,1,0,0:0:0:0:
480,8,3223,1,0,0:0:0:0:
264,40,3224,1,0,0:0:0:0:
144,176,3225,1,0,0:0:0:0:
376,184,3226,1,0,0:0:0:0:
152,8,3227,1,0,0:0:0:0:
496,320,3228,1,0,0:0:0:0:
240,136,3229,1,0,0:0:0:0:
48,112,3230,1,0,0:0:0:0:
432,40,3231,1,0,0:0:0:0:
56,40,3232,1,0,0:0:0:0:
448,56,3233,1,0,0:0:0:0:
392,80,3234,1,0,0:0:0:0:
128,304,3235,1,0,0:0:0:0:
256,304,3236,1,0,0:0:0:0:
128,56,3237,1,0,0:0:0:0:
328,80,3238,1,0,0:0:0:0:
136,344,3239,1,0,0:0:0:0:
160,48,3240,5,0,0:0:0:0:
120,32,3241,1,0,0:0:0:0:
344,336,3242,1,0,0:0:0:0:
312,256,3243,1,0,0:0:0:0:
112,320,3244,1,0,0:0:0:0:
440,48,3245,1,0,0:0:0:0:
432,264,3246,1,0,0:0:0:0:
304,104,3247,1,0,0:0:0:0:
96,64,3248,1,0,0:0:0:0:
368,336,3249,1,0,0:0:0:0:
440,344,3250,1,0,0:0:0:0:
136,296,3251,1,0,0:0:0:0:
376,64,3252,1,0,0:0:0:0:
48,16,3253,1,0,0:0:0:0:
104,296,3254,1,0,0:0:0:0:
144,56,3255,1,0,0:0:0:0:
104,272,3256,1,0,0:0:0:0:
368,320,3257,1,0,0:0:0:0:
112,296,3258,1,0,0:0:0:0:
160,72,3259,1,0,0:0:0:0:
360,40,3260,1,0,0:0:0:0:
464,224,3261,1,0,0:0:0:0:
48,240,3262,1,0,0:0:0:0:
152,336,3263,1,0,0:0:0:0:
216,80,3264,1,0,0:0:0:0:
88,240,3265,1,0,0:0:0:0:
40,56,3266,1,0,0:0:0:0:
96,80,3267,1,0,0:0:0:0:
376,32,3268,1,0,0:0:0:0:
288,248,3269,1,0,0:0:0:0:
408,8,3270,1,0,0:0:0:0:
432,224,3271,1,0,0:0:0:0:
408,248,3272,1,0,0:0:0:0:
144,104,3273,1,0,0:0:0:0:
104,112,3274,1,0,0:0:0:0:
264,80,3275,1,0,0:0:0:0:
80,128,3276,1,0,0:0:0:0:
72,152,3277,1,0,0:0:0:0:
72,176,3278,1,0,0:0:0:0:
88,192,3279,1,0,0:0:0:0:
64,344,3280,1,0,0:0:0:0:
112,200,3281,1,0,0:0:0:0:
136,192,3282,1,0,0:0:0:0:
144,152,3283,1,0,0:0:0:0:
152,176,3284,1,0,0:0:0:0:
168,208,3285,1,0,0:0:0:0:
48,64,3286,1,0,0:0:0:0:
184,184,3287,1,0,0:0:0:0:
192,136,3288,1,0,0:0:0:0:
112,168,3289,1,0,0:0:0:0:
168,128,3290,1,0,0:0:0:0:
152,336,3291,1,0,0:0:0:0:
208,216,3292,1,0,0:0:0:0:
144,232,3293,1,0,0:0:0:0:
352,48,3294,1,0,0:0:0:0:
208,176,3295,1,0,0:0:0:0:
168,160,3296,1,0,0:0:0:0:
224,256,3297,1,0,0:0:0:0:
232,152,3298,1,0,0:0:0:0:
96,312,3299,1,0,0:0:0:0:
112,136,3300,1,0,0:0:0:0:
112,232,3301,1,0,0:0:0:0:
392,88,3302,1,0,0:0:0:0:
176,248,3303,1,0,0:0:0:0:
240,208,3304,1,0,0:0:0:0:
224,112,3305,1,0,0:0:0:0:
128,48,3306,1,0,0:0:0:0:
192,96,3307,1,0,0:0:0:0:
80,128,3308,1,0,0:0:0:0:
136,272,3309,1,0,0:0:0:0:
304,240,3310,1,0,0:0:0:0:
208,248,3311,1,0,0:0:0:0:
56,208,3312,1,0,0:0:0:0:
224,248,3313,1,0,0:0:0:0:
248,184,3314,1,0,0:0:0:0:
256,136,3315,1,0,0:0:0:0:
224,312,3316,1,0,0:0:0:0:
224,88,3317,1,0,0:0:0:0:
48,136,3318,1,0,0:0:0:0:
144,272,3319,1,0,0:0:0:0:
440,312,3320,1,0,0:0:0:0:
104,104,3321,1,0,0:0:0:0:
208,64,3322,1,0,0:0:0:0:
232,32,3323,1,0,0:0:0:0:
144,208,3324,1,0,0:0:0:0:
256,96,3325,1,0,0:0:0:0:
280,176,3326,1,0,0:0:0:0:
216,216,3327,1,0,0:0:0:0:
248,240,3328,1,0,0:0:0:0:
288,216,3329,1,0,0:0:0:0:
48,320,3330,1,0,0:0:0:0:
120,168,3331,1,0,0:0:0:0:
176,288,3332,1,0,0:0:0:0:
224,288,3333,1,0,0:0:0:0:
232,48,3334,1,0,0:0:0:0:
368,64,3335,1,0,0:0:0:0:
320,184,3336,1,0,0:0:0:0:
264,56,3337,1,0,0:0:0:0:
264,280,3338,1,0,0:0:0:0:
336,272,3339,1,0,0:0:0:0:
304,200,3340,1,0,0:0:0:0:
376,88,3341,1,0,0:0:0:0:
200,24,3342,1,0,0:0:0:0:
408,120,3343,5,0,0:0:0:0:
248,336,3344,1,0,0:0:0:0:
144,56,3345,1,0,0:0:0:0:
160,8,3346,1,0,0:0:0:0:
128,240,3347,1,0,0:0:0:0:
424,120,3348,1,0,0:0:0:0:
256,344,3349,1,0,0:0:0:0:
184,40,3350,1,0,0:0:0:0:
144,8,3351,1,0,0:0:0:0:
208,272,3352,1,0,0:0:0:0:
448,120,3353,1,0,0:0:0:0:
360,208,3354,5,0,0:0:0:0:
424,192,3355,1,0,0:0:0:0:
176,8,3356,1,0,0:0:0:0:
464,120,3357,1,0,0:0:0:0:
64,56,3358,5,0,0:0:0:0:
64,304,3359,1,0,0:0:0:0:
456,256,3360,1,0,0:0:0:0:
464,304,3361,1,0,0:0:0:0:
168,328,3362,1,0,0:0:0:0:
256,256,3363,1,0,0:0:0:0:
40,336,3364,1,0,0:0:0:0:
464,32,3365,1,0,0:0:0:0:
40,264,3366,1,0,0:0:0:0:
408,280,3367,1,0,0:0:0:0:
120,32,3368,1,0,0:0:0:0:
360,320,3369,1,0,0:0:0:0:
144,136,3370,1,0,0:0:0:0:
416,48,3371,1,0,0:0:0:0:
432,344,3372,1,0,0:0:0:0:
424,16,3373,1,0,0:0:0:0:
368,144,3374,1,0,0:0:0:0:
496,16,3375,1,0,0:0:0:0:
432,296,3376,1,0,0:0:0:0:
464,160,3377,1,0,0:0:0:0:
64,16,3378,1,0,0:0:0:0:
400,320,3379,1,0,0:0:0:0:
192,128,3380,1,0,0:0:0:0:
88,48,3381,1,0,0:0:0:0:
488,64,3382,1,0,0:0:0:0:
456,256,3383,1,0,0:0:0:0:
440,8,3384,1,0,0:0:0:0:
184,56,3385,1,0,0:0:0:0:
56,88,3386,1,0,0:0:0:0:
480,272,3387,1,0,0:0:0:0:
56,304,3388,1,0,0:0:0:0:
104,64,3389,1,0,0:0:0:0:
448,64,3390,1,0,0:0:0:0:
368,72,3391,1,0,0:0:0:0:
104,8,3392,1,0,0:0:0:0:
360,320,3393,1,0,0:0:0:0:
80,272,3394,1,0,0:0:0:0:
416,48,3395,1,0,0:0:0:0:
192,208,3396,1,0,0:0:0:0:
88,88,3397,1,0,0:0:0:0:
96,312,3398,1,0,0:0:0:0:
368,112,3399,1,0,0:0:0:0:
432,296,3400,1,0,0:0:0:0:
384,16,3401,1,0,0:0:0:0:
320,320,3402,1,0,0:0:0:0:
136,88,3403,1,0,0:0:0:0:
80,336,3404,1,0,0:0:0:0:
384,288,3405,1,0,0:0:0:0:
416,24,3406,1,0,0:0:0:0:
296,64,3407,1,0,0:0:0:0:
456,80,3408,1,0,0:0:0:0:
56,344,3409,1,0,0:0:0:0:
464,336,3410,1,0,0:0:0:0:
424,64,3411,1,0,0:0:0:0:
80,32,3412,1,0,0:0:0:0:
264,176,3413,1,0,0:0:0:0:
224,0,3414,1,0,0:0:0:0:
408,344,3415,1,0,0:0:0:0:
48,8,3416,1,0,0:0:0:0:
56,168,3417,1,0,0:0:0:0:
176,192,3418,1,0,0:0:0:0:
440,328,3419,1,0,0:0:0:0:
384,48,3420,1,0,0:0:0:0:
416,64,3421,1,0,0:0:0:0:
480,8,3422,1,0,0:0:0:0:
360,208,3423,5,0,0:0:0:0:
152,56,3424,1,0,0:0:0:0:
112,96,3425,1,0,0:0:0:0:
152,8,3426,1,0,0:0:0:0:
496,320,3427,1,0,0:0:0:0:
112,40,3428,1,0,0:0:0:0:
368,200,3429,1,0,0:0:0:0:
432,40,3430,1,0,0:0:0:0:
56,40,3431,1,0,0:0:0:0:
264,40,3432,1,0,0:0:0:0:
144,176,3433,1,0,0:0:0:0:
128,304,3434,1,0,0:0:0:0:
296,176,3435,1,0,0:0:0:0:
128,56,3436,1,0,0:0:0:0:
240,136,3437,1,0,0:0:0:0:
136,344,3438,1,0,0:0:0:0:
160,48,3439,5,0,0:0:0:0:
64,280,3440,1,0,0:0:0:0:
344,336,3441,1,0,0:0:0:0:
392,80,3442,1,0,0:0:0:0:
112,320,3443,1,0,0:0:0:0:
440,48,3444,1,0,0:0:0:0:
432,264,3445,1,0,0:0:0:0:
376,184,3446,1,0,0:0:0:0:
96,64,3447,1,0,0:0:0:0:
368,336,3448,1,0,0:0:0:0:
120,32,3449,1,0,0:0:0:0:
136,296,3450,1,0,0:0:0:0:
376,64,3451,1,0,0:0:0:0:
56,8,3452,1,0,0:0:0:0:
296,112,3453,1,0,0:0:0:0:
144,56,3454,1,0,0:0:0:0:
104,272,3455,1,0,0:0:0:0:
368,320,3456,1,0,0:0:0:0:
192,176,3457,1,0,0:0:0:0:
160,72,3458,1,0,0:0:0:0:
360,40,3459,1,0,0:0:0:0:
464,224,3460,1,0,0:0:0:0:
48,240,3461,1,0,0:0:0:0:
104,296,3462,1,0,0:0:0:0:
328,24,3463,1,0,0:0:0:0:
88,240,3464,1,0,0:0:0:0:
40,56,3465,1,0,0:0:0:0:
96,80,3466,1,0,0:0:0:0:
376,32,3467,1,0,0:0:0:0:
144,232,3468,1,0,0:0:0:0:
408,8,3469,1,0,0:0:0:0:
432,224,3470,1,0,0:0:0:0:
408,248,3471,1,0,0:0:0:0:
144,104,3472,1,0,0:0:0:0:
104,112,3473,1,0,0:0:0:0:
328,304,3474,1,0,0:0:0:0:
80,128,3475,1,0,0:0:0:0:
72,152,3476,1,0,0:0:0:0:
72,176,3477,1,0,0:0:0:0:
88,192,3478,1,0,0:0:0:0:
240,208,3479,1,0,0:0:0:0:
112,200,3480,1,0,0:0:0:0:
136,192,3481,1,0,0:0:0:0:
144,152,3482,1,0,0:0:0:0:
152,176,3483,1,0,0:0:0:0:
168,208,3484,1,0,0:0:0:0:
144,64,3485,1,0,0:0:0:0:
184,184,3486,1,0,0:0:0:0:
192,136,3487,1,0,0:0:0:0:
112,168,3488,1,0,0:0:0:0:
168,128,3489,1,0,0:0:0:0:
104,296,3490,1,0,0:0:0:0:
208,216,3491,1,0,0:0:0:0:
144,232,3492,1,0,0:0:0:0:
48,136,3493,1,0,0:0:0:0:
208,176,3494,1,0,0:0:0:0:
168,160,3495,1,0,0:0:0:0:
104,40,3496,1,0,0:0:0:0:
232,152,3497,1,0,0:0:0:0:
328,304,3498,1,0,0:0:0:0:
112,136,3499,1,0,0:0:0:0:
112,232,3500,1,0,0:0:0:0:
192,248,3501,1,0,0:0:0:0:
176,248,3502,1,0,0:0:0:0:
240,208,3503,1,0,0:0:0:0:
224,112,3504,1,0,0:0:0:0:
224,256,3505,1,0,0:0:0:0:
192,96,3506,1,0,0:0:0:0:
352,168,3507,1,0,0:0:0:0:
136,272,3508,1,0,0:0:0:0:
480,32,3509,1,0,0:0:0:0:
208,248,3510,1,0,0:0:0:0:
56,208,3511,1,0,0:0:0:0:
400,256,3512,1,0,0:0:0:0:
248,184,3513,1,0,0:0:0:0:
256,136,3514,1,0,0:0:0:0:
72,232,3515,1,0,0:0:0:0:
224,88,3516,1,0,0:0:0:0:
48,136,3517,1,0,0:0:0:0:
192,168,3518,1,0,0:0:0:0:
440,64,3519,1,0,0:0:0:0:
432,184,3520,1,0,0:0:0:0:
208,64,3521,1,0,0:0:0:0:
48,264,3522,1,0,0:0:0:0:
40,96,3523,1,0,0:0:0:0:
256,96,3524,1,0,0:0:0:0:
280,176,3525,1,0,0:0:0:0:
200,160,3526,1,0,0:0:0:0:
248,240,3527,1,0,0:0:0:0:
288,216,3528,1,0,0:0:0:0:
96,224,3529,1,0,0:0:0:0:
312,128,3530,1,0,0:0:0:0:
176,288,3531,1,0,0:0:0:0:
224,288,3532,1,0,0:0:0:0:
232,48,3533,1,0,0:0:0:0:
264,160,3534,1,0,0:0:0:0:
320,184,3535,1,0,0:0:0:0:
264,56,3536,1,0,0:0:0:0:
264,280,3537,1,0,0:0:0:0:
48,320,3538,1,0,0:0:0:0:
120,168,3539,1,0,0:0:0:0:
64,168,3540,1,0,0:0:0:0:
200,24,3541,1,0,0:0:0:0:
408,120,3542,5,0,0:0:0:0:
248,336,3543,1,0,0:0:0:0:
432,32,3544,1,0,0:0:0:0:
160,8,3545,1,0,0:0:0:0:
440,216,3546,1,0,0:0:0:0:
424,120,3547,1,0,0:0:0:0:
256,344,3548,1,0,0:0:0:0:
376,88,3549,1,0,0:0:0:0:
144,8,3550,1,0,0:0:0:0:
328,96,3551,1,0,0:0:0:0:
448,120,3552,1,0,0:0:0:0:
144,56,3553,1,0,0:0:0:0:
104,160,3554,1,0,0:0:0:0:
176,8,3555,1,0,0:0:0:0:
464,120,3556,1,0,0:0:0:0:
464,304,3557,1,0,0:0:0:0:
184,40,3558,1,0,0:0:0:0:
328,240,3559,1,0,0:0:0:0:
128,8,3560,1,0,0:0:0:0:
432,56,3561,1,0,0:0:0:0:
40,264,3562,1,0,0:0:0:0:
464,8,3563,1,0,0:0:0:0:
384,240,3564,1,0,0:0:0:0:
312,80,3565,1,0,0:0:0:0:
72,256,3566,1,0,0:0:0:0:
440,16,3567,1,0,0:0:0:0:
104,184,3568,1,0,0:0:0:0:
184,144,3569,1,0,0:0:0:0:
168,328,3570,1,0,0:0:0:0:
432,344,3571,1,0,0:0:0:0:
424,16,3572,1,0,0:0:0:0:
200,8,3574,1,0,0:0:0:0:
336,104,3575,1,0,0:0:0:0:
112,280,3576,1,0,0:0:0:0:
64,320,3577,1,0,0:0:0:0:
384,40,3578,1,0,0:0:0:0:
456,256,3579,1,0,0:0:0:0:
88,48,3580,1,0,0:0:0:0:
384,296,3581,1,0,0:0:0:0:
320,88,3582,1,0,0:0:0:0:
328,240,3583,1,0,0:0:0:0:
56,304,3584,1,0,0:0:0:0:
160,248,3585,1,0,0:0:0:0:
128,128,3586,1,0,0:0:0:0:
232,80,3587,1,0,0:0:0:0:
240,168,3588,1,0,0:0:0:0:
360,160,3589,1,0,0:0:0:0:
80,272,3590,1,0,0:0:0:0:
264,272,3591,1,0,0:0:0:0:
104,184,3592,1,0,0:0:0:0:
184,144,3593,1,0,0:0:0:0:
320,0,3594,1,0,0:0:0:0:
96,312,3595,1,0,0:0:0:0:
272,312,3596,1,0,0:0:0:0:
368,296,3597,1,0,0:0:0:0:
368,112,3598,1,0,0:0:0:0:
368,72,3599,1,0,0:0:0:0:
464,296,3600,1,0,0:0:0:0:
384,288,3601,1,0,0:0:0:0:
288,280,3602,1,0,0:0:0:0:
288,24,3603,1,0,0:0:0:0:
192,208,3604,1,0,0:0:0:0:
208,216,3605,1,0,0:0:0:0:
456,336,3606,1,0,0:0:0:0:
456,80,3607,1,0,0:0:0:0:
176,80,3608,1,0,0:0:0:0:
336,256,3609,1,0,0:0:0:0:
384,344,3610,1,0,0:0:0:0:
304,128,3611,1,0,0:0:0:0:
408,344,3612,1,0,0:0:0:0:
224,0,3613,1,0,0:0:0:0:
144,64,3614,1,0,0:0:0:0:
64,272,3615,1,0,0:0:0:0:
56,168,3616,1,0,0:0:0:0:
272,128,3617,1,0,0:0:0:0:
408,224,3618,1,0,0:0:0:0:
184,304,3619,1,0,0:0:0:0:
416,64,3620,1,0,0:0:0:0:
328,288,3621,1,0,0:0:0:0:
360,208,3622,5,0,0:0:0:0:
496,320,3623,1,0,0:0:0:0:
112,96,3624,1,0,0:0:0:0:
64,56,3625,5,0,0:0:0:0:
344,136,3626,1,0,0:0:0:0:
112,40,3627,1,0,0:0:0:0:
464,304,3628,1,0,0:0:0:0:
112,248,3629,1,0,0:0:0:0:
232,320,3630,1,0,0:0:0:0:
40,336,3631,1,0,0:0:0:0:
464,32,3632,1,0,0:0:0:0:
40,264,3633,1,0,0:0:0:0:
408,280,3634,1,0,0:0:0:0:
120,32,3635,1,0,0:0:0:0:
240,136,3636,1,0,0:0:0:0:
48,112,3637,1,0,0:0:0:0:
272,56,3638,1,0,0:0:0:0:
64,280,3639,1,0,0:0:0:0:
440,48,3640,1,0,0:0:0:0:
392,80,3641,1,0,0:0:0:0:
496,16,3642,1,0,0:0:0:0:
256,304,3643,1,0,0:0:0:0:
336,224,3644,1,0,0:0:0:0:
64,16,3645,1,0,0:0:0:0:
400,320,3646,1,0,0:0:0:0:
320,72,3647,1,0,0:0:0:0:
120,32,3648,1,0,0:0:0:0:
488,64,3649,1,0,0:0:0:0:
456,256,3650,1,0,0:0:0:0:
440,8,3651,1,0,0:0:0:0:
296,112,3652,1,0,0:0:0:0:
56,88,3653,1,0,0:0:0:0:
480,272,3654,1,0,0:0:0:0:
56,304,3655,1,0,0:0:0:0:
104,64,3656,1,0,0:0:0:0:
448,64,3657,1,0,0:0:0:0:
88,224,3658,1,0,0:0:0:0:
104,8,3659,1,0,0:0:0:0:
360,320,3660,1,0,0:0:0:0:
80,272,3661,1,0,0:0:0:0:
416,48,3662,1,0,0:0:0:0:
416,128,3663,1,0,0:0:0:0:
88,88,3664,1,0,0:0:0:0:
96,312,3665,1,0,0:0:0:0:
288,312,3666,1,0,0:0:0:0:
432,296,3667,1,0,0:0:0:0:
384,16,3668,1,0,0:0:0:0:
176,48,3669,1,0,0:0:0:0:
136,88,3670,1,0,0:0:0:0:
80,336,3671,1,0,0:0:0:0:
384,288,3672,1,0,0:0:0:0:
416,24,3673,1,0,0:0:0:0:
368,256,3674,1,0,0:0:0:0:
304,144,3675,1,0,0:0:0:0:
56,344,3676,1,0,0:0:0:0:
464,336,3677,1,0,0:0:0:0:
424,64,3678,1,0,0:0:0:0:
80,32,3679,1,0,0:0:0:0:
360,16,3680,1,0,0:0:0:0:
264,216,3681,1,0,0:0:0:0:
408,344,3682,1,0,0:0:0:0:
48,8,3683,1,0,0:0:0:0:
112,168,3684,1,0,0:0:0:0:
424,320,3685,1,0,0:0:0:0:
440,328,3686,1,0,0:0:0:0:
384,48,3687,1,0,0:0:0:0:
320,104,3688,1,0,0:0:0:0:
480,8,3689,1,0,0:0:0:0:
248,32,3690,1,0,0:0:0:0:
472,192,3691,1,0,0:0:0:0:
216,80,3692,1,0,0:0:0:0:
152,8,3693,1,0,0:0:0:0:
496,320,3694,1,0,0:0:0:0:
112,136,3695,1,0,0:0:0:0:
376,256,3696,1,0,0:0:0:0:
432,40,3697,1,0,0:0:0:0:
56,40,3698,1,0,0:0:0:0:
112,328,3699,1,0,0:0:0:0:
352,344,3700,1,0,0:0:0:0:
128,304,3701,1,0,0:0:0:0:
280,16,3702,1,0,0:0:0:0:
128,56,3703,1,0,0:0:0:0:
224,256,3704,1,0,0:0:0:0:
136,344,3705,1,0,0:0:0:0:
160,48,3706,5,0,0:0:0:0:
216,48,3707,1,0,0:0:0:0:
344,336,3708,1,0,0:0:0:0:
392,88,3709,1,0,0:0:0:0:
112,320,3710,1,0,0:0:0:0:
440,48,3711,1,0,0:0:0:0:
432,264,3712,1,0,0:0:0:0:
128,48,3713,1,0,0:0:0:0:
96,64,3714,1,0,0:0:0:0:
368,336,3715,1,0,0:0:0:0:
288,88,3716,1,0,0:0:0:0:
136,296,3717,1,0,0:0:0:0:
376,64,3718,1,0,0:0:0:0:
432,184,3719,1,0,0:0:0:0:
224,248,3720,1,0,0:0:0:0:
144,56,3721,1,0,0:0:0:0:
104,272,3722,1,0,0:0:0:0:
368,320,3723,1,0,0:0:0:0:
176,40,3724,1,0,0:0:0:0:
160,72,3725,1,0,0:0:0:0:
360,40,3726,1,0,0:0:0:0:
464,224,3727,1,0,0:0:0:0:
48,240,3728,1,0,0:0:0:0:
312,128,3729,1,0,0:0:0:0:
232,32,3730,1,0,0:0:0:0:
88,240,3731,1,0,0:0:0:0:
40,56,3732,1,0,0:0:0:0:
96,80,3733,1,0,0:0:0:0:
376,32,3734,1,0,0:0:0:0:
304,232,3735,1,0,0:0:0:0:
408,8,3736,1,0,0:0:0:0:
432,224,3737,1,0,0:0:0:0:
408,248,3738,1,0,0:0:0:0:
144,104,3739,1,0,0:0:0:0:
104,112,3740,1,0,0:0:0:0:
192,72,3741,1,0,0:0:0:0:
80,128,3742,1,0,0:0:0:0:
72,152,3743,1,0,0:0:0:0:
72,176,3744,1,0,0:0:0:0:
88,192,3745,1,0,0:0:0:0:
336,272,3746,1,0,0:0:0:0:
112,200,3747,1,0,0:0:0:0:
136,192,3748,1,0,0:0:0:0:
144,152,3749,1,0,0:0:0:0:
152,176,3750,1,0,0:0:0:0:
168,208,3751,1,0,0:0:0:0:
144,56,3752,1,0,0:0:0:0:
184,184,3753,1,0,0:0:0:0:
192,136,3754,1,0,0:0:0:0:
112,168,3755,1,0,0:0:0:0:
168,128,3756,1,0,0:0:0:0:
184,40,3757,1,0,0:0:0:0:
208,216,3758,1,0,0:0:0:0:
144,232,3759,1,0,0:0:0:0:
432,56,3760,1,0,0:0:0:0:
208,176,3761,1,0,0:0:0:0:
168,160,3762,1,0,0:0:0:0:
384,240,3763,1,0,0:0:0:0:
232,152,3764,1,0,0:0:0:0:
72,256,3765,1,0,0:0:0:0:
112,136,3766,1,0,0:0:0:0:
112,232,3767,1,0,0:0:0:0:
40,336,3768,1,0,0:0:0:0:
176,248,3769,1,0,0:0:0:0:
240,208,3770,1,0,0:0:0:0:
224,112,3771,1,0,0:0:0:0:
408,280,3772,1,0,0:0:0:0:
192,96,3773,1,0,0:0:0:0:
336,104,3774,1,0,0:0:0:0:
136,272,3775,1,0,0:0:0:0:
88,48,3776,1,0,0:0:0:0:
208,248,3777,1,0,0:0:0:0:
56,208,3778,1,0,0:0:0:0:
256,0,3779,1,0,0:0:0:0:
248,184,3780,1,0,0:0:0:0:
256,136,3781,1,0,0:0:0:0:
416,104,3782,1,0,0:0:0:0:
224,88,3783,1,0,0:0:0:0:
48,136,3784,1,0,0:0:0:0:
72,312,3785,1,0,0:0:0:0:
192,176,3786,1,0,0:0:0:0:
192,128,3787,1,0,0:0:0:0:
208,64,3788,1,0,0:0:0:0:
488,64,3789,1,0,0:0:0:0:
48,288,3790,1,0,0:0:0:0:
256,96,3791,1,0,0:0:0:0:
280,176,3792,1,0,0:0:0:0:
360,32,3793,1,0,0:0:0:0:
248,240,3794,1,0,0:0:0:0:
288,216,3795,1,0,0:0:0:0:
368,296,3796,1,0,0:0:0:0:
96,80,3797,1,0,0:0:0:0:
176,288,3798,1,0,0:0:0:0:
224,288,3799,1,0,0:0:0:0:
232,48,3800,1,0,0:0:0:0:
288,280,3801,1,0,0:0:0:0:
320,184,3802,1,0,0:0:0:0:
264,56,3803,1,0,0:0:0:0:
264,280,3804,1,0,0:0:0:0:
456,336,3805,1,0,0:0:0:0:
384,344,3806,1,0,0:0:0:0:
424,48,3807,1,0,0:0:0:0:
200,24,3808,1,0,0:0:0:0:
408,120,3809,5,0,0:0:0:0:
248,336,3810,1,0,0:0:0:0:
80,336,3811,1,0,0:0:0:0:
160,8,3812,1,0,0:0:0:0:
160,128,3813,1,0,0:0:0:0:
424,120,3814,1,0,0:0:0:0:
256,344,3815,1,0,0:0:0:0:
272,128,3816,1,0,0:0:0:0:
144,8,3817,1,0,0:0:0:0:
184,200,3818,1,0,0:0:0:0:
448,120,3819,1,0,0:0:0:0:
264,176,3820,1,0,0:0:0:0:
360,128,3821,1,0,0:0:0:0:
176,8,3822,1,0,0:0:0:0:
464,120,3823,1,0,0:0:0:0:
160,88,3824,1,0,0:0:0:0:
176,192,3825,1,0,0:0:0:0:
232,320,3826,1,0,0:0:0:0:
128,8,3827,1,0,0:0:0:0:
144,176,3828,1,0,0:0:0:0:
464,8,3830,1,0,0:0:0:0:
152,56,3831,1,0,0:0:0:0:
424,192,3832,1,0,0:0:0:0:
48,112,3833,1,0,0:0:0:0:
440,16,3834,1,0,0:0:0:0:
288,320,3835,1,0,0:0:0:0:
368,200,3836,1,0,0:0:0:0:
40,112,3837,1,0,0:0:0:0:
432,344,3838,1,0,0:0:0:0:
424,16,3839,1,0,0:0:0:0:
128,56,3840,1,0,0:0:0:0:
200,8,3841,1,0,0:0:0:0:
296,176,3842,1,0,0:0:0:0:
336,224,3843,1,0,0:0:0:0:
64,320,3844,1,0,0:0:0:0:
384,40,3845,1,0,0:0:0:0:
144,272,3846,1,0,0:0:0:0:
88,48,3847,1,0,0:0:0:0:
384,296,3848,1,0,0:0:0:0:
320,88,3849,1,0,0:0:0:0:
328,240,3850,1,0,0:0:0:0:
96,64,3851,1,0,0:0:0:0:
160,248,3852,1,0,0:0:0:0:
128,128,3853,1,0,0:0:0:0:
232,80,3854,1,0,0:0:0:0:
240,168,3855,1,0,0:0:0:0:
360,160,3856,1,0,0:0:0:0:
88,224,3857,1,0,0:0:0:0:
264,272,3858,1,0,0:0:0:0:
104,184,3859,1,0,0:0:0:0:
184,144,3860,1,0,0:0:0:0:
320,0,3861,1,0,0:0:0:0:
160,72,3862,1,0,0:0:0:0:
272,312,3863,1,0,0:0:0:0:
192,176,3864,1,0,0:0:0:0:
368,112,3865,1,0,0:0:0:0:
152,336,3866,1,0,0:0:0:0:
464,296,3867,1,0,0:0:0:0:
368,56,3868,1,0,0:0:0:0:
120,24,3869,1,0,0:0:0:0:
288,24,3870,1,0,0:0:0:0:
424,320,3871,1,0,0:0:0:0:
208,216,3872,1,0,0:0:0:0:
96,80,3873,1,0,0:0:0:0:
456,80,3874,1,0,0:0:0:0:
176,80,3875,1,0,0:0:0:0:
248,312,3876,1,0,0:0:0:0:
384,344,3877,1,0,0:0:0:0:
304,128,3878,1,0,0:0:0:0:
272,48,3879,1,0,0:0:0:0:
64,56,3880,5,0,0:0:0:0:
144,64,3881,1,0,0:0:0:0:
64,272,3882,1,0,0:0:0:0:
464,304,3883,1,0,0:0:0:0:
424,320,3884,1,0,0:0:0:0:
408,224,3885,1,0,0:0:0:0:
40,336,3886,1,0,0:0:0:0:
464,32,3887,1,0,0:0:0:0:
40,264,3888,1,0,0:0:0:0:
408,280,3889,1,0,0:0:0:0:
120,32,3890,1,0,0:0:0:0:
112,96,3891,1,0,0:0:0:0:
48,320,3892,1,0,0:0:0:0:
344,136,3893,1,0,0:0:0:0:
112,40,3894,1,0,0:0:0:0:
128,16,3895,1,0,0:0:0:0:
104,144,3896,1,0,0:0:0:0:
496,16,3897,1,0,0:0:0:0:
264,40,3898,1,0,0:0:0:0:
144,176,3899,1,0,0:0:0:0:
64,16,3900,1,0,0:0:0:0:
400,320,3901,1,0,0:0:0:0:
448,168,3902,1,0,0:0:0:0:
240,136,3903,1,0,0:0:0:0:
488,64,3904,1,0,0:0:0:0:
456,256,3905,1,0,0:0:0:0:
440,8,3906,1,0,0:0:0:0:
208,144,3907,1,0,0:0:0:0:
56,88,3908,1,0,0:0:0:0:
480,272,3909,1,0,0:0:0:0:
56,304,3910,1,0,0:0:0:0:
104,64,3911,1,0,0:0:0:0:
448,64,3912,1,0,0:0:0:0:
384,216,3913,1,0,0:0:0:0:
104,8,3914,1,0,0:0:0:0:
360,320,3915,1,0,0:0:0:0:
80,272,3916,1,0,0:0:0:0:
416,48,3917,1,0,0:0:0:0:
360,328,3918,1,0,0:0:0:0:
88,88,3919,1,0,0:0:0:0:
96,312,3920,1,0,0:0:0:0:
304,104,3921,1,0,0:0:0:0:
432,296,3922,1,0,0:0:0:0:
384,16,3923,1,0,0:0:0:0:
440,344,3924,1,0,0:0:0:0:
136,88,3925,1,0,0:0:0:0:
80,336,3926,1,0,0:0:0:0:
384,288,3927,1,0,0:0:0:0:
416,24,3928,1,0,0:0:0:0:
96,144,3929,1,0,0:0:0:0:
416,128,3930,1,0,0:0:0:0:
56,344,3931,1,0,0:0:0:0:
464,336,3932,1,0,0:0:0:0:
424,64,3933,1,0,0:0:0:0:
80,32,3934,1,0,0:0:0:0:
320,56,3935,1,0,0:0:0:0:
176,48,3936,1,0,0:0:0:0:
408,344,3937,1,0,0:0:0:0:
48,8,3938,1,0,0:0:0:0:
408,176,3939,1,0,0:0:0:0:
416,160,3940,1,0,0:0:0:0:
440,328,3941,1,0,0:0:0:0:
384,48,3942,1,0,0:0:0:0:
288,248,3943,1,0,0:0:0:0:
480,8,3944,1,0,0:0:0:0:
112,280,3945,1,0,0:0:0:0:
192,280,3946,1,0,0:0:0:0:
360,16,3947,1,0,0:0:0:0:
152,8,3948,1,0,0:0:0:0:
496,320,3949,1,0,0:0:0:0:
104,288,3950,1,0,0:0:0:0:
400,232,3951,1,0,0:0:0:0:
432,40,3952,1,0,0:0:0:0:
56,40,3953,1,0,0:0:0:0:
64,344,3954,1,0,0:0:0:0:
320,104,3955,1,0,0:0:0:0:
128,304,3956,1,0,0:0:0:0:
248,32,3957,1,0,0:0:0:0:
128,56,3958,1,0,0:0:0:0:
136,120,3959,1,0,0:0:0:0:
136,344,3960,1,0,0:0:0:0:
160,48,3961,5,0,0:0:0:0:
344,336,3963,1,0,0:0:0:0:
328,304,3964,1,0,0:0:0:0:
112,320,3965,1,0,0:0:0:0:
440,48,3966,1,0,0:0:0:0:
432,264,3967,1,0,0:0:0:0:
352,48,3968,1,0,0:0:0:0:
96,64,3969,1,0,0:0:0:0:
368,336,3970,1,0,0:0:0:0:
224,256,3971,1,0,0:0:0:0:
136,296,3972,1,0,0:0:0:0:
376,64,3973,1,0,0:0:0:0:
216,48,3974,1,0,0:0:0:0:
480,32,3975,1,0,0:0:0:0:
144,56,3976,1,0,0:0:0:0:
104,272,3977,1,0,0:0:0:0:
368,320,3978,1,0,0:0:0:0:
384,296,3979,1,0,0:0:0:0:
160,72,3980,1,0,0:0:0:0:
360,40,3981,1,0,0:0:0:0:
464,224,3982,1,0,0:0:0:0:
48,240,3983,1,0,0:0:0:0:
88,48,3984,1,0,0:0:0:0:
440,64,3985,1,0,0:0:0:0:
88,240,3986,1,0,0:0:0:0:
40,56,3987,1,0,0:0:0:0:
96,80,3988,1,0,0:0:0:0:
376,32,3989,1,0,0:0:0:0:
480,272,3990,1,0,0:0:0:0:
408,8,3991,1,0,0:0:0:0:
432,224,3992,1,0,0:0:0:0:
408,248,3993,1,0,0:0:0:0:
144,104,3994,1,0,0:0:0:0:
104,112,3995,1,0,0:0:0:0:
312,128,3996,1,0,0:0:0:0:
80,128,3997,1,0,0:0:0:0:
72,152,3998,1,0,0:0:0:0:
72,176,3999,1,0,0:0:0:0:
88,192,4000,1,0,0:0:0:0:
96,312,4001,1,0,0:0:0:0:
112,200,4002,1,0,0:0:0:0:
136,192,4003,1,0,0:0:0:0:
144,152,4004,1,0,0:0:0:0:
152,176,4005,1,0,0:0:0:0:
168,208,4006,1,0,0:0:0:0:
40,80,4007,1,0,0:0:0:0:
184,184,4008,1,0,0:0:0:0:
192,136,4009,1,0,0:0:0:0:
112,168,4010,1,0,0:0:0:0:
168,128,4011,1,0,0:0:0:0:
56,344,4012,1,0,0:0:0:0:
208,216,4013,1,0,0:0:0:0:
144,232,4014,1,0,0:0:0:0:
376,88,4015,1,0,0:0:0:0:
208,176,4016,1,0,0:0:0:0:
168,160,4017,1,0,0:0:0:0:
304,160,4018,5,0,0:0:0:0:
232,152,4019,1,0,0:0:0:0:
104,160,4020,1,0,0:0:0:0:
112,136,4021,1,0,0:0:0:0:
112,232,4022,1,0,0:0:0:0:
384,48,4023,1,0,0:0:0:0:
176,248,4024,1,0,0:0:0:0:
240,208,4025,1,0,0:0:0:0:
224,112,4026,1,0,0:0:0:0:
432,56,4027,1,0,0:0:0:0:
192,96,4028,1,0,0:0:0:0:
424,192,4029,1,0,0:0:0:0:
136,272,4030,1,0,0:0:0:0:
312,80,4031,1,0,0:0:0:0:
208,248,4032,1,0,0:0:0:0:
56,208,4033,1,0,0:0:0:0:
232,320,4034,1,0,0:0:0:0:
248,184,4035,1,0,0:0:0:0:
256,136,4036,1,0,0:0:0:0:
256,256,4037,1,0,0:0:0:0:
224,88,4038,1,0,0:0:0:0:
48,136,4039,1,0,0:0:0:0:
392,24,4040,1,0,0:0:0:0:
336,104,4041,1,0,0:0:0:0:
112,280,4042,1,0,0:0:0:0:
208,64,4043,1,0,0:0:0:0:
144,136,4044,1,0,0:0:0:0:
392,80,4045,1,0,0:0:0:0:
256,96,4046,1,0,0:0:0:0:
280,176,4047,1,0,0:0:0:0:
368,144,4048,1,0,0:0:0:0:
248,240,4049,1,0,0:0:0:0:
288,216,4050,1,0,0:0:0:0:
464,160,4051,1,0,0:0:0:0:
72,312,4052,1,0,0:0:0:0:
176,288,4053,1,0,0:0:0:0:
224,288,4054,1,0,0:0:0:0:
232,48,4055,1,0,0:0:0:0:
136,296,4056,1,0,0:0:0:0:
320,184,4057,1,0,0:0:0:0:
264,56,4058,1,0,0:0:0:0:
264,280,4059,1,0,0:0:0:0:
360,32,4060,1,0,0:0:0:0:
160,72,4061,1,0,0:0:0:0:
64,168,4062,1,0,0:0:0:0:
200,24,4063,1,0,0:0:0:0:
408,120,4064,5,0,0:0:0:0:
248,336,4065,1,0,0:0:0:0:
152,200,4066,1,0,0:0:0:0:
160,8,4067,1,0,0:0:0:0:
288,280,4068,1,0,0:0:0:0:
424,120,4069,1,0,0:0:0:0:
256,344,4070,1,0,0:0:0:0:
288,256,4071,1,0,0:0:0:0:
144,8,4072,1,0,0:0:0:0:
432,224,4073,1,0,0:0:0:0:
448,120,4074,1,0,0:0:0:0:
336,256,4075,1,0,0:0:0:0:
320,320,4076,1,0,0:0:0:0:
176,8,4077,1,0,0:0:0:0:
464,120,4078,1,0,0:0:0:0:
368,160,4079,1,0,0:0:0:0:
160,128,4080,1,0,0:0:0:0:
296,64,4081,1,0,0:0:0:0:
128,8,4082,1,0,0:0:0:0:
272,128,4083,1,0,0:0:0:0:
136,192,4084,1,0,0:0:0:0:
464,8,4085,1,0,0:0:0:0:
480,304,4086,1,0,0:0:0:0:
264,176,4087,1,0,0:0:0:0:
360,128,4088,1,0,0:0:0:0:
440,16,4089,1,0,0:0:0:0:
256,40,4090,1,0,0:0:0:0:
160,88,4091,1,0,0:0:0:0:
176,192,4092,1,0,0:0:0:0:
432,344,4093,1,0,0:0:0:0:
424,16,4094,1,0,0:0:0:0:
144,232,4095,1,0,0:0:0:0:
200,8,4096,1,0,0:0:0:0:
208,176,4097,1,0,0:0:0:0:
152,56,4098,1,0,0:0:0:0:
64,320,4099,1,0,0:0:0:0:
384,40,4100,1,0,0:0:0:0:
368,264,4101,1,0,0:0:0:0:
88,48,4102,1,0,0:0:0:0:
384,296,4103,1,0,0:0:0:0:
320,88,4104,1,0,0:0:0:0:
328,240,4105,1,0,0:0:0:0:
240,208,4106,1,0,0:0:0:0:
160,248,4107,1,0,0:0:0:0:
128,128,4108,1,0,0:0:0:0:
232,80,4109,1,0,0:0:0:0:
240,168,4110,1,0,0:0:0:0:
360,160,4111,1,0,0:0:0:0:
400,272,4112,1,0,0:0:0:0:
264,272,4113,1,0,0:0:0:0:
104,184,4114,1,0,0:0:0:0:
184,144,4115,1,0,0:0:0:0:
320,0,4116,1,0,0:0:0:0:
256,136,4117,1,0,0:0:0:0:
272,312,4118,1,0,0:0:0:0:
224,88,4119,1,0,0:0:0:0:
368,112,4120,1,0,0:0:0:0:
440,288,4121,1,0,0:0:0:0:
464,296,4122,1,0,0:0:0:0:
320,296,4123,1,0,0:0:0:0:
88,224,4124,1,0,0:0:0:0:
288,24,4125,1,0,0:0:0:0:
56,8,4126,1,0,0:0:0:0:
208,216,4127,1,0,0:0:0:0:
280,176,4128,1,0,0:0:0:0:
456,80,4129,1,0,0:0:0:0:
176,80,4130,1,0,0:0:0:0:
192,176,4131,1,0,0:0:0:0:
384,344,4132,1,0,0:0:0:0:
304,128,4133,1,0,0:0:0:0:
88,48,4134,1,0,0:0:0:0:
224,0,4135,1,0,0:0:0:0:
144,64,4136,1,0,0:0:0:0:
64,272,4137,1,0,0:0:0:0:
56,168,4138,1,0,0:0:0:0:
264,56,4139,1,0,0:0:0:0:
408,224,4140,1,0,0:0:0:0:
184,304,4141,1,0,0:0:0:0:
416,64,4142,1,0,0:0:0:0:
328,288,4143,1,0,0:0:0:0:
360,208,4144,5,0,0:0:0:0:
72,56,4145,1,0,0:0:0:0:
112,96,4146,1,0,0:0:0:0:
48,320,4147,1,0,0:0:0:0:
344,136,4148,1,0,0:0:0:0:
112,40,4149,1,0,0:0:0:0:
424,120,4150,1,0,0:0:0:0:
424,320,4151,1,0,0:0:0:0:
232,320,4152,1,0,0:0:0:0:
264,40,4153,1,0,0:0:0:0:
144,176,4154,1,0,0:0:0:0:
448,120,4155,1,0,0:0:0:0:
416,320,4156,1,0,0:0:0:0:
448,168,4157,1,0,0:0:0:0:
64,56,4158,5,0,0:0:0:0:
48,112,4159,1,0,0:0:0:0:
272,56,4160,1,0,0:0:0:0:
464,304,4161,1,0,0:0:0:0:
128,16,4162,1,0,0:0:0:0:
392,80,4163,1,0,0:0:0:0:
40,336,4164,1,0,0:0:0:0:
464,32,4165,1,0,0:0:0:0:
40,264,4166,1,0,0:0:0:0:
408,280,4167,1,0,0:0:0:0:
120,32,4168,1,0,0:0:0:0:
320,72,4169,1,0,0:0:0:0:
120,32,4170,1,0,0:0:0:0:
280,296,4171,1,0,0:0:0:0:
312,256,4172,1,0,0:0:0:0:
360,88,4173,1,0,0:0:0:0:
296,112,4174,1,0,0:0:0:0:
496,16,4175,1,0,0:0:0:0:
304,104,4176,1,0,0:0:0:0:
72,80,4177,1,0,0:0:0:0:
64,16,4178,1,0,0:0:0:0:
400,320,4179,1,0,0:0:0:0:
296,72,4180,1,0,0:0:0:0:
360,16,4181,1,0,0:0:0:0:
488,64,4182,1,0,0:0:0:0:
456,256,4183,1,0,0:0:0:0:
440,8,4184,1,0,0:0:0:0:
416,128,4185,1,0,0:0:0:0:
56,88,4186,1,0,0:0:0:0:
480,272,4187,1,0,0:0:0:0:
56,304,4188,1,0,0:0:0:0:
104,64,4189,1,0,0:0:0:0:
448,64,4190,1,0,0:0:0:0:
176,48,4191,1,0,0:0:0:0:
104,8,4192,1,0,0:0:0:0:
360,320,4193,1,0,0:0:0:0:
80,272,4194,1,0,0:0:0:0:
416,48,4195,1,0,0:0:0:0:
368,256,4196,1,0,0:0:0:0:
88,88,4197,1,0,0:0:0:0:
96,312,4198,1,0,0:0:0:0:
320,200,4199,1,0,0:0:0:0:
432,296,4200,1,0,0:0:0:0:
384,16,4201,1,0,0:0:0:0:
360,16,4202,1,0,0:0:0:0:
136,88,4203,1,0,0:0:0:0:
80,336,4204,1,0,0:0:0:0:
384,288,4205,1,0,0:0:0:0:
416,24,4206,1,0,0:0:0:0:
416,160,4207,1,0,0:0:0:0:
456,328,4208,1,0,0:0:0:0:
56,344,4209,1,0,0:0:0:0:
464,336,4210,1,0,0:0:0:0:
424,64,4211,1,0,0:0:0:0:
80,32,4212,1,0,0:0:0:0:
472,192,4213,1,0,0:0:0:0:
64,168,4214,1,0,0:0:0:0:
408,344,4215,1,0,0:0:0:0:
48,8,4216,1,0,0:0:0:0:
312,104,4217,1,0,0:0:0:0:
376,256,4218,1,0,0:0:0:0:
440,328,4219,1,0,0:0:0:0:
384,48,4220,1,0,0:0:0:0:
216,216,4221,1,0,0:0:0:0:
480,8,4222,1,0,0:0:0:0:
352,48,4223,1,0,0:0:0:0:
280,16,4224,1,0,0:0:0:0:
416,184,4225,1,0,0:0:0:0:
152,8,4226,1,0,0:0:0:0:
496,320,4227,1,0,0:0:0:0:
64,56,4228,5,0,0:0:0:0:
216,48,4229,1,0,0:0:0:0:
432,40,4230,1,0,0:0:0:0:
56,40,4231,1,0,0:0:0:0:
384,192,4232,1,0,0:0:0:0:
232,320,4233,1,0,0:0:0:0:
128,304,4234,1,0,0:0:0:0:
128,48,4235,1,0,0:0:0:0:
128,56,4236,1,0,0:0:0:0:
408,280,4237,1,0,0:0:0:0:
136,344,4238,1,0,0:0:0:0:
160,48,4239,5,0,0:0:0:0:
440,64,4240,1,0,0:0:0:0:
344,336,4241,1,0,0:0:0:0:
224,248,4242,1,0,0:0:0:0:
112,320,4243,1,0,0:0:0:0:
440,48,4244,1,0,0:0:0:0:
432,264,4245,1,0,0:0:0:0:
176,40,4246,1,0,0:0:0:0:
96,64,4247,1,0,0:0:0:0:
368,336,4248,1,0,0:0:0:0:
440,312,4249,1,0,0:0:0:0:
136,296,4250,1,0,0:0:0:0:
376,64,4251,1,0,0:0:0:0:
232,32,4252,1,0,0:0:0:0:
144,208,4253,1,0,0:0:0:0:
144,56,4254,1,0,0:0:0:0:
104,272,4255,1,0,0:0:0:0:
368,320,4256,1,0,0:0:0:0:
304,232,4257,1,0,0:0:0:0:
160,72,4258,1,0,0:0:0:0:
360,40,4259,1,0,0:0:0:0:
464,224,4260,1,0,0:0:0:0:
48,240,4261,1,0,0:0:0:0:
40,80,4262,1,0,0:0:0:0:
192,72,4263,1,0,0:0:0:0:
88,240,4264,1,0,0:0:0:0:
40,56,4265,1,0,0:0:0:0:
96,80,4266,1,0,0:0:0:0:
376,32,4267,1,0,0:0:0:0:
336,272,4268,1,0,0:0:0:0:
408,8,4269,1,0,0:0:0:0:
432,224,4270,1,0,0:0:0:0:
408,248,4271,1,0,0:0:0:0:
144,104,4272,1,0,0:0:0:0:
104,112,4273,1,0,0:0:0:0:
144,56,4274,1,0,0:0:0:0:
80,128,4275,1,0,0:0:0:0:
72,152,4276,1,0,0:0:0:0:
72,176,4277,1,0,0:0:0:0:
88,192,4278,1,0,0:0:0:0:
184,40,4279,1,0,0:0:0:0:
112,200,4280,1,0,0:0:0:0:
136,192,4281,1,0,0:0:0:0:
144,152,4282,1,0,0:0:0:0:
152,176,4283,1,0,0:0:0:0:
168,208,4284,1,0,0:0:0:0:
384,240,4285,1,0,0:0:0:0:
184,184,4286,1,0,0:0:0:0:
192,136,4287,1,0,0:0:0:0:
112,168,4288,1,0,0:0:0:0:
168,128,4289,1,0,0:0:0:0:
384,48,4290,1,0,0:0:0:0:
208,216,4291,1,0,0:0:0:0:
144,232,4292,1,0,0:0:0:0:
64,344,4293,1,0,0:0:0:0:
208,176,4294,1,0,0:0:0:0:
168,160,4295,1,0,0:0:0:0:
336,104,4296,1,0,0:0:0:0:
232,152,4297,1,0,0:0:0:0:
112,136,4299,1,0,0:0:0:0:
112,232,4300,1,0,0:0:0:0:
256,0,4301,1,0,0:0:0:0:
176,248,4302,1,0,0:0:0:0:
240,208,4303,1,0,0:0:0:0:
224,112,4304,1,0,0:0:0:0:
128,304,4305,1,0,0:0:0:0:
192,96,4306,1,0,0:0:0:0:
72,312,4307,1,0,0:0:0:0:
136,272,4308,1,0,0:0:0:0:
192,128,4309,1,0,0:0:0:0:
208,248,4310,1,0,0:0:0:0:
56,208,4311,1,0,0:0:0:0:
48,288,4312,1,0,0:0:0:0:
248,184,4313,1,0,0:0:0:0:
256,136,4314,1,0,0:0:0:0:
360,32,4315,1,0,0:0:0:0:
224,88,4316,1,0,0:0:0:0:
48,136,4317,1,0,0:0:0:0:
368,296,4318,1,0,0:0:0:0:
96,80,4319,1,0,0:0:0:0:
368,72,4320,1,0,0:0:0:0:
208,64,4321,1,0,0:0:0:0:
376,64,4322,1,0,0:0:0:0:
288,280,4323,1,0,0:0:0:0:
256,96,4324,1,0,0:0:0:0:
280,176,4325,1,0,0:0:0:0:
288,256,4326,1,0,0:0:0:0:
248,240,4327,1,0,0:0:0:0:
288,216,4328,1,0,0:0:0:0:
424,48,4329,1,0,0:0:0:0:
336,256,4330,1,0,0:0:0:0:
176,288,4331,1,0,0:0:0:0:
224,288,4332,1,0,0:0:0:0:
232,48,4333,1,0,0:0:0:0:
368,160,4334,1,0,0:0:0:0:
320,184,4335,1,0,0:0:0:0:
264,56,4336,1,0,0:0:0:0:
264,280,4337,1,0,0:0:0:0:
272,128,4338,1,0,0:0:0:0:
96,80,4339,1,0,0:0:0:0:
184,200,4340,1,0,0:0:0:0:
200,24,4341,1,0,0:0:0:0:
408,120,4342,5,0,0:0:0:0:
248,336,4343,1,0,0:0:0:0:
104,112,4344,1,0,0:0:0:0:
160,8,4345,1,0,0:0:0:0:
160,88,4346,1,0,0:0:0:0:
424,120,4347,1,0,0:0:0:0:
256,344,4348,1,0,0:0:0:0:
88,192,4349,1,0,0:0:0:0:
144,8,4350,1,0,0:0:0:0:
136,192,4351,1,0,0:0:0:0:
448,120,4352,1,0,0:0:0:0:
152,56,4353,1,0,0:0:0:0:
424,192,4354,1,0,0:0:0:0:
176,8,4355,1,0,0:0:0:0:
464,120,4356,1,0,0:0:0:0:
288,320,4357,1,0,0:0:0:0:
368,200,4358,1,0,0:0:0:0:
40,112,4359,1,0,0:0:0:0:
128,8,4360,1,0,0:0:0:0:
208,216,4361,1,0,0:0:0:0:
144,232,4362,1,0,0:0:0:0:
464,8,4363,1,0,0:0:0:0:
296,176,4364,1,0,0:0:0:0:
336,224,4365,1,0,0:0:0:0:
168,160,4366,1,0,0:0:0:0:
440,16,4367,1,0,0:0:0:0:
144,272,4368,1,0,0:0:0:0:
96,8,4369,5,0,0:0:0:0:
232,152,4370,1,0,0:0:0:0:
432,344,4371,1,0,0:0:0:0:
424,16,4372,1,0,0:0:0:0:
240,208,4373,1,0,0:0:0:0:
200,8,4374,1,0,0:0:0:0:
376,184,4375,1,0,0:0:0:0:
440,288,4376,1,0,0:0:0:0:
64,320,4377,1,0,0:0:0:0:
384,40,4378,1,0,0:0:0:0:
88,224,4379,1,0,0:0:0:0:
88,48,4380,1,0,0:0:0:0:
384,296,4381,1,0,0:0:0:0:
320,88,4382,1,0,0:0:0:0:
64,56,4383,5,0,0:0:0:0:
256,136,4384,1,0,0:0:0:0:
160,248,4385,1,0,0:0:0:0:
464,304,4386,1,0,0:0:0:0:
232,80,4387,1,0,0:0:0:0:
240,168,4388,1,0,0:0:0:0:
40,336,4389,1,0,0:0:0:0:
464,32,4390,1,0,0:0:0:0:
40,264,4391,1,0,0:0:0:0:
408,280,4392,1,0,0:0:0:0:
120,32,4393,1,0,0:0:0:0:
320,0,4394,1,0,0:0:0:0:
280,176,4395,1,0,0:0:0:0:
272,312,4396,1,0,0:0:0:0:
248,240,4397,1,0,0:0:0:0:
368,112,4398,1,0,0:0:0:0:
288,216,4399,1,0,0:0:0:0:
496,16,4400,1,0,0:0:0:0:
272,48,4401,1,0,0:0:0:0:
88,280,4402,1,0,0:0:0:0:
64,16,4403,1,0,0:0:0:0:
400,320,4404,1,0,0:0:0:0:
208,216,4405,1,0,0:0:0:0:
424,320,4406,1,0,0:0:0:0:
488,64,4407,1,0,0:0:0:0:
456,256,4408,1,0,0:0:0:0:
440,8,4409,1,0,0:0:0:0:
384,344,4410,1,0,0:0:0:0:
56,88,4411,1,0,0:0:0:0:
480,272,4412,1,0,0:0:0:0:
56,304,4413,1,0,0:0:0:0:
104,64,4414,1,0,0:0:0:0:
448,64,4415,1,0,0:0:0:0:
56,168,4416,1,0,0:0:0:0:
104,8,4417,1,0,0:0:0:0:
360,320,4418,1,0,0:0:0:0:
80,272,4419,1,0,0:0:0:0:
416,48,4420,1,0,0:0:0:0:
328,288,4421,1,0,0:0:0:0:
88,88,4422,1,0,0:0:0:0:
96,312,4423,1,0,0:0:0:0:
112,96,4424,1,0,0:0:0:0:
432,296,4425,1,0,0:0:0:0:
384,16,4426,1,0,0:0:0:0:
112,40,4427,1,0,0:0:0:0:
136,88,4428,1,0,0:0:0:0:
80,336,4429,1,0,0:0:0:0:
384,288,4430,1,0,0:0:0:0:
416,24,4431,1,0,0:0:0:0:
144,176,4432,1,0,0:0:0:0:
56,344,4434,1,0,0:0:0:0:
464,336,4435,1,0,0:0:0:0:
424,64,4436,1,0,0:0:0:0:
80,32,4437,1,0,0:0:0:0:
272,56,4438,1,0,0:0:0:0:
64,280,4439,1,0,0:0:0:0:
408,344,4440,1,0,0:0:0:0:
48,8,4441,1,0,0:0:0:0:
40,96,4442,1,0,0:0:0:0:
256,304,4443,1,0,0:0:0:0:
440,328,4444,1,0,0:0:0:0:
384,48,4445,1,0,0:0:0:0:
384,216,4446,1,0,0:0:0:0:
480,8,4447,1,0,0:0:0:0:
120,32,4448,1,0,0:0:0:0:
280,296,4449,1,0,0:0:0:0:
312,256,4450,1,0,0:0:0:0:
152,8,4451,1,0,0:0:0:0:
496,320,4452,1,0,0:0:0:0:
112,248,4453,1,0,0:0:0:0:
304,104,4454,1,0,0:0:0:0:
432,40,4455,1,0,0:0:0:0:
56,40,4456,1,0,0:0:0:0:
440,344,4457,1,0,0:0:0:0:
96,224,4458,1,0,0:0:0:0:
128,304,4459,1,0,0:0:0:0:
48,16,4460,1,0,0:0:0:0:
128,56,4461,1,0,0:0:0:0:
416,160,4462,1,0,0:0:0:0:
136,344,4463,1,0,0:0:0:0:
160,48,4464,5,0,0:0:0:0:
224,312,4465,1,0,0:0:0:0:
344,336,4466,1,0,0:0:0:0:
112,280,4467,1,0,0:0:0:0:
112,320,4468,1,0,0:0:0:0:
440,48,4469,1,0,0:0:0:0:
432,264,4470,1,0,0:0:0:0:
464,296,4471,1,0,0:0:0:0:
96,64,4472,1,0,0:0:0:0:
368,336,4473,1,0,0:0:0:0:
368,256,4474,1,0,0:0:0:0:
136,296,4475,1,0,0:0:0:0:
376,64,4476,1,0,0:0:0:0:
320,200,4477,1,0,0:0:0:0:
80,280,4478,1,0,0:0:0:0:
144,56,4479,1,0,0:0:0:0:
104,272,4480,1,0,0:0:0:0:
368,320,4481,1,0,0:0:0:0:
264,80,4482,1,0,0:0:0:0:
160,72,4483,1,0,0:0:0:0:
360,40,4484,1,0,0:0:0:0:
464,224,4485,1,0,0:0:0:0:
48,240,4486,1,0,0:0:0:0:
64,344,4487,1,0,0:0:0:0:
320,104,4488,1,0,0:0:0:0:
88,240,4489,1,0,0:0:0:0:
40,56,4490,1,0,0:0:0:0:
96,80,4491,1,0,0:0:0:0:
376,32,4492,1,0,0:0:0:0:
48,64,4493,1,0,0:0:0:0:
408,8,4494,1,0,0:0:0:0:
432,224,4495,1,0,0:0:0:0:
408,248,4496,1,0,0:0:0:0:
144,104,4497,1,0,0:0:0:0:
104,112,4498,1,0,0:0:0:0:
80,128,4500,1,0,0:0:0:0:
72,152,4501,1,0,0:0:0:0:
72,176,4502,1,0,0:0:0:0:
88,192,4503,1,0,0:0:0:0:
224,256,4504,1,0,0:0:0:0:
112,200,4505,1,0,0:0:0:0:
136,192,4506,1,0,0:0:0:0:
144,152,4507,1,0,0:0:0:0:
152,176,4508,1,0,0:0:0:0:
168,208,4509,1,0,0:0:0:0:
384,192,4510,1,0,0:0:0:0:
184,184,4511,1,0,0:0:0:0:
192,136,4512,1,0,0:0:0:0:
112,168,4513,1,0,0:0:0:0:
168,128,4514,1,0,0:0:0:0:
448,64,4515,1,0,0:0:0:0:
208,216,4516,1,0,0:0:0:0:
144,232,4517,1,0,0:0:0:0:
440,64,4518,1,0,0:0:0:0:
208,176,4519,1,0,0:0:0:0:
168,160,4520,1,0,0:0:0:0:
48,264,4521,1,0,0:0:0:0:
232,152,4522,1,0,0:0:0:0:
96,312,4523,1,0,0:0:0:0:
112,136,4524,1,0,0:0:0:0:
112,232,4525,1,0,0:0:0:0:
144,272,4526,1,0,0:0:0:0:
176,248,4527,1,0,0:0:0:0:
240,208,4528,1,0,0:0:0:0:
224,112,4529,1,0,0:0:0:0:
232,32,4530,1,0,0:0:0:0:
192,96,4531,1,0,0:0:0:0:
368,184,4532,1,0,0:0:0:0:
136,272,4533,1,0,0:0:0:0:
56,344,4534,1,0,0:0:0:0:
208,248,4535,1,0,0:0:0:0:
56,208,4536,1,0,0:0:0:0:
48,320,4537,1,0,0:0:0:0:
248,184,4538,1,0,0:0:0:0:
256,136,4539,1,0,0:0:0:0:
40,80,4540,1,0,0:0:0:0:
224,88,4541,1,0,0:0:0:0:
48,136,4542,1,0,0:0:0:0:
432,32,4543,1,0,0:0:0:0:
416,152,4544,1,0,0:0:0:0:
384,48,4545,1,0,0:0:0:0:
208,64,4546,1,0,0:0:0:0:
304,200,4547,1,0,0:0:0:0:
376,88,4548,1,0,0:0:0:0:
256,96,4549,1,0,0:0:0:0:
280,176,4550,1,0,0:0:0:0:
304,160,4551,5,0,0:0:0:0:
248,240,4552,1,0,0:0:0:0:
288,216,4553,1,0,0:0:0:0:
128,240,4554,1,0,0:0:0:0:
320,96,4555,1,0,0:0:0:0:
176,288,4556,1,0,0:0:0:0:
224,288,4557,1,0,0:0:0:0:
232,48,4558,1,0,0:0:0:0:
208,272,4559,1,0,0:0:0:0:
320,184,4560,1,0,0:0:0:0:
264,56,4561,1,0,0:0:0:0:
264,280,4562,1,0,0:0:0:0:
384,240,4563,1,0,0:0:0:0:
312,80,4564,1,0,0:0:0:0:
72,256,4565,1,0,0:0:0:0:
200,24,4566,1,0,0:0:0:0:
408,120,4567,5,0,0:0:0:0:
248,336,4568,1,0,0:0:0:0:
168,328,4569,1,0,0:0:0:0:
160,8,4570,1,0,0:0:0:0:
432,264,4571,1,0,0:0:0:0:
424,120,4572,1,0,0:0:0:0:
256,344,4573,1,0,0:0:0:0:
336,104,4574,1,0,0:0:0:0:
144,8,4575,1,0,0:0:0:0:
376,64,4576,1,0,0:0:0:0:
448,120,4577,1,0,0:0:0:0:
136,296,4578,1,0,0:0:0:0:
256,0,4579,1,0,0:0:0:0:
176,8,4580,1,0,0:0:0:0:
464,120,4581,1,0,0:0:0:0:
416,104,4582,1,0,0:0:0:0:
160,72,4583,1,0,0:0:0:0:
464,160,4584,1,0,0:0:0:0:
128,8,4585,1,0,0:0:0:0:
192,176,4586,1,0,0:0:0:0:
192,128,4587,1,0,0:0:0:0:
464,8,4588,1,0,0:0:0:0:
88,240,4589,1,0,0:0:0:0:
48,288,4590,1,0,0:0:0:0:
392,144,4591,1,0,0:0:0:0:
440,16,4592,1,0,0:0:0:0:
360,32,4593,1,0,0:0:0:0:
96,80,4594,1,0,0:0:0:0:
64,168,4595,1,0,0:0:0:0:
432,344,4596,1,0,0:0:0:0:
424,16,4597,1,0,0:0:0:0:
368,72,4598,1,0,0:0:0:0:
200,8,4599,1,0,0:0:0:0:
80,128,4600,1,0,0:0:0:0:
288,280,4601,1,0,0:0:0:0:
64,320,4602,1,0,0:0:0:0:
384,40,4603,1,0,0:0:0:0:
288,256,4604,1,0,0:0:0:0:
88,48,4605,1,0,0:0:0:0:
384,296,4606,1,0,0:0:0:0:
320,88,4607,1,0,0:0:0:0:
328,240,4608,1,0,0:0:0:0:
320,320,4609,1,0,0:0:0:0:
160,248,4610,1,0,0:0:0:0:
128,128,4611,1,0,0:0:0:0:
232,80,4612,1,0,0:0:0:0:
240,168,4613,1,0,0:0:0:0:
360,160,4614,1,0,0:0:0:0:
168,128,4615,1,0,0:0:0:0:
264,272,4616,1,0,0:0:0:0:
104,184,4617,1,0,0:0:0:0:
184,144,4618,1,0,0:0:0:0:
320,0,4619,1,0,0:0:0:0:
264,176,4620,1,0,0:0:0:0:
272,312,4621,1,0,0:0:0:0:
232,152,4622,1,0,0:0:0:0:
368,112,4623,1,0,0:0:0:0:
160,88,4624,1,0,0:0:0:0:
464,296,4625,1,0,0:0:0:0:
112,232,4626,1,0,0:0:0:0:
176,248,4627,1,0,0:0:0:0:
288,24,4628,1,0,0:0:0:0:
224,112,4629,1,0,0:0:0:0:
208,216,4630,1,0,0:0:0:0:
152,56,4631,1,0,0:0:0:0:
456,80,4632,1,0,0:0:0:0:
176,80,4633,1,0,0:0:0:0:
368,264,4634,1,0,0:0:0:0:
384,344,4635,1,0,0:0:0:0:
304,128,4636,1,0,0:0:0:0:
40,112,4637,1,0,0:0:0:0:
224,0,4638,1,0,0:0:0:0:
144,64,4639,1,0,0:0:0:0:
64,272,4640,1,0,0:0:0:0:
56,168,4641,1,0,0:0:0:0:
296,176,4642,1,0,0:0:0:0:
408,224,4643,1,0,0:0:0:0:
184,304,4644,1,0,0:0:0:0:
416,64,4645,1,0,0:0:0:0:
328,288,4646,1,0,0:0:0:0:
360,208,4647,5,0,0:0:0:0:
232,152,4648,1,0,0:0:0:0:
112,96,4649,1,0,0:0:0:0:
48,320,4650,1,0,0:0:0:0:
344,136,4651,1,0,0:0:0:0:
112,40,4652,1,0,0:0:0:0:
376,184,4653,1,0,0:0:0:0:
440,288,4654,1,0,0:0:0:0:
232,320,4655,1,0,0:0:0:0:
264,40,4656,1,0,0:0:0:0:
144,176,4657,1,0,0:0:0:0:
48,64,4658,1,0,0:0:0:0:
56,8,4659,1,0,0:0:0:0:
448,168,4660,1,0,0:0:0:0:
240,136,4661,1,0,0:0:0:0:
48,112,4662,1,0,0:0:0:0:
272,56,4663,1,0,0:0:0:0:
64,280,4664,1,0,0:0:0:0:
328,80,4665,1,0,0:0:0:0:
392,80,4666,1,0,0:0:0:0:
40,96,4667,1,0,0:0:0:0:
256,304,4668,1,0,0:0:0:0:
120,24,4669,1,0,0:0:0:0:
328,24,4670,1,0,0:0:0:0:
384,216,4671,1,0,0:0:0:0:
320,72,4672,1,0,0:0:0:0:
120,32,4673,1,0,0:0:0:0:
280,296,4674,1,0,0:0:0:0:
312,256,4675,1,0,0:0:0:0:
248,312,4676,1,0,0:0:0:0:
296,112,4677,1,0,0:0:0:0:
112,248,4678,1,0,0:0:0:0:
304,104,4679,1,0,0:0:0:0:
72,80,4680,1,0,0:0:0:0:
328,304,4681,1,0,0:0:0:0:
440,344,4682,1,0,0:0:0:0:
360,16,4684,1,0,0:0:0:0:
64,56,4685,5,0,0:0:0:0:
104,296,4686,1,0,0:0:0:0:
104,288,4687,1,0,0:0:0:0:
464,304,4688,1,0,0:0:0:0:
200,328,4689,1,0,0:0:0:0:
448,240,4690,1,0,0:0:0:0:
40,336,4691,1,0,0:0:0:0:
464,32,4692,1,0,0:0:0:0:
40,264,4693,1,0,0:0:0:0:
408,280,4694,1,0,0:0:0:0:
120,32,4695,1,0,0:0:0:0:
104,144,4696,1,0,0:0:0:0:
408,176,4697,1,0,0:0:0:0:
112,328,4698,1,0,0:0:0:0:
368,256,4699,1,0,0:0:0:0:
304,144,4700,1,0,0:0:0:0:
288,248,4701,1,0,0:0:0:0:
496,16,4702,1,0,0:0:0:0:
104,40,4703,1,0,0:0:0:0:
192,280,4704,1,0,0:0:0:0:
64,16,4705,1,0,0:0:0:0:
400,320,4706,1,0,0:0:0:0:
264,80,4707,1,0,0:0:0:0:
104,288,4708,1,0,0:0:0:0:
488,64,4709,1,0,0:0:0:0:
456,256,4710,1,0,0:0:0:0:
440,8,4711,1,0,0:0:0:0:
64,344,4712,1,0,0:0:0:0:
56,88,4713,1,0,0:0:0:0:
480,272,4714,1,0,0:0:0:0:
56,304,4715,1,0,0:0:0:0:
104,64,4716,1,0,0:0:0:0:
448,64,4717,1,0,0:0:0:0:
48,64,4718,1,0,0:0:0:0:
104,8,4719,1,0,0:0:0:0:
360,320,4720,1,0,0:0:0:0:
80,272,4721,1,0,0:0:0:0:
416,48,4722,1,0,0:0:0:0:
152,336,4723,1,0,0:0:0:0:
88,88,4724,1,0,0:0:0:0:
96,312,4725,1,0,0:0:0:0:
352,48,4726,1,0,0:0:0:0:
432,296,4727,1,0,0:0:0:0:
384,16,4728,1,0,0:0:0:0:
224,256,4729,1,0,0:0:0:0:
136,88,4730,1,0,0:0:0:0:
80,336,4731,1,0,0:0:0:0:
384,288,4732,1,0,0:0:0:0:
416,24,4733,1,0,0:0:0:0:
392,88,4734,1,0,0:0:0:0:
384,192,4735,1,0,0:0:0:0:
56,344,4736,1,0,0:0:0:0:
464,336,4737,1,0,0:0:0:0:
424,64,4738,1,0,0:0:0:0:
80,32,4739,1,0,0:0:0:0:
416,160,4740,1,0,0:0:0:0:
288,88,4741,1,0,0:0:0:0:
408,344,4742,1,0,0:0:0:0:
48,8,4743,1,0,0:0:0:0:
432,184,4744,1,0,0:0:0:0:
224,248,4745,1,0,0:0:0:0:
440,328,4746,1,0,0:0:0:0:
384,48,4747,1,0,0:0:0:0:
104,104,4748,1,0,0:0:0:0:
480,8,4749,1,0,0:0:0:0:
200,160,4750,1,0,0:0:0:0:
144,272,4751,1,0,0:0:0:0:
440,312,4752,1,0,0:0:0:0:
152,8,4753,1,0,0:0:0:0:
496,320,4754,1,0,0:0:0:0:
232,32,4755,1,0,0:0:0:0:
144,208,4756,1,0,0:0:0:0:
432,40,4757,1,0,0:0:0:0:
56,40,4758,1,0,0:0:0:0:
136,120,4759,1,0,0:0:0:0:
304,232,4760,1,0,0:0:0:0:
128,304,4761,1,0,0:0:0:0:
48,320,4762,1,0,0:0:0:0:
128,56,4763,1,0,0:0:0:0:
464,304,4764,1,0,0:0:0:0:
136,344,4765,1,0,0:0:0:0:
160,48,4766,5,0,0:0:0:0:
368,64,4767,1,0,0:0:0:0:
344,336,4768,1,0,0:0:0:0:
416,152,4769,1,0,0:0:0:0:
112,320,4770,1,0,0:0:0:0:
440,48,4771,1,0,0:0:0:0:
432,264,4772,1,0,0:0:0:0:
376,88,4773,1,0,0:0:0:0:
96,64,4774,1,0,0:0:0:0:
368,336,4775,1,0,0:0:0:0:
304,160,4776,5,0,0:0:0:0:
136,296,4777,1,0,0:0:0:0:
376,64,4778,1,0,0:0:0:0:
128,240,4779,1,0,0:0:0:0:
320,96,4780,1,0,0:0:0:0:
144,56,4781,1,0,0:0:0:0:
104,272,4782,1,0,0:0:0:0:
368,320,4783,1,0,0:0:0:0:
208,272,4784,1,0,0:0:0:0:
160,72,4785,1,0,0:0:0:0:
360,40,4786,1,0,0:0:0:0:
464,224,4787,1,0,0:0:0:0:
48,240,4788,1,0,0:0:0:0:
312,80,4789,1,0,0:0:0:0:
72,256,4790,1,0,0:0:0:0:
88,240,4791,1,0,0:0:0:0:
40,56,4792,1,0,0:0:0:0:
96,80,4793,1,0,0:0:0:0:
376,32,4794,1,0,0:0:0:0:
256,256,4795,1,0,0:0:0:0:
408,8,4796,1,0,0:0:0:0:
432,224,4797,1,0,0:0:0:0:
408,248,4798,1,0,0:0:0:0:
144,104,4799,1,0,0:0:0:0:
104,112,4800,1,0,0:0:0:0:
96,312,4801,1,0,0:0:0:0:
80,128,4802,1,0,0:0:0:0:
72,152,4803,1,0,0:0:0:0:
72,176,4804,1,0,0:0:0:0:
88,192,4805,1,0,0:0:0:0:
368,144,4806,1,0,0:0:0:0:
112,200,4807,1,0,0:0:0:0:
136,192,4808,1,0,0:0:0:0:
144,152,4809,1,0,0:0:0:0:
152,176,4810,1,0,0:0:0:0:
168,208,4811,1,0,0:0:0:0:
192,128,4812,1,0,0:0:0:0:
184,184,4813,1,0,0:0:0:0:
192,136,4814,1,0,0:0:0:0:
112,168,4815,1,0,0:0:0:0:
168,128,4816,1,0,0:0:0:0:
184,56,4817,1,0,0:0:0:0:
208,216,4818,1,0,0:0:0:0:
144,232,4819,1,0,0:0:0:0:
64,168,4820,1,0,0:0:0:0:
208,176,4821,1,0,0:0:0:0:
168,160,4822,1,0,0:0:0:0:
368,72,4823,1,0,0:0:0:0:
232,152,4824,1,0,0:0:0:0:
112,136,4826,1,0,0:0:0:0:
112,232,4827,1,0,0:0:0:0:
192,208,4828,1,0,0:0:0:0:
176,248,4829,1,0,0:0:0:0:
240,208,4830,1,0,0:0:0:0:
224,112,4831,1,0,0:0:0:0:
424,48,4832,1,0,0:0:0:0:
192,96,4833,1,0,0:0:0:0:
320,320,4834,1,0,0:0:0:0:
136,272,4835,1,0,0:0:0:0:
384,192,4836,1,0,0:0:0:0:
208,248,4837,1,0,0:0:0:0:
56,208,4838,1,0,0:0:0:0:
296,64,4839,1,0,0:0:0:0:
248,184,4840,1,0,0:0:0:0:
256,136,4841,1,0,0:0:0:0:
160,48,4842,5,0,0:0:0:0:
224,88,4843,1,0,0:0:0:0:
48,136,4844,1,0,0:0:0:0:
264,176,4845,1,0,0:0:0:0:
360,128,4846,1,0,0:0:0:0:
440,48,4847,1,0,0:0:0:0:
208,64,4848,1,0,0:0:0:0:
160,88,4849,1,0,0:0:0:0:
176,192,4850,1,0,0:0:0:0:
256,96,4851,1,0,0:0:0:0:
280,176,4852,1,0,0:0:0:0:
136,296,4853,1,0,0:0:0:0:
248,240,4854,1,0,0:0:0:0:
288,216,4855,1,0,0:0:0:0:
152,56,4856,1,0,0:0:0:0:
424,192,4857,1,0,0:0:0:0:
176,288,4858,1,0,0:0:0:0:
224,288,4859,1,0,0:0:0:0:
232,48,4860,1,0,0:0:0:0:
368,200,4861,1,0,0:0:0:0:
320,184,4862,1,0,0:0:0:0:
264,56,4863,1,0,0:0:0:0:
264,280,4864,1,0,0:0:0:0:
40,80,4865,1,0,0:0:0:0:
304,88,4866,1,0,0:0:0:0:
296,176,4867,1,0,0:0:0:0:
200,24,4868,1,0,0:0:0:0:
408,120,4869,5,0,0:0:0:0:
248,336,4870,1,0,0:0:0:0:
144,272,4871,1,0,0:0:0:0:
160,8,4872,1,0,0:0:0:0:
232,152,4873,1,0,0:0:0:0:
424,120,4874,1,0,0:0:0:0:
256,344,4875,1,0,0:0:0:0:
104,112,4876,1,0,0:0:0:0:
144,8,4877,1,0,0:0:0:0:
376,184,4878,1,0,0:0:0:0:
448,120,4879,1,0,0:0:0:0:
72,176,4880,1,0,0:0:0:0:
320,296,4881,1,0,0:0:0:0:
176,8,4882,1,0,0:0:0:0:
464,120,4883,1,0,0:0:0:0:
56,8,4884,1,0,0:0:0:0:
448,56,4885,1,0,0:0:0:0:
152,176,4886,1,0,0:0:0:0:
128,8,4887,1,0,0:0:0:0:
272,336,4888,1,0,0:0:0:0:
192,176,4889,1,0,0:0:0:0:
464,8,4890,1,0,0:0:0:0:
112,168,4891,1,0,0:0:0:0:
88,48,4892,1,0,0:0:0:0:
368,56,4893,1,0,0:0:0:0:
440,16,4894,1,0,0:0:0:0:
328,24,4895,1,0,0:0:0:0:
424,320,4896,1,0,0:0:0:0:
208,176,4897,1,0,0:0:0:0:
432,344,4898,1,0,0:0:0:0:
424,16,4899,1,0,0:0:0:0:
232,152,4900,1,0,0:0:0:0:
200,8,4901,1,0,0:0:0:0:
112,136,4902,1,0,0:0:0:0:
72,56,4903,1,0,0:0:0:0:
64,320,4904,1,0,0:0:0:0:
384,40,4905,1,0,0:0:0:0:
328,304,4906,1,0,0:0:0:0:
88,48,4907,1,0,0:0:0:0:
384,296,4908,1,0,0:0:0:0:
320,88,4909,1,0,0:0:0:0:
328,240,4910,1,0,0:0:0:0:
136,272,4911,1,0,0:0:0:0:
160,248,4912,1,0,0:0:0:0:
128,128,4913,1,0,0:0:0:0:
232,80,4914,1,0,0:0:0:0:
240,168,4915,1,0,0:0:0:0:
360,160,4916,1,0,0:0:0:0:
144,64,4917,1,0,0:0:0:0:
264,272,4918,1,0,0:0:0:0:
104,184,4919,1,0,0:0:0:0:
184,144,4920,1,0,0:0:0:0:
320,0,4921,1,0,0:0:0:0:
104,296,4922,1,0,0:0:0:0:
272,312,4923,1,0,0:0:0:0:
352,344,4924,1,0,0:0:0:0:
368,112,4925,1,0,0:0:0:0:
432,280,4926,1,0,0:0:0:0:
464,296,4927,1,0,0:0:0:0:
104,40,4928,1,0,0:0:0:0:
64,16,4929,1,0,0:0:0:0:
288,24,4930,1,0,0:0:0:0:
360,88,4931,1,0,0:0:0:0:
208,216,4932,1,0,0:0:0:0:
192,248,4933,1,0,0:0:0:0:
456,80,4934,1,0,0:0:0:0:
176,80,4935,1,0,0:0:0:0:
232,48,4936,1,0,0:0:0:0:
384,344,4937,1,0,0:0:0:0:
304,128,4938,1,0,0:0:0:0:
352,168,4939,1,0,0:0:0:0:
224,0,4940,1,0,0:0:0:0:
144,64,4941,1,0,0:0:0:0:
64,272,4942,1,0,0:0:0:0:
56,168,4943,1,0,0:0:0:0:
400,256,4944,1,0,0:0:0:0:
408,224,4945,1,0,0:0:0:0:
184,304,4946,1,0,0:0:0:0:
416,64,4947,1,0,0:0:0:0:
328,288,4948,1,0,0:0:0:0:
360,208,4949,5,0,0:0:0:0:
192,168,4950,1,0,0:0:0:0:
112,96,4951,1,0,0:0:0:0:
48,320,4952,1,0,0:0:0:0:
344,136,4953,1,0,0:0:0:0:
112,40,4954,1,0,0:0:0:0:
184,128,4955,1,0,0:0:0:0:
104,128,4956,1,0,0:0:0:0:
232,320,4957,1,0,0:0:0:0:
264,40,4958,1,0,0:0:0:0:
144,176,4959,1,0,0:0:0:0:
80,128,4960,1,0,0:0:0:0:
96,224,4961,1,0,0:0:0:0:
448,168,4962,1,0,0:0:0:0:
240,136,4963,1,0,0:0:0:0:
48,112,4964,1,0,0:0:0:0:
272,56,4965,1,0,0:0:0:0:
64,280,4966,1,0,0:0:0:0:
288,288,4967,1,0,0:0:0:0:
392,80,4968,1,0,0:0:0:0:
40,96,4969,1,0,0:0:0:0:
256,304,4970,1,0,0:0:0:0:
120,192,4971,1,0,0:0:0:0:
64,168,4972,1,0,0:0:0:0:
384,216,4973,1,0,0:0:0:0:
320,72,4974,1,0,0:0:0:0:
120,32,4975,1,0,0:0:0:0:
280,296,4976,1,0,0:0:0:0:
312,256,4977,1,0,0:0:0:0:
440,216,4978,1,0,0:0:0:0:
296,112,4979,1,0,0:0:0:0:
112,248,4980,1,0,0:0:0:0:
304,104,4981,1,0,0:0:0:0:
72,80,4982,1,0,0:0:0:0:
328,96,4983,1,0,0:0:0:0:
440,344,4984,1,0,0:0:0:0:
320,88,4985,1,0,0:0:0:0:
360,16,4986,1,0,0:0:0:0:
48,16,4987,1,0,0:0:0:0:
104,296,4988,1,0,0:0:0:0:
464,304,4989,1,0,0:0:0:0:
416,128,4990,1,0,0:0:0:0:
200,328,4991,1,0,0:0:0:0:
40,336,4992,1,0,0:0:0:0:
288,312,4993,1,0,0:0:0:0:
40,264,4994,1,0,0:0:0:0:
320,56,4995,1,0,0:0:0:0:
176,48,4996,1,0,0:0:0:0:
152,336,4997,1,0,0:0:0:0:
104,184,4998,1,0,0:0:0:0:
408,176,4999,1,0,0:0:0:0:
368,256,5001,1,0,0:0:0:0:
304,144,5002,1,0,0:0:0:0:
288,248,5003,1,0,0:0:0:0:
320,200,5004,1,0,0:0:0:0:
192,280,5006,1,0,0:0:0:0:
360,16,5007,1,0,0:0:0:0:
264,216,5008,1,0,0:0:0:0:
264,80,5009,1,0,0:0:0:0:
104,288,5010,1,0,0:0:0:0:
456,256,5011,1,0,0:0:0:0:
456,256,5012,1,0,0:0:0:0:
456,328,5013,1,0,0:0:0:0:
64,344,5014,1,0,0:0:0:0:
320,104,5015,1,0,0:0:0:0:
56,304,5016,1,0,0:0:0:0:
248,32,5017,1,0,0:0:0:0:
472,192,5018,1,0,0:0:0:0:
448,64,5019,1,0,0:0:0:0:
48,64,5020,1,0,0:0:0:0:
392,32,5021,1,0,0:0:0:0:
80,272,5022,1,0,0:0:0:0:
376,256,5023,1,0,0:0:0:0:
328,304,5024,1,0,0:0:0:0:
152,336,5025,1,0,0:0:0:0:
96,312,5026,1,0,0:0:0:0:
96,312,5027,1,0,0:0:0:0:
352,48,5028,1,0,0:0:0:0:
280,16,5029,1,0,0:0:0:0:
416,184,5030,1,0,0:0:0:0:
224,256,5031,1,0,0:0:0:0:
120,144,5032,1,0,0:0:0:0:
384,288,5033,1,0,0:0:0:0:
216,48,5034,1,0,0:0:0:0:
480,32,5035,1,0,0:0:0:0:
392,88,5036,1,0,0:0:0:0:
384,192,5037,1,0,0:0:0:0:
464,336,5038,1,0,0:0:0:0:
384,296,5039,1,0,0:0:0:0:
128,48,5040,1,0,0:0:0:0:
72,232,5041,1,0,0:0:0:0:
64,280,5042,1,0,0:0:0:0:
288,88,5043,1,0,0:0:0:0:
408,344,5044,1,0,0:0:0:0:
440,64,5045,1,0,0:0:0:0:
432,184,5046,1,0,0:0:0:0:
224,248,5047,1,0,0:0:0:0:
48,264,5048,1,0,0:0:0:0:
40,96,5049,1,0,0:0:0:0:
320,72,5050,1,0,0:0:0:0:
176,40,5051,1,0,0:0:0:0:
200,160,5052,1,0,0:0:0:0:
144,272,5053,1,0,0:0:0:0:
440,312,5054,1,0,0:0:0:0:
496,320,5055,1,0,0:0:0:0:
312,128,5056,1,0,0:0:0:0:
232,32,5057,1,0,0:0:0:0:
144,208,5058,1,0,0:0:0:0:
368,184,5059,1,0,0:0:0:0:
264,160,5060,1,0,0:0:0:0:
304,232,5062,1,0,0:0:0:0:
304,296,5063,1,0,0:0:0:0:
48,320,5064,1,0,0:0:0:0:
120,168,5065,1,0,0:0:0:0:
136,344,5066,1,0,0:0:0:0:
40,80,5067,1,0,0:0:0:0:
192,72,5068,1,0,0:0:0:0:
368,64,5069,1,0,0:0:0:0:
432,32,5070,1,0,0:0:0:0:
416,152,5071,1,0,0:0:0:0:
440,48,5072,1,0,0:0:0:0:
336,272,5073,1,0,0:0:0:0:
304,200,5074,1,0,0:0:0:0:
376,88,5075,1,0,0:0:0:0:
312,48,5076,1,0,0:0:0:0:
368,336,5077,1,0,0:0:0:0:
304,160,5078,5,0,0:0:0:0:
144,56,5079,1,0,0:0:0:0:
104,160,5080,1,0,0:0:0:0:
128,240,5081,1,0,0:0:0:0:
320,96,5082,1,0,0:0:0:0:
104,272,5083,1,0,0:0:0:0:
184,40,5084,1,0,0:0:0:0:
368,320,5085,1,0,0:0:0:0:
208,272,5086,1,0,0:0:0:0:
432,56,5087,1,0,0:0:0:0:
464,224,5088,1,0,0:0:0:0:
424,192,5089,1,0,0:0:0:0:
384,240,5090,1,0,0:0:0:0:
312,80,5091,1,0,0:0:0:0:
72,256,5092,1,0,0:0:0:0:
64,304,5093,1,0,0:0:0:0:
96,80,5094,1,0,0:0:0:0:
96,80,5095,1,0,0:0:0:0:
168,328,5096,1,0,0:0:0:0:
256,256,5097,1,0,0:0:0:0:
432,224,5098,1,0,0:0:0:0:
408,248,5099,1,0,0:0:0:0:
392,24,5100,1,0,0:0:0:0:
336,104,5101,1,0,0:0:0:0:
112,280,5102,1,0,0:0:0:0:
80,128,5103,1,0,0:0:0:0:
144,136,5104,1,0,0:0:0:0:
72,176,5105,1,0,0:0:0:0:
256,0,5106,1,0,0:0:0:0:
336,152,5107,1,0,0:0:0:0:
368,144,5108,1,0,0:0:0:0:
416,104,5109,1,0,0:0:0:0:
144,152,5110,1,0,0:0:0:0:
464,160,5111,1,0,0:0:0:0:
72,312,5112,1,0,0:0:0:0:
192,176,5113,1,0,0:0:0:0:
192,128,5114,1,0,0:0:0:0:
192,136,5115,1,0,0:0:0:0:
112,168,5116,1,0,0:0:0:0:
48,288,5117,1,0,0:0:0:0:
392,144,5118,1,0,0:0:0:0:
184,56,5119,1,0,0:0:0:0:
360,32,5120,1,0,0:0:0:0:
144,232,5121,1,0,0:0:0:0:
64,168,5122,1,0,0:0:0:0:
368,296,5123,1,0,0:0:0:0:
96,80,5124,1,0,0:0:0:0:
368,72,5125,1,0,0:0:0:0:
152,200,5126,1,0,0:0:0:0:
112,136,5127,1,0,0:0:0:0:
288,280,5128,1,0,0:0:0:0:
200,48,5129,1,0,0:0:0:0:
192,208,5130,1,0,0:0:0:0:
288,256,5131,1,0,0:0:0:0:
456,336,5132,1,0,0:0:0:0:
224,112,5133,1,0,0:0:0:0:
424,48,5134,1,0,0:0:0:0:
336,256,5135,1,0,0:0:0:0:
320,320,5136,1,0,0:0:0:0:
208,328,5137,1,0,0:0:0:0:
208,248,5138,1,0,0:0:0:0:
368,160,5139,1,0,0:0:0:0:
160,128,5140,1,0,0:0:0:0:
296,64,5141,1,0,0:0:0:0:
256,136,5142,1,0,0:0:0:0:
272,128,5143,1,0,0:0:0:0:
224,88,5144,1,0,0:0:0:0:
184,200,5145,1,0,0:0:0:0:
480,304,5146,1,0,0:0:0:0:
264,176,5147,1,0,0:0:0:0:
360,128,5148,1,0,0:0:0:0:
208,64,5149,1,0,0:0:0:0:
256,40,5150,1,0,0:0:0:0:
160,88,5151,1,0,0:0:0:0:
176,192,5152,1,0,0:0:0:0:
280,176,5153,1,0,0:0:0:0:
280,176,5154,1,0,0:0:0:0:
248,240,5155,1,0,0:0:0:0:
288,216,5156,1,0,0:0:0:0:
288,216,5157,1,0,0:0:0:0:
152,56,5158,1,0,0:0:0:0:
424,192,5159,1,0,0:0:0:0:
224,288,5160,1,0,0:0:0:0:
368,264,5161,1,0,0:0:0:0:
288,320,5162,1,0,0:0:0:0:
368,200,5163,1,0,0:0:0:0:
40,112,5164,1,0,0:0:0:0:
80,72,5165,1,0,0:0:0:0:
264,280,5166,1,0,0:0:0:0:
408,344,5167,1,0,0:0:0:0:
304,88,5168,1,0,0:0:0:0:
296,176,5169,1,0,0:0:0:0:
336,224,5170,1,0,0:0:0:0:
248,336,5171,1,0,0:0:0:0:
400,272,5172,1,0,0:0:0:0:
144,272,5173,1,0,0:0:0:0:
64,56,5174,5,0,0:0:0:0:
232,152,5175,1,0,0:0:0:0:
184,248,5176,1,0,0:0:0:0:
464,304,5177,1,0,0:0:0:0:
256,344,5179,1,0,0:0:0:0:
40,336,5180,1,0,0:0:0:0:
464,32,5181,1,0,0:0:0:0:
40,264,5182,1,0,0:0:0:0:
408,280,5183,1,0,0:0:0:0:
120,32,5184,1,0,0:0:0:0:
48,64,5185,1,0,0:0:0:0:
56,8,5186,1,0,0:0:0:0:
448,56,5187,1,0,0:0:0:0:
272,336,5190,1,0,0:0:0:0:
496,16,5191,1,0,0:0:0:0:
328,80,5192,1,0,0:0:0:0:
64,16,5194,1,0,0:0:0:0:
400,320,5195,1,0,0:0:0:0:
120,24,5196,1,0,0:0:0:0:
328,24,5197,1,0,0:0:0:0:
488,64,5198,1,0,0:0:0:0:
456,256,5199,1,0,0:0:0:0:
440,8,5200,1,0,0:0:0:0:
304,200,5201,1,0,0:0:0:0:
56,88,5202,1,0,0:0:0:0:
480,272,5203,1,0,0:0:0:0:
56,304,5204,1,0,0:0:0:0:
104,64,5205,1,0,0:0:0:0:
448,64,5206,1,0,0:0:0:0:
88,280,5207,1,0,0:0:0:0:
104,8,5208,1,0,0:0:0:0:
360,320,5209,1,0,0:0:0:0:
80,272,5210,1,0,0:0:0:0:
416,48,5211,1,0,0:0:0:0:
112,296,5212,1,0,0:0:0:0:
88,88,5213,1,0,0:0:0:0:
96,312,5214,1,0,0:0:0:0:
232,80,5215,1,0,0:0:0:0:
432,296,5216,1,0,0:0:0:0:
384,16,5217,1,0,0:0:0:0:
216,80,5218,1,0,0:0:0:0:
136,88,5219,1,0,0:0:0:0:
80,336,5220,1,0,0:0:0:0:
384,288,5221,1,0,0:0:0:0:
416,24,5222,1,0,0:0:0:0:
104,144,5223,1,0,0:0:0:0:
104,296,5224,1,0,0:0:0:0:
56,344,5225,1,0,0:0:0:0:
464,336,5226,1,0,0:0:0:0:
424,64,5227,1,0,0:0:0:0:
80,32,5228,1,0,0:0:0:0:
168,304,5229,1,0,0:0:0:0:
104,40,5230,1,0,0:0:0:0:
408,344,5231,1,0,0:0:0:0:
48,8,5232,1,0,0:0:0:0:
360,88,5233,1,0,0:0:0:0:
208,144,5234,1,0,0:0:0:0:
440,328,5235,1,0,0:0:0:0:
384,48,5236,1,0,0:0:0:0:
40,96,5237,1,0,0:0:0:0:
480,8,5238,1,0,0:0:0:0:
48,16,5239,1,0,0:0:0:0:
296,72,5240,1,0,0:0:0:0:
352,168,5241,1,0,0:0:0:0:
152,8,5242,1,0,0:0:0:0:
496,320,5243,1,0,0:0:0:0:
136,288,5244,1,0,0:0:0:0:
360,328,5245,1,0,0:0:0:0:
432,40,5246,1,0,0:0:0:0:
56,40,5247,1,0,0:0:0:0:
64,32,5248,1,0,0:0:0:0:
328,288,5249,1,0,0:0:0:0:
128,304,5250,1,0,0:0:0:0:
360,208,5251,5,0,0:0:0:0:
128,56,5252,1,0,0:0:0:0:
48,320,5253,1,0,0:0:0:0:
136,344,5254,1,0,0:0:0:0:
160,48,5255,5,0,0:0:0:0:
96,144,5256,1,0,0:0:0:0:
344,336,5257,1,0,0:0:0:0:
104,128,5258,1,0,0:0:0:0:
112,320,5259,1,0,0:0:0:0:
440,48,5260,1,0,0:0:0:0:
432,264,5261,1,0,0:0:0:0:
80,128,5262,1,0,0:0:0:0:
96,64,5263,1,0,0:0:0:0:
368,336,5264,1,0,0:0:0:0:
48,112,5265,1,0,0:0:0:0:
136,296,5266,1,0,0:0:0:0:
376,64,5267,1,0,0:0:0:0:
368,248,5268,1,0,0:0:0:0:
288,288,5269,1,0,0:0:0:0:
144,56,5270,1,0,0:0:0:0:
104,272,5271,1,0,0:0:0:0:
368,320,5272,1,0,0:0:0:0:
120,192,5273,1,0,0:0:0:0:
160,72,5274,1,0,0:0:0:0:
360,40,5275,1,0,0:0:0:0:
464,224,5276,1,0,0:0:0:0:
48,240,5277,1,0,0:0:0:0:
400,232,5278,1,0,0:0:0:0:
440,272,5279,1,0,0:0:0:0:
88,240,5280,1,0,0:0:0:0:
40,56,5281,1,0,0:0:0:0:
96,80,5282,1,0,0:0:0:0:
376,32,5283,1,0,0:0:0:0:
112,88,5284,1,0,0:0:0:0:
408,8,5285,1,0,0:0:0:0:
432,224,5286,1,0,0:0:0:0:
408,248,5287,1,0,0:0:0:0:
144,104,5288,1,0,0:0:0:0:
104,112,5289,1,0,0:0:0:0:
104,296,5290,1,0,0:0:0:0:
80,128,5291,1,0,0:0:0:0:
72,152,5292,1,0,0:0:0:0:
72,176,5293,1,0,0:0:0:0:
88,192,5294,1,0,0:0:0:0:
40,336,5295,1,0,0:0:0:0:
112,200,5296,1,0,0:0:0:0:
136,192,5297,1,0,0:0:0:0:
144,152,5298,1,0,0:0:0:0:
152,176,5299,1,0,0:0:0:0:
168,208,5300,1,0,0:0:0:0:
408,176,5301,1,0,0:0:0:0:
184,184,5302,1,0,0:0:0:0:
192,136,5303,1,0,0:0:0:0:
112,168,5304,1,0,0:0:0:0:
168,128,5305,1,0,0:0:0:0:
320,200,5306,1,0,0:0:0:0:
208,216,5307,1,0,0:0:0:0:
144,232,5308,1,0,0:0:0:0:
400,320,5309,1,0,0:0:0:0:
208,176,5310,1,0,0:0:0:0:
168,160,5311,1,0,0:0:0:0:
488,64,5312,1,0,0:0:0:0:
232,152,5313,1,0,0:0:0:0:
456,256,5314,1,0,0:0:0:0:
112,136,5315,1,0,0:0:0:0:
112,232,5316,1,0,0:0:0:0:
480,272,5317,1,0,0:0:0:0:
176,248,5318,1,0,0:0:0:0:
240,208,5319,1,0,0:0:0:0:
224,112,5320,1,0,0:0:0:0:
448,64,5321,1,0,0:0:0:0:
192,96,5322,1,0,0:0:0:0:
360,320,5323,1,0,0:0:0:0:
136,272,5324,1,0,0:0:0:0:
416,48,5325,1,0,0:0:0:0:
208,248,5326,1,0,0:0:0:0:
56,208,5327,1,0,0:0:0:0:
96,312,5328,1,0,0:0:0:0:
248,184,5329,1,0,0:0:0:0:
256,136,5330,1,0,0:0:0:0:
432,296,5331,1,0,0:0:0:0:
224,88,5332,1,0,0:0:0:0:
48,136,5333,1,0,0:0:0:0:
80,336,5334,1,0,0:0:0:0:
384,288,5335,1,0,0:0:0:0:
384,288,5336,1,0,0:0:0:0:
208,64,5337,1,0,0:0:0:0:
464,304,5338,1,0,0:0:0:0:
56,344,5339,1,0,0:0:0:0:
256,96,5340,1,0,0:0:0:0:
280,176,5341,1,0,0:0:0:0:
424,64,5342,1,0,0:0:0:0:
248,240,5343,1,0,0:0:0:0:
288,216,5344,1,0,0:0:0:0:
408,344,5345,1,0,0:0:0:0:
408,344,5346,1,0,0:0:0:0:
176,288,5347,1,0,0:0:0:0:
224,288,5348,1,0,0:0:0:0:
232,48,5349,1,0,0:0:0:0:
384,48,5350,1,0,0:0:0:0:
320,184,5351,1,0,0:0:0:0:
264,56,5352,1,0,0:0:0:0:
264,280,5353,1,0,0:0:0:0:
440,312,5355,1,0,0:0:0:0:
400,320,5356,1,0,0:0:0:0:
200,24,5357,1,0,0:0:0:0:
408,120,5358,5,0,0:0:0:0:
248,336,5359,1,0,0:0:0:0:
496,320,5360,1,0,0:0:0:0:
160,8,5361,1,0,0:0:0:0:
264,160,5362,1,0,0:0:0:0:
424,120,5363,1,0,0:0:0:0:
256,344,5364,1,0,0:0:0:0:
128,304,5365,1,0,0:0:0:0:
144,8,5366,1,0,0:0:0:0:
128,56,5367,1,0,0:0:0:0:
448,120,5368,1,0,0:0:0:0:
160,48,5369,5,0,0:0:0:0:
160,48,5370,5,0,0:0:0:0:
176,8,5371,1,0,0:0:0:0:
464,120,5372,1,0,0:0:0:0:
112,320,5373,1,0,0:0:0:0:
440,48,5374,1,0,0:0:0:0:
432,264,5375,1,0,0:0:0:0:
128,8,5376,1,0,0:0:0:0:
96,64,5377,1,0,0:0:0:0:
368,336,5378,1,0,0:0:0:0:
464,8,5379,1,0,0:0:0:0:
136,296,5380,1,0,0:0:0:0:
376,64,5381,1,0,0:0:0:0:
376,64,5382,1,0,0:0:0:0:
440,16,5383,1,0,0:0:0:0:
144,56,5384,1,0,0:0:0:0:
104,272,5385,1,0,0:0:0:0:
368,320,5386,1,0,0:0:0:0:
432,344,5387,1,0,0:0:0:0:
424,16,5388,1,0,0:0:0:0:
160,72,5389,1,0,0:0:0:0:
200,8,5390,1,0,0:0:0:0:
48,240,5391,1,0,0:0:0:0:
408,344,5392,1,0,0:0:0:0:
64,320,5393,1,0,0:0:0:0:
384,40,5394,1,0,0:0:0:0:
40,56,5395,1,0,0:0:0:0:
88,48,5396,1,0,0:0:0:0:
384,296,5397,1,0,0:0:0:0:
320,88,5398,1,0,0:0:0:0:
328,240,5399,1,0,0:0:0:0:
432,224,5400,1,0,0:0:0:0:
160,248,5401,1,0,0:0:0:0:
128,128,5402,1,0,0:0:0:0:
232,80,5403,1,0,0:0:0:0:
240,168,5404,1,0,0:0:0:0:
360,160,5405,1,0,0:0:0:0:
72,152,5406,1,0,0:0:0:0:
264,272,5407,1,0,0:0:0:0:
104,184,5408,1,0,0:0:0:0:
184,144,5409,1,0,0:0:0:0:
320,0,5410,1,0,0:0:0:0:
136,192,5411,1,0,0:0:0:0:
272,312,5412,1,0,0:0:0:0:
152,176,5413,1,0,0:0:0:0:
368,112,5414,1,0,0:0:0:0:
168,208,5415,1,0,0:0:0:0:
464,296,5416,1,0,0:0:0:0:
192,136,5417,1,0,0:0:0:0:
112,168,5418,1,0,0:0:0:0:
288,24,5419,1,0,0:0:0:0:
168,128,5420,1,0,0:0:0:0:
208,216,5421,1,0,0:0:0:0:
144,232,5422,1,0,0:0:0:0:
456,80,5423,1,0,0:0:0:0:
176,80,5424,1,0,0:0:0:0:
168,160,5425,1,0,0:0:0:0:
384,344,5426,1,0,0:0:0:0:
304,128,5427,1,0,0:0:0:0:
232,152,5428,1,0,0:0:0:0:
224,0,5429,1,0,0:0:0:0:
144,64,5430,1,0,0:0:0:0:
64,272,5431,1,0,0:0:0:0:
56,168,5432,1,0,0:0:0:0:
240,208,5433,1,0,0:0:0:0:
408,224,5434,1,0,0:0:0:0:
184,304,5435,1,0,0:0:0:0:
416,64,5436,1,0,0:0:0:0:
328,288,5437,1,0,0:0:0:0:
360,208,5438,5,0,0:0:0:0:
136,272,5439,1,0,0:0:0:0:
112,96,5440,1,0,0:0:0:0:
48,320,5441,1,0,0:0:0:0:
344,136,5442,1,0,0:0:0:0:
112,40,5443,1,0,0:0:0:0:
256,136,5444,1,0,0:0:0:0:
232,320,5446,1,0,0:0:0:0:
264,40,5447,1,0,0:0:0:0:
144,176,5448,1,0,0:0:0:0:
224,88,5449,1,0,0:0:0:0:
448,168,5451,1,0,0:0:0:0:
240,136,5452,1,0,0:0:0:0:
48,112,5453,1,0,0:0:0:0:
272,56,5454,1,0,0:0:0:0:
64,280,5455,1,0,0:0:0:0:
280,176,5456,1,0,0:0:0:0:
392,80,5457,1,0,0:0:0:0:
40,96,5458,1,0,0:0:0:0:
256,304,5459,1,0,0:0:0:0:
176,288,5461,1,0,0:0:0:0:
384,216,5462,1,0,0:0:0:0:
320,72,5463,1,0,0:0:0:0:
120,32,5464,1,0,0:0:0:0:
280,296,5465,1,0,0:0:0:0:
312,256,5466,1,0,0:0:0:0:
264,280,5467,1,0,0:0:0:0:
296,112,5468,1,0,0:0:0:0:
112,248,5469,1,0,0:0:0:0:
304,104,5470,1,0,0:0:0:0:
72,80,5471,1,0,0:0:0:0:
408,120,5472,5,0,0:0:0:0:
440,344,5473,1,0,0:0:0:0:
360,16,5475,1,0,0:0:0:0:
48,16,5476,1,0,0:0:0:0:
104,296,5477,1,0,0:0:0:0:
256,344,5478,1,0,0:0:0:0:
416,128,5479,1,0,0:0:0:0:
200,328,5480,1,0,0:0:0:0:
256,344,5481,1,0,0:0:0:0:
288,312,5482,1,0,0:0:0:0:
320,56,5484,1,0,0:0:0:0:
176,48,5485,1,0,0:0:0:0:
152,336,5486,1,0,0:0:0:0:
464,120,5487,1,0,0:0:0:0:
408,176,5488,1,0,0:0:0:0:
368,256,5490,1,0,0:0:0:0:
304,144,5491,1,0,0:0:0:0:
288,248,5492,1,0,0:0:0:0:
320,200,5493,1,0,0:0:0:0:
192,280,5495,1,0,0:0:0:0:
360,16,5496,1,0,0:0:0:0:
264,216,5497,1,0,0:0:0:0:
264,80,5498,1,0,0:0:0:0:
104,288,5499,1,0,0:0:0:0:
432,344,5501,1,0,0:0:0:0:
456,328,5502,1,0,0:0:0:0:
64,344,5503,1,0,0:0:0:0:
320,104,5504,1,0,0:0:0:0:
248,32,5506,1,0,0:0:0:0:
472,192,5507,1,0,0:0:0:0:
64,320,5508,1,0,0:0:0:0:
48,64,5509,1,0,0:0:0:0:
392,32,5510,1,0,0:0:0:0:
384,296,5511,1,0,0:0:0:0:
376,256,5512,1,0,0:0:0:0:
328,304,5513,1,0,0:0:0:0:
152,336,5514,1,0,0:0:0:0:
160,248,5515,1,0,0:0:0:0:
128,128,5516,1,0,0:0:0:0:
352,48,5517,1,0,0:0:0:0:
280,16,5518,1,0,0:0:0:0:
416,184,5519,1,0,0:0:0:0:
224,256,5520,1,0,0:0:0:0:
120,144,5521,1,0,0:0:0:0:
104,184,5522,1,0,0:0:0:0:
216,48,5523,1,0,0:0:0:0:
480,32,5524,1,0,0:0:0:0:
392,88,5525,1,0,0:0:0:0:
384,192,5526,1,0,0:0:0:0:
384,296,5528,1,0,0:0:0:0:
128,48,5529,1,0,0:0:0:0:
72,232,5530,1,0,0:0:0:0:
464,296,5531,1,0,0:0:0:0:
288,88,5532,1,0,0:0:0:0:
440,64,5534,1,0,0:0:0:0:
432,184,5535,1,0,0:0:0:0:
224,248,5536,1,0,0:0:0:0:
48,264,5537,1,0,0:0:0:0:
40,96,5538,1,0,0:0:0:0:
176,40,5540,1,0,0:0:0:0:
200,160,5541,1,0,0:0:0:0:
144,272,5542,1,0,0:0:0:0:
440,312,5543,1,0,0:0:0:0:
144,64,5544,1,0,0:0:0:0:
312,128,5545,1,0,0:0:0:0:
232,32,5546,1,0,0:0:0:0:
144,208,5547,1,0,0:0:0:0:
368,184,5548,1,0,0:0:0:0:
264,160,5549,1,0,0:0:0:0:
416,64,5550,1,0,0:0:0:0:
304,232,5551,1,0,0:0:0:0:
304,296,5552,1,0,0:0:0:0:
48,320,5553,1,0,0:0:0:0:
120,168,5554,1,0,0:0:0:0:
48,320,5555,1,0,0:0:0:0:
40,80,5556,1,0,0:0:0:0:
192,72,5557,1,0,0:0:0:0:
368,64,5558,1,0,0:0:0:0:
432,32,5559,1,0,0:0:0:0:
416,152,5560,1,0,0:0:0:0:
232,320,5561,1,0,0:0:0:0:
336,272,5562,1,0,0:0:0:0:
304,200,5563,1,0,0:0:0:0:
376,88,5564,1,0,0:0:0:0:
312,48,5565,1,0,0:0:0:0:
240,136,5566,1,0,0:0:0:0:
304,160,5567,5,0,0:0:0:0:
144,56,5568,1,0,0:0:0:0:
104,160,5569,1,0,0:0:0:0:
128,240,5570,1,0,0:0:0:0:
320,96,5571,1,0,0:0:0:0:
40,96,5572,1,0,0:0:0:0:
184,40,5573,1,0,0:0:0:0:
208,272,5575,1,0,0:0:0:0:
432,56,5576,1,0,0:0:0:0:
320,72,5577,1,0,0:0:0:0:
424,192,5578,1,0,0:0:0:0:
384,240,5579,1,0,0:0:0:0:
312,80,5580,1,0,0:0:0:0:
72,256,5581,1,0,0:0:0:0:
64,304,5582,1,0,0:0:0:0:
112,248,5583,1,0,0:0:0:0:
304,104,5584,1,0,0:0:0:0:
168,328,5585,1,0,0:0:0:0:
256,256,5586,1,0,0:0:0:0:
440,344,5587,1,0,0:0:0:0:
392,24,5589,1,0,0:0:0:0:
336,104,5590,1,0,0:0:0:0:
112,280,5591,1,0,0:0:0:0:
104,296,5592,1,0,0:0:0:0:
144,136,5593,1,0,0:0:0:0:
200,328,5594,1,0,0:0:0:0:
256,0,5595,1,0,0:0:0:0:
336,152,5596,1,0,0:0:0:0:
368,144,5597,1,0,0:0:0:0:
416,104,5598,1,0,0:0:0:0:
176,48,5599,1,0,0:0:0:0:
464,160,5600,1,0,0:0:0:0:
72,312,5601,1,0,0:0:0:0:
192,176,5602,1,0,0:0:0:0:
192,128,5603,1,0,0:0:0:0:
368,256,5604,1,0,0:0:0:0:
304,144,5605,1,0,0:0:0:0:
48,288,5606,1,0,0:0:0:0:
392,144,5607,1,0,0:0:0:0:
184,56,5608,1,0,0:0:0:0:
360,32,5609,1,0,0:0:0:0:
192,280,5610,1,0,0:0:0:0:
64,168,5611,1,0,0:0:0:0:
368,296,5612,1,0,0:0:0:0:
96,80,5613,1,0,0:0:0:0:
368,72,5614,1,0,0:0:0:0:
152,200,5615,1,0,0:0:0:0:
456,328,5616,1,0,0:0:0:0:
288,280,5617,1,0,0:0:0:0:
200,48,5618,1,0,0:0:0:0:
192,208,5619,1,0,0:0:0:0:
288,256,5620,1,0,0:0:0:0:
456,336,5621,1,0,0:0:0:0:
424,48,5623,1,0,0:0:0:0:
336,256,5624,1,0,0:0:0:0:
320,320,5625,1,0,0:0:0:0:
208,328,5626,1,0,0:0:0:0:
328,304,5627,1,0,0:0:0:0:
368,160,5628,1,0,0:0:0:0:
160,128,5629,1,0,0:0:0:0:
296,64,5630,1,0,0:0:0:0:
352,48,5631,1,0,0:0:0:0:
272,128,5632,1,0,0:0:0:0:
416,184,5633,1,0,0:0:0:0:
184,200,5634,1,0,0:0:0:0:
480,304,5635,1,0,0:0:0:0:
264,176,5636,1,0,0:0:0:0:
360,128,5637,1,0,0:0:0:0:
256,40,5639,1,0,0:0:0:0:
160,88,5640,1,0,0:0:0:0:
176,192,5641,1,0,0:0:0:0:
384,296,5642,1,0,0:0:0:0:
40,336,5643,1,0,0:0:0:0:
72,232,5644,1,0,0:0:0:0:
40,264,5645,1,0,0:0:0:0:
408,280,5646,1,0,0:0:0:0:
152,56,5647,1,0,0:0:0:0:
424,192,5648,1,0,0:0:0:0:
368,264,5650,1,0,0:0:0:0:
288,320,5651,1,0,0:0:0:0:
368,200,5652,1,0,0:0:0:0:
40,112,5653,1,0,0:0:0:0:
80,72,5654,1,0,0:0:0:0:
200,160,5655,1,0,0:0:0:0:
304,88,5657,1,0,0:0:0:0:
296,176,5658,1,0,0:0:0:0:
336,224,5659,1,0,0:0:0:0:
400,272,5661,1,0,0:0:0:0:
144,272,5662,1,0,0:0:0:0:
96,8,5663,5,0,0:0:0:0:
232,152,5664,1,0,0:0:0:0:
184,248,5665,1,0,0:0:0:0:
480,272,5666,1,0,0:0:0:0:
56,304,5667,1,0,0:0:0:0:
104,64,5668,1,0,0:0:0:0:
376,184,5669,1,0,0:0:0:0:
440,288,5670,1,0,0:0:0:0:
192,72,5671,1,0,0:0:0:0:
320,296,5672,1,0,0:0:0:0:
88,224,5673,1,0,0:0:0:0:
48,64,5674,1,0,0:0:0:0:
56,8,5675,1,0,0:0:0:0:
448,56,5676,1,0,0:0:0:0:
96,312,5677,1,0,0:0:0:0:
376,88,5678,1,0,0:0:0:0:
272,336,5679,1,0,0:0:0:0:
192,176,5680,1,0,0:0:0:0:
328,80,5681,1,0,0:0:0:0:
136,88,5682,1,0,0:0:0:0:
88,48,5683,1,0,0:0:0:0:
368,56,5684,1,0,0:0:0:0:
120,24,5685,1,0,0:0:0:0:
328,24,5686,1,0,0:0:0:0:
424,320,5687,1,0,0:0:0:0:
56,344,5688,1,0,0:0:0:0:
464,336,5689,1,0,0:0:0:0:
304,200,5690,1,0,0:0:0:0:
432,56,5691,1,0,0:0:0:0:
248,312,5692,1,0,0:0:0:0:
72,56,5694,1,0,0:0:0:0:
64,56,5695,5,0,0:0:0:0:
440,352,5696,1,0,0:0:0:0:
24,32,5697,1,0,0:0:0:0:
464,304,5698,1,0,0:0:0:0:
424,320,5700,1,0,0:0:0:0:
40,336,5701,1,0,0:0:0:0:
464,32,5702,1,0,0:0:0:0:
40,264,5703,1,0,0:0:0:0:
408,280,5704,1,0,0:0:0:0:
120,32,5705,1,0,0:0:0:0:
448,240,5706,1,0,0:0:0:0:
376,360,5707,1,0,0:0:0:0:
8,80,5708,1,0,0:0:0:0:
504,216,5709,1,0,0:0:0:0:
0,344,5710,1,0,0:0:0:0:
128,16,5711,1,0,0:0:0:0:
480,48,5712,1,0,0:0:0:0:
104,296,5713,1,0,0:0:0:0:
488,368,5714,1,0,0:0:0:0:
64,16,5715,1,0,0:0:0:0:
400,320,5716,1,0,0:0:0:0:
432,280,5717,1,0,0:0:0:0:
16,296,5718,1,0,0:0:0:0:
488,64,5719,1,0,0:0:0:0:
456,256,5720,1,0,0:0:0:0:
360,88,5722,1,0,0:0:0:0:
56,88,5723,1,0,0:0:0:0:
480,272,5724,1,0,0:0:0:0:
56,304,5725,1,0,0:0:0:0:
104,64,5726,1,0,0:0:0:0:
448,64,5727,1,0,0:0:0:0:
48,16,5728,1,0,0:0:0:0:
296,72,5729,1,0,0:0:0:0:
360,320,5730,1,0,0:0:0:0:
80,272,5731,1,0,0:0:0:0:
416,48,5732,1,0,0:0:0:0:
136,288,5733,1,0,0:0:0:0:
88,88,5734,1,0,0:0:0:0:
96,312,5735,1,0,0:0:0:0:
48,96,5736,1,0,0:0:0:0:
432,296,5737,1,0,0:0:0:0:
384,16,5738,1,0,0:0:0:0:
160,24,5739,1,0,0:0:0:0:
136,88,5740,1,0,0:0:0:0:
80,336,5741,1,0,0:0:0:0:
384,288,5742,1,0,0:0:0:0:
416,24,5743,1,0,0:0:0:0:
176,304,5744,1,0,0:0:0:0:
32,56,5745,1,0,0:0:0:0:
56,344,5746,1,0,0:0:0:0:
464,336,5747,1,0,0:0:0:0:
424,64,5748,1,0,0:0:0:0:
80,32,5749,1,0,0:0:0:0:
64,88,5750,1,0,0:0:0:0:
32,360,5751,1,0,0:0:0:0:
408,344,5752,1,0,0:0:0:0:
304,240,5753,1,0,0:0:0:0:
64,368,5754,1,0,0:0:0:0:
352,88,5755,1,0,0:0:0:0:
440,328,5756,1,0,0:0:0:0:
384,48,5757,1,0,0:0:0:0:
0,48,5758,1,0,0:0:0:0:
224,312,5759,1,0,0:0:0:0:
104,360,5760,1,0,0:0:0:0:
112,280,5761,1,0,0:0:0:0:
416,376,5762,1,0,0:0:0:0:
64,168,5763,1,0,0:0:0:0:
496,320,5764,1,0,0:0:0:0:
0,264,5765,1,0,0:0:0:0:
312,104,5766,1,0,0:0:0:0:
432,40,5767,1,0,0:0:0:0:
56,40,5768,1,0,0:0:0:0:
16,320,5769,1,0,0:0:0:0:
456,376,5770,1,0,0:0:0:0:
128,304,5771,1,0,0:0:0:0:
80,280,5772,1,0,0:0:0:0:
128,56,5773,1,0,0:0:0:0:
328,96,5774,1,0,0:0:0:0:
136,344,5775,1,0,0:0:0:0:
160,48,5776,5,0,0:0:0:0:
64,56,5777,5,0,0:0:0:0:
344,336,5778,1,0,0:0:0:0:
24,96,5779,1,0,0:0:0:0:
112,320,5780,1,0,0:0:0:0:
440,48,5781,1,0,0:0:0:0:
432,264,5782,1,0,0:0:0:0:
40,336,5783,1,0,0:0:0:0:
96,64,5784,1,0,0:0:0:0:
368,336,5785,1,0,0:0:0:0:
408,280,5786,1,0,0:0:0:0:
136,296,5787,1,0,0:0:0:0:
376,64,5788,1,0,0:0:0:0:
144,56,5791,1,0,0:0:0:0:
104,272,5792,1,0,0:0:0:0:
368,320,5793,1,0,0:0:0:0:
160,72,5795,1,0,0:0:0:0:
360,40,5796,1,0,0:0:0:0:
464,224,5797,1,0,0:0:0:0:
48,240,5798,1,0,0:0:0:0:
8,232,5799,1,0,0:0:0:0:
88,240,5801,1,0,0:0:0:0:
40,56,5802,1,0,0:0:0:0:
96,80,5803,1,0,0:0:0:0:
376,32,5804,1,0,0:0:0:0:
56,88,5805,1,0,0:0:0:0:
480,272,5806,1,0,0:0:0:0:
432,224,5807,1,0,0:0:0:0:
408,248,5808,1,0,0:0:0:0:
144,104,5809,1,0,0:0:0:0:
104,112,5810,1,0,0:0:0:0:
104,64,5811,1,0,0:0:0:0:
80,128,5812,1,0,0:0:0:0:
72,152,5813,1,0,0:0:0:0:
72,176,5814,1,0,0:0:0:0:
88,192,5815,1,0,0:0:0:0:
88,88,5816,1,0,0:0:0:0:
112,200,5817,1,0,0:0:0:0:
136,192,5818,1,0,0:0:0:0:
144,152,5819,1,0,0:0:0:0:
152,176,5820,1,0,0:0:0:0:
168,208,5821,1,0,0:0:0:0:
136,88,5822,1,0,0:0:0:0:
184,184,5823,1,0,0:0:0:0:
192,136,5824,1,0,0:0:0:0:
112,168,5825,1,0,0:0:0:0:
168,128,5826,1,0,0:0:0:0:
208,216,5828,1,0,0:0:0:0:
144,232,5829,1,0,0:0:0:0:
424,64,5830,1,0,0:0:0:0:
208,176,5831,1,0,0:0:0:0:
168,160,5832,1,0,0:0:0:0:
232,152,5834,1,0,0:0:0:0:
408,344,5835,1,0,0:0:0:0:
112,136,5836,1,0,0:0:0:0:
112,232,5837,1,0,0:0:0:0:
440,328,5838,1,0,0:0:0:0:
176,248,5839,1,0,0:0:0:0:
240,208,5840,1,0,0:0:0:0:
224,112,5841,1,0,0:0:0:0:
192,96,5843,1,0,0:0:0:0:
136,272,5845,1,0,0:0:0:0:
496,320,5846,1,0,0:0:0:0:
208,248,5847,1,0,0:0:0:0:
56,208,5848,1,0,0:0:0:0:
496,320,5849,1,0,0:0:0:0:
248,184,5850,1,0,0:0:0:0:
256,136,5851,1,0,0:0:0:0:
32,168,5852,1,0,0:0:0:0:
224,88,5853,1,0,0:0:0:0:
48,136,5854,1,0,0:0:0:0:
128,56,5855,1,0,0:0:0:0:
128,56,5856,1,0,0:0:0:0:
24,200,5857,1,0,0:0:0:0:
208,64,5858,1,0,0:0:0:0:
160,48,5859,5,0,0:0:0:0:
344,336,5860,1,0,0:0:0:0:
256,96,5861,1,0,0:0:0:0:
280,176,5862,1,0,0:0:0:0:
440,48,5863,1,0,0:0:0:0:
248,240,5864,1,0,0:0:0:0:
288,216,5865,1,0,0:0:0:0:
96,64,5866,1,0,0:0:0:0:
16,144,5867,1,0,0:0:0:0:
176,288,5868,1,0,0:0:0:0:
224,288,5869,1,0,0:0:0:0:
232,48,5870,1,0,0:0:0:0:
376,64,5871,1,0,0:0:0:0:
320,184,5872,1,0,0:0:0:0:
264,56,5873,1,0,0:0:0:0:
264,280,5874,1,0,0:0:0:0:
368,320,5875,1,0,0:0:0:0:
0,176,5876,1,0,0:0:0:0:
160,72,5877,1,0,0:0:0:0:
200,24,5878,1,0,0:0:0:0:
408,120,5879,5,0,0:0:0:0:
248,336,5880,1,0,0:0:0:0:
24,208,5881,1,0,0:0:0:0:
88,240,5883,1,0,0:0:0:0:
424,120,5884,1,0,0:0:0:0:
256,344,5885,1,0,0:0:0:0:
16,208,5886,1,0,0:0:0:0:
40,56,5887,1,0,0:0:0:0:
96,80,5888,1,0,0:0:0:0:
448,120,5889,1,0,0:0:0:0:
272,360,5890,1,0,0:0:0:0:
0,208,5891,1,0,0:0:0:0:
104,112,5892,1,0,0:0:0:0:
464,120,5893,1,0,0:0:0:0:
80,128,5894,1,0,0:0:0:0:
280,368,5895,1,0,0:0:0:0:
8,208,5896,1,0,0:0:0:0:
88,192,5897,1,0,0:0:0:0:
464,360,5898,1,0,0:0:0:0:
112,200,5899,1,0,0:0:0:0:
136,192,5900,1,0,0:0:0:0:
144,152,5901,1,0,0:0:0:0:
16,360,5902,1,0,0:0:0:0:
440,368,5903,1,0,0:0:0:0:
440,16,5904,1,0,0:0:0:0:
184,184,5905,1,0,0:0:0:0:
24,16,5906,1,0,0:0:0:0:
24,344,5907,1,0,0:0:0:0:
432,344,5908,1,0,0:0:0:0:
424,16,5909,1,0,0:0:0:0:
208,216,5910,1,0,0:0:0:0:
144,232,5911,1,0,0:0:0:0:
24,224,5912,1,0,0:0:0:0:
208,176,5913,1,0,0:0:0:0:
64,320,5914,1,0,0:0:0:0:
384,40,5915,1,0,0:0:0:0:
232,152,5916,1,0,0:0:0:0:
88,48,5917,1,0,0:0:0:0:
384,296,5918,1,0,0:0:0:0:
320,88,5919,1,0,0:0:0:0:
328,240,5920,1,0,0:0:0:0:
176,248,5921,1,0,0:0:0:0:
160,248,5922,1,0,0:0:0:0:
128,128,5923,1,0,0:0:0:0:
232,80,5924,1,0,0:0:0:0:
240,168,5925,1,0,0:0:0:0:
360,160,5926,1,0,0:0:0:0:
136,272,5927,1,0,0:0:0:0:
264,272,5928,1,0,0:0:0:0:
104,184,5929,1,0,0:0:0:0:
184,144,5930,1,0,0:0:0:0:
56,208,5931,1,0,0:0:0:0:
248,184,5932,1,0,0:0:0:0:
272,312,5933,1,0,0:0:0:0:
184,368,5934,1,0,0:0:0:0:
368,112,5935,1,0,0:0:0:0:
32,120,5936,1,0,0:0:0:0:
464,296,5937,1,0,0:0:0:0:
224,88,5938,1,0,0:0:0:0:
24,264,5939,1,0,0:0:0:0:
288,24,5940,1,0,0:0:0:0:
320,352,5941,1,0,0:0:0:0:
208,216,5942,1,0,0:0:0:0:
256,96,5943,1,0,0:0:0:0:
456,80,5944,1,0,0:0:0:0:
176,80,5945,1,0,0:0:0:0:
8,112,5946,1,0,0:0:0:0:
384,344,5947,1,0,0:0:0:0:
304,128,5948,1,0,0:0:0:0:
176,288,5950,1,0,0:0:0:0:
144,64,5951,1,0,0:0:0:0:
64,272,5952,1,0,0:0:0:0:
56,168,5953,1,0,0:0:0:0:
320,184,5954,1,0,0:0:0:0:
408,224,5955,1,0,0:0:0:0:
184,304,5956,1,0,0:0:0:0:
416,64,5957,1,0,0:0:0:0:
328,288,5958,1,0,0:0:0:0:
360,208,5959,5,0,0:0:0:0:
320,184,5960,1,0,0:0:0:0:
112,96,5961,1,0,0:0:0:0:
48,320,5962,1,0,0:0:0:0:
344,136,5963,1,0,0:0:0:0:
112,40,5964,1,0,0:0:0:0:
352,368,5965,1,0,0:0:0:0:
424,120,5966,1,0,0:0:0:0:
232,320,5967,1,0,0:0:0:0:
264,40,5968,1,0,0:0:0:0:
144,176,5969,1,0,0:0:0:0:
136,360,5970,1,0,0:0:0:0:
448,120,5971,1,0,0:0:0:0:
448,168,5972,1,0,0:0:0:0:
240,136,5973,1,0,0:0:0:0:
48,112,5974,1,0,0:0:0:0:
272,56,5975,1,0,0:0:0:0:
64,280,5976,1,0,0:0:0:0:
392,80,5978,1,0,0:0:0:0:
40,96,5979,1,0,0:0:0:0:
256,304,5980,1,0,0:0:0:0:
168,368,5981,1,0,0:0:0:0:
384,216,5983,1,0,0:0:0:0:
320,72,5984,1,0,0:0:0:0:
120,32,5985,1,0,0:0:0:0:
280,296,5986,1,0,0:0:0:0:
312,256,5987,1,0,0:0:0:0:
296,112,5989,1,0,0:0:0:0:
112,248,5990,1,0,0:0:0:0:
304,104,5991,1,0,0:0:0:0:
72,80,5992,1,0,0:0:0:0:
432,344,5993,1,0,0:0:0:0:
440,344,5994,1,0,0:0:0:0:
48,352,5995,1,0,0:0:0:0:
360,16,5996,1,0,0:0:0:0:
48,16,5997,1,0,0:0:0:0:
104,296,5998,1,0,0:0:0:0:
88,48,5999,1,0,0:0:0:0:
416,128,6000,1,0,0:0:0:0:
200,328,6001,1,0,0:0:0:0:
24,96,6002,1,0,0:0:0:0:
288,312,6003,1,0,0:0:0:0:
160,248,6004,1,0,0:0:0:0:
320,56,6005,1,0,0:0:0:0:
176,48,6006,1,0,0:0:0:0:
152,336,6007,1,0,0:0:0:0:
24,176,6008,1,0,0:0:0:0:
408,176,6009,1,0,0:0:0:0:
264,272,6010,1,0,0:0:0:0:
368,256,6011,1,0,0:0:0:0:
304,144,6012,1,0,0:0:0:0:
288,248,6013,1,0,0:0:0:0:
320,200,6014,1,0,0:0:0:0:
272,312,6015,1,0,0:0:0:0:
192,280,6016,1,0,0:0:0:0:
360,16,6017,1,0,0:0:0:0:
264,216,6018,1,0,0:0:0:0:
264,80,6019,1,0,0:0:0:0:
104,288,6020,1,0,0:0:0:0:
24,40,6022,1,0,0:0:0:0:
456,328,6023,1,0,0:0:0:0:
64,344,6024,1,0,0:0:0:0:
320,104,6025,1,0,0:0:0:0:
456,80,6026,1,0,0:0:0:0:
248,32,6027,1,0,0:0:0:0:
472,192,6028,1,0,0:0:0:0:
216,352,6029,1,0,0:0:0:0:
48,64,6030,1,0,0:0:0:0:
392,32,6031,1,0,0:0:0:0:
384,344,6032,1,0,0:0:0:0:
376,256,6033,1,0,0:0:0:0:
328,304,6034,1,0,0:0:0:0:
152,336,6035,1,0,0:0:0:0:
16,176,6036,1,0,0:0:0:0:
408,224,6037,1,0,0:0:0:0:
64,56,6038,5,0,0:0:0:0:
440,352,6039,1,0,0:0:0:0:
24,32,6040,1,0,0:0:0:0:
64,56,6041,5,0,0:0:0:0:
440,352,6042,1,0,0:0:0:0:
64,56,6043,5,0,0:0:0:0:
440,352,6044,1,0,0:0:0:0:
24,32,6045,1,0,0:0:0:0:
64,56,6046,5,0,0:0:0:0:
440,352,6047,1,0,0:0:0:0:
64,56,6048,5,0,0:0:0:0:
440,352,6049,1,0,0:0:0:0:
24,32,6050,1,0,0:0:0:0:
64,56,6051,5,0,0:0:0:0:
440,352,6052,1,0,0:0:0:0:
64,56,6053,5,0,0:0:0:0:
440,352,6054,1,0,0:0:0:0:
24,32,6055,1,0,0:0:0:0:
464,304,6056,1,0,0:0:0:0:
40,336,6057,1,0,0:0:0:0:
464,32,6058,1,0,0:0:0:0:
40,336,6059,1,0,0:0:0:0:
464,32,6060,1,0,0:0:0:0:
40,264,6061,1,0,0:0:0:0:
408,280,6062,1,0,0:0:0:0:
120,32,6063,1,0,0:0:0:0:
8,80,6064,1,0,0:0:0:0:
376,360,6065,1,0,0:0:0:0:
8,80,6066,1,0,0:0:0:0:
504,216,6067,1,0,0:0:0:0:
0,344,6068,1,0,0:0:0:0:
400,320,6069,1,0,0:0:0:0:
480,48,6070,1,0,0:0:0:0:
64,16,6071,1,0,0:0:0:0:
488,368,6072,1,0,0:0:0:0:
64,16,6073,1,0,0:0:0:0:
400,320,6074,1,0,0:0:0:0:
488,64,6075,1,0,0:0:0:0:
16,296,6076,1,0,0:0:0:0:
488,64,6077,1,0,0:0:0:0:
456,256,6078,1,0,0:0:0:0:
56,88,6079,1,0,0:0:0:0:
480,272,6080,1,0,0:0:0:0:
56,88,6081,1,0,0:0:0:0:
480,272,6082,1,0,0:0:0:0:
56,304,6083,1,0,0:0:0:0:
104,64,6084,1,0,0:0:0:0:
448,64,6085,1,0,0:0:0:0:
360,320,6086,1,0,0:0:0:0:
80,272,6087,1,0,0:0:0:0:
360,320,6088,1,0,0:0:0:0:
80,272,6089,1,0,0:0:0:0:
416,48,6090,1,0,0:0:0:0:
96,312,6091,1,0,0:0:0:0:
88,88,6092,1,0,0:0:0:0:
96,312,6093,1,0,0:0:0:0:
384,16,6094,1,0,0:0:0:0:
432,296,6095,1,0,0:0:0:0:
384,16,6096,1,0,0:0:0:0:
80,336,6097,1,0,0:0:0:0:
136,88,6098,1,0,0:0:0:0:
80,336,6099,1,0,0:0:0:0:
384,288,6100,1,0,0:0:0:0:
416,24,6101,1,0,0:0:0:0:
56,344,6102,1,0,0:0:0:0:
32,56,6103,1,0,0:0:0:0:
56,344,6104,1,0,0:0:0:0:
464,336,6105,1,0,0:0:0:0:
424,64,6106,1,0,0:0:0:0:
80,32,6107,1,0,0:0:0:0:
408,344,6108,1,0,0:0:0:0:
32,360,6109,1,0,0:0:0:0:
408,344,6110,1,0,0:0:0:0:
0,48,6111,1,0,0:0:0:0:
64,368,6112,1,0,0:0:0:0:
384,48,6113,1,0,0:0:0:0:
440,328,6114,1,0,0:0:0:0:
384,48,6115,1,0,0:0:0:0:
0,48,6116,1,0,0:0:0:0:
496,320,6117,1,0,0:0:0:0:
104,360,6118,1,0,0:0:0:0:
56,40,6119,1,0,0:0:0:0:
416,376,6120,1,0,0:0:0:0:
0,264,6121,1,0,0:0:0:0:
496,320,6122,1,0,0:0:0:0:
0,264,6123,1,0,0:0:0:0:
56,40,6124,1,0,0:0:0:0:
432,40,6125,1,0,0:0:0:0:
56,40,6126,1,0,0:0:0:0:
16,320,6127,1,0,0:0:0:0:
456,376,6128,1,0,0:0:0:0:
128,304,6129,1,0,0:0:0:0:
24,96,6130,1,0,0:0:0:0:
128,56,6131,1,0,0:0:0:0:
160,48,6132,5,0,0:0:0:0:
136,344,6133,1,0,0:0:0:0:
160,48,6134,5,0,0:0:0:0:
24,96,6135,1,0,0:0:0:0:
344,336,6136,1,0,0:0:0:0:
24,96,6137,1,0,0:0:0:0:
112,320,6138,1,0,0:0:0:0:
440,48,6139,1,0,0:0:0:0:
432,264,6140,1,0,0:0:0:0:
368,336,6141,1,0,0:0:0:0:
96,64,6142,1,0,0:0:0:0:
368,336,6143,1,0,0:0:0:0:
376,64,6144,1,0,0:0:0:0:
136,296,6145,1,0,0:0:0:0:
376,64,6146,1,0,0:0:0:0:
144,56,6147,1,0,0:0:0:0:
104,272,6148,1,0,0:0:0:0:
144,56,6149,1,0,0:0:0:0:
104,272,6150,1,0,0:0:0:0:
368,320,6151,1,0,0:0:0:0:
360,40,6152,1,0,0:0:0:0:
160,72,6153,1,0,0:0:0:0:
360,40,6154,1,0,0:0:0:0:
464,224,6155,1,0,0:0:0:0:
48,240,6156,1,0,0:0:0:0:
8,232,6157,1,0,0:0:0:0:
40,56,6158,1,0,0:0:0:0:
88,240,6159,1,0,0:0:0:0:
40,56,6160,1,0,0:0:0:0:
96,80,6161,1,0,0:0:0:0:
376,32,6162,1,0,0:0:0:0:
432,224,6163,1,0,0:0:0:0:
408,248,6164,1,0,0:0:0:0:
432,224,6165,1,0,0:0:0:0:
408,248,6166,1,0,0:0:0:0:
144,104,6167,1,0,0:0:0:0:
104,112,6168,1,0,0:0:0:0:
72,152,6169,1,0,0:0:0:0:
80,128,6170,1,0,0:0:0:0:
72,152,6171,1,0,0:0:0:0:
72,176,6172,1,0,0:0:0:0:
88,192,6173,1,0,0:0:0:0:
136,192,6174,1,0,0:0:0:0:
112,200,6175,1,0,0:0:0:0:
136,192,6176,1,0,0:0:0:0:
144,152,6177,1,0,0:0:0:0:
152,176,6178,1,0,0:0:0:0:
168,208,6179,1,0,0:0:0:0:
192,136,6180,1,0,0:0:0:0:
184,184,6181,1,0,0:0:0:0:
192,136,6182,1,0,0:0:0:0:
112,168,6183,1,0,0:0:0:0:
168,128,6184,1,0,0:0:0:0:
144,232,6185,1,0,0:0:0:0:
208,216,6186,1,0,0:0:0:0:
144,232,6187,1,0,0:0:0:0:
168,160,6188,1,0,0:0:0:0:
208,176,6189,1,0,0:0:0:0:
168,160,6190,1,0,0:0:0:0:
240,208,6191,1,0,0:0:0:0:
232,152,6192,1,0,0:0:0:0:
112,232,6193,1,0,0:0:0:0:
112,136,6194,1,0,0:0:0:0:
112,232,6195,1,0,0:0:0:0:
240,208,6196,1,0,0:0:0:0:
176,248,6197,1,0,0:0:0:0:
240,208,6198,1,0,0:0:0:0:
224,112,6199,1,0,0:0:0:0:
208,248,6200,1,0,0:0:0:0:
192,96,6201,1,0,0:0:0:0:
256,136,6202,1,0,0:0:0:0:
136,272,6203,1,0,0:0:0:0:
56,208,6204,1,0,0:0:0:0:
208,248,6205,1,0,0:0:0:0:
56,208,6206,1,0,0:0:0:0:
256,136,6207,1,0,0:0:0:0:
248,184,6208,1,0,0:0:0:0:
256,136,6209,1,0,0:0:0:0:
32,168,6210,1,0,0:0:0:0:
224,88,6211,1,0,0:0:0:0:
48,136,6212,1,0,0:0:0:0:
24,200,6213,1,0,0:0:0:0:
208,64,6214,1,0,0:0:0:0:
24,200,6215,1,0,0:0:0:0:
208,64,6216,1,0,0:0:0:0:
256,96,6217,1,0,0:0:0:0:
280,176,6218,1,0,0:0:0:0:
256,96,6219,1,0,0:0:0:0:
280,176,6220,1,0,0:0:0:0:
288,216,6221,1,0,0:0:0:0:
248,240,6222,1,0,0:0:0:0:
288,216,6223,1,0,0:0:0:0:
176,288,6224,1,0,0:0:0:0:
16,144,6225,1,0,0:0:0:0:
176,288,6226,1,0,0:0:0:0:
224,288,6227,1,0,0:0:0:0:
232,48,6228,1,0,0:0:0:0:
264,56,6229,1,0,0:0:0:0:
320,184,6230,1,0,0:0:0:0:
264,56,6231,1,0,0:0:0:0:
264,280,6232,1,0,0:0:0:0:
248,336,6233,1,0,0:0:0:0:
0,176,6234,1,0,0:0:0:0:
408,120,6235,5,0,0:0:0:0:
200,24,6236,1,0,0:0:0:0:
408,120,6237,5,0,0:0:0:0:
248,336,6238,1,0,0:0:0:0:
24,208,6239,1,0,0:0:0:0:
424,120,6240,1,0,0:0:0:0:
256,344,6241,1,0,0:0:0:0:
424,120,6242,1,0,0:0:0:0:
256,344,6243,1,0,0:0:0:0:
16,208,6244,1,0,0:0:0:0:
448,120,6245,1,0,0:0:0:0:
272,360,6246,1,0,0:0:0:0:
448,120,6247,1,0,0:0:0:0:
272,360,6248,1,0,0:0:0:0:
0,208,6249,1,0,0:0:0:0:
16,360,6250,1,0,0:0:0:0:
464,120,6251,1,0,0:0:0:0:
8,208,6252,1,0,0:0:0:0:
280,368,6253,1,0,0:0:0:0:
8,208,6254,1,0,0:0:0:0:
16,360,6255,1,0,0:0:0:0:
464,360,6256,1,0,0:0:0:0:
440,16,6257,1,0,0:0:0:0:
16,360,6258,1,0,0:0:0:0:
440,368,6259,1,0,0:0:0:0:
16,360,6260,1,0,0:0:0:0:
440,368,6261,1,0,0:0:0:0:
440,16,6262,1,0,0:0:0:0:
24,344,6263,1,0,0:0:0:0:
24,16,6264,1,0,0:0:0:0:
24,344,6265,1,0,0:0:0:0:
432,344,6266,1,0,0:0:0:0:
424,16,6267,1,0,0:0:0:0:
24,224,6268,1,0,0:0:0:0:
384,296,6269,1,0,0:0:0:0:
24,224,6270,1,0,0:0:0:0:
384,40,6271,1,0,0:0:0:0:
64,320,6272,1,0,0:0:0:0:
384,40,6273,1,0,0:0:0:0:
384,296,6274,1,0,0:0:0:0:
88,48,6275,1,0,0:0:0:0:
384,296,6276,1,0,0:0:0:0:
320,88,6277,1,0,0:0:0:0:
328,240,6278,1,0,0:0:0:0:
128,128,6279,1,0,0:0:0:0:
160,248,6280,1,0,0:0:0:0:
128,128,6281,1,0,0:0:0:0:
232,80,6282,1,0,0:0:0:0:
240,168,6283,1,0,0:0:0:0:
360,160,6284,1,0,0:0:0:0:
104,184,6285,1,0,0:0:0:0:
264,272,6286,1,0,0:0:0:0:
104,184,6287,1,0,0:0:0:0:
184,144,6288,1,0,0:0:0:0:
272,312,6289,1,0,0:0:0:0:
184,368,6290,1,0,0:0:0:0:
272,312,6291,1,0,0:0:0:0:
184,368,6292,1,0,0:0:0:0:
368,112,6293,1,0,0:0:0:0:
32,120,6294,1,0,0:0:0:0:
464,296,6295,1,0,0:0:0:0:
288,24,6296,1,0,0:0:0:0:
64,56,6297,5,0,0:0:0:0:
440,352,6298,1,0,0:0:0:0:
24,32,6299,1,0,0:0:0:0:
464,304,6300,1,0,0:0:0:0:
176,80,6301,1,0,0:0:0:0:
456,80,6302,1,0,0:0:0:0:
40,336,6303,1,0,0:0:0:0:
464,32,6304,1,0,0:0:0:0:
40,264,6305,1,0,0:0:0:0:
408,280,6306,1,0,0:0:0:0:
120,32,6307,1,0,0:0:0:0:
64,272,6308,1,0,0:0:0:0:
376,360,6309,1,0,0:0:0:0:
8,80,6310,1,0,0:0:0:0:
504,216,6311,1,0,0:0:0:0:
0,344,6312,1,0,0:0:0:0:
408,224,6313,1,0,0:0:0:0:
480,48,6314,1,0,0:0:0:0:
416,64,6315,1,0,0:0:0:0:
488,368,6316,1,0,0:0:0:0:
64,16,6317,1,0,0:0:0:0:
400,320,6318,1,0,0:0:0:0:
112,96,6319,1,0,0:0:0:0:
16,296,6320,1,0,0:0:0:0:
488,64,6321,1,0,0:0:0:0:
456,256,6322,1,0,0:0:0:0:
352,368,6323,1,0,0:0:0:0:
264,40,6324,1,0,0:0:0:0:
56,88,6325,1,0,0:0:0:0:
480,272,6326,1,0,0:0:0:0:
56,304,6327,1,0,0:0:0:0:
104,64,6328,1,0,0:0:0:0:
448,64,6329,1,0,0:0:0:0:
448,168,6330,1,0,0:0:0:0:
240,136,6331,1,0,0:0:0:0:
360,320,6332,1,0,0:0:0:0:
80,272,6333,1,0,0:0:0:0:
416,48,6334,1,0,0:0:0:0:
40,96,6335,1,0,0:0:0:0:
88,88,6336,1,0,0:0:0:0:
96,312,6337,1,0,0:0:0:0:
256,304,6338,1,0,0:0:0:0:
432,296,6339,1,0,0:0:0:0:
384,16,6340,1,0,0:0:0:0:
384,216,6341,1,0,0:0:0:0:
136,88,6342,1,0,0:0:0:0:
80,336,6343,1,0,0:0:0:0:
384,288,6344,1,0,0:0:0:0:
416,24,6345,1,0,0:0:0:0:
112,248,6346,1,0,0:0:0:0:
32,56,6347,1,0,0:0:0:0:
56,344,6348,1,0,0:0:0:0:
464,336,6349,1,0,0:0:0:0:
424,64,6350,1,0,0:0:0:0:
80,32,6351,1,0,0:0:0:0:
440,344,6352,1,0,0:0:0:0:
32,360,6353,1,0,0:0:0:0:
408,344,6354,1,0,0:0:0:0:
48,16,6355,1,0,0:0:0:0:
64,368,6356,1,0,0:0:0:0:
200,328,6357,1,0,0:0:0:0:
440,328,6358,1,0,0:0:0:0:
384,48,6359,1,0,0:0:0:0:
0,48,6360,1,0,0:0:0:0:
288,312,6361,1,0,0:0:0:0:
104,360,6362,1,0,0:0:0:0:
320,56,6363,1,0,0:0:0:0:
416,376,6364,1,0,0:0:0:0:
152,336,6365,1,0,0:0:0:0:
496,320,6366,1,0,0:0:0:0:
0,264,6367,1,0,0:0:0:0:
304,144,6368,1,0,0:0:0:0:
432,40,6369,1,0,0:0:0:0:
56,40,6370,1,0,0:0:0:0:
16,320,6371,1,0,0:0:0:0:
456,376,6372,1,0,0:0:0:0:
128,304,6373,1,0,0:0:0:0:
192,280,6374,1,0,0:0:0:0:
128,56,6375,1,0,0:0:0:0:
264,216,6376,1,0,0:0:0:0:
136,344,6377,1,0,0:0:0:0:
160,48,6378,5,0,0:0:0:0:
456,328,6379,1,0,0:0:0:0:
344,336,6380,1,0,0:0:0:0:
24,96,6381,1,0,0:0:0:0:
112,320,6382,1,0,0:0:0:0:
440,48,6383,1,0,0:0:0:0:
432,264,6384,1,0,0:0:0:0:
248,32,6385,1,0,0:0:0:0:
96,64,6386,1,0,0:0:0:0:
368,336,6387,1,0,0:0:0:0:
48,64,6388,1,0,0:0:0:0:
136,296,6389,1,0,0:0:0:0:
376,64,6390,1,0,0:0:0:0:
376,256,6391,1,0,0:0:0:0:
328,304,6392,1,0,0:0:0:0:
144,56,6393,1,0,0:0:0:0:
104,272,6394,1,0,0:0:0:0:
368,320,6395,1,0,0:0:0:0:
352,48,6396,1,0,0:0:0:0:
160,72,6397,1,0,0:0:0:0:
360,40,6398,1,0,0:0:0:0:
464,224,6399,1,0,0:0:0:0:
48,240,6400,1,0,0:0:0:0:
8,232,6401,1,0,0:0:0:0:
216,48,6402,1,0,0:0:0:0:
88,240,6403,1,0,0:0:0:0:
40,56,6404,1,0,0:0:0:0:
96,80,6405,1,0,0:0:0:0:
376,32,6406,1,0,0:0:0:0:
384,296,6407,1,0,0:0:0:0:
128,48,6408,1,0,0:0:0:0:
432,224,6409,1,0,0:0:0:0:
408,248,6410,1,0,0:0:0:0:
144,104,6411,1,0,0:0:0:0:
104,112,6412,1,0,0:0:0:0:
440,64,6413,1,0,0:0:0:0:
80,128,6414,1,0,0:0:0:0:
72,152,6415,1,0,0:0:0:0:
72,176,6416,1,0,0:0:0:0:
88,192,6417,1,0,0:0:0:0:
200,160,6418,1,0,0:0:0:0:
112,200,6419,1,0,0:0:0:0:
136,192,6420,1,0,0:0:0:0:
144,152,6421,1,0,0:0:0:0:
152,176,6422,1,0,0:0:0:0:
64,56,6423,5,0,0:0:0:0:
440,352,6424,1,0,0:0:0:0:
24,32,6425,1,0,0:0:0:0:
464,304,6426,1,0,0:0:0:0:
112,168,6427,1,0,0:0:0:0:
168,128,6428,1,0,0:0:0:0:
40,336,6429,1,0,0:0:0:0:
464,32,6430,1,0,0:0:0:0:
40,264,6431,1,0,0:0:0:0:
408,280,6432,1,0,0:0:0:0:
120,32,6433,1,0,0:0:0:0:
168,160,6434,1,0,0:0:0:0:
376,360,6435,1,0,0:0:0:0:
8,80,6436,1,0,0:0:0:0:
504,216,6437,1,0,0:0:0:0:
0,344,6438,1,0,0:0:0:0:
112,232,6439,1,0,0:0:0:0:
480,48,6440,1,0,0:0:0:0:
176,248,6441,1,0,0:0:0:0:
488,368,6442,1,0,0:0:0:0:
64,16,6443,1,0,0:0:0:0:
400,320,6444,1,0,0:0:0:0:
192,96,6445,1,0,0:0:0:0:
16,296,6446,1,0,0:0:0:0:
488,64,6447,1,0,0:0:0:0:
456,256,6448,1,0,0:0:0:0:
208,248,6449,1,0,0:0:0:0:
56,208,6450,1,0,0:0:0:0:
56,88,6451,1,0,0:0:0:0:
480,272,6452,1,0,0:0:0:0:
56,304,6453,1,0,0:0:0:0:
104,64,6454,1,0,0:0:0:0:
448,64,6455,1,0,0:0:0:0:
48,136,6456,1,0,0:0:0:0:
424,192,6457,1,0,0:0:0:0:
360,320,6458,1,0,0:0:0:0:
80,272,6459,1,0,0:0:0:0:
416,48,6460,1,0,0:0:0:0:
64,304,6461,1,0,0:0:0:0:
88,88,6462,1,0,0:0:0:0:
96,312,6463,1,0,0:0:0:0:
280,176,6464,1,0,0:0:0:0:
432,296,6465,1,0,0:0:0:0:
384,16,6466,1,0,0:0:0:0:
288,216,6467,1,0,0:0:0:0:
136,88,6468,1,0,0:0:0:0:
80,336,6469,1,0,0:0:0:0:
384,288,6470,1,0,0:0:0:0:
416,24,6471,1,0,0:0:0:0:
232,48,6472,1,0,0:0:0:0:
32,56,6473,1,0,0:0:0:0:
56,344,6474,1,0,0:0:0:0:
464,336,6475,1,0,0:0:0:0:
424,64,6476,1,0,0:0:0:0:
80,32,6477,1,0,0:0:0:0:
0,176,6478,1,0,0:0:0:0:
32,360,6479,1,0,0:0:0:0:
408,344,6480,1,0,0:0:0:0:
408,120,6481,5,0,0:0:0:0:
64,368,6482,1,0,0:0:0:0:
24,208,6483,1,0,0:0:0:0:
440,328,6484,1,0,0:0:0:0:
384,48,6485,1,0,0:0:0:0:
0,48,6486,1,0,0:0:0:0:
256,344,6487,1,0,0:0:0:0:
104,360,6488,1,0,0:0:0:0:
368,296,6489,1,0,0:0:0:0:
416,376,6490,1,0,0:0:0:0:
448,120,6491,1,0,0:0:0:0:
496,320,6492,1,0,0:0:0:0:
0,264,6493,1,0,0:0:0:0:
152,200,6494,1,0,0:0:0:0:
432,40,6495,1,0,0:0:0:0:
56,40,6496,1,0,0:0:0:0:
16,320,6497,1,0,0:0:0:0:
456,376,6498,1,0,0:0:0:0:
128,304,6499,1,0,0:0:0:0:
464,360,6500,1,0,0:0:0:0:
128,56,6501,1,0,0:0:0:0:
424,48,6502,1,0,0:0:0:0:
136,344,6503,1,0,0:0:0:0:
160,48,6504,5,0,0:0:0:0:
440,368,6505,1,0,0:0:0:0:
344,336,6506,1,0,0:0:0:0:
24,96,6507,1,0,0:0:0:0:
112,320,6508,1,0,0:0:0:0:
440,48,6509,1,0,0:0:0:0:
432,264,6510,1,0,0:0:0:0:
424,16,6511,1,0,0:0:0:0:
96,64,6512,1,0,0:0:0:0:
368,336,6513,1,0,0:0:0:0:
24,224,6514,1,0,0:0:0:0:
136,296,6515,1,0,0:0:0:0:
376,64,6516,1,0,0:0:0:0:
384,40,6517,1,0,0:0:0:0:
256,40,6518,1,0,0:0:0:0:
144,56,6519,1,0,0:0:0:0:
104,272,6520,1,0,0:0:0:0:
368,320,6521,1,0,0:0:0:0:
328,240,6522,1,0,0:0:0:0:
160,72,6523,1,0,0:0:0:0:
360,40,6524,1,0,0:0:0:0:
464,224,6525,1,0,0:0:0:0:
48,240,6526,1,0,0:0:0:0:
8,232,6527,1,0,0:0:0:0:
360,160,6528,1,0,0:0:0:0:
88,240,6529,1,0,0:0:0:0:
40,56,6530,1,0,0:0:0:0:
96,80,6531,1,0,0:0:0:0:
376,32,6532,1,0,0:0:0:0:
80,72,6533,1,0,0:0:0:0:
304,88,6534,1,0,0:0:0:0:
432,224,6535,1,0,0:0:0:0:
408,248,6536,1,0,0:0:0:0:
144,104,6537,1,0,0:0:0:0:
104,112,6538,1,0,0:0:0:0:
464,296,6539,1,0,0:0:0:0:
80,128,6540,1,0,0:0:0:0:
72,152,6541,1,0,0:0:0:0:
72,176,6542,1,0,0:0:0:0:
88,192,6543,1,0,0:0:0:0:
208,216,6544,1,0,0:0:0:0:
112,200,6545,1,0,0:0:0:0:
136,192,6546,1,0,0:0:0:0:
144,152,6547,1,0,0:0:0:0:
152,176,6548,1,0,0:0:0:0:
168,208,6549,1,0,0:0:0:0:
304,128,6550,1,0,0:0:0:0:
184,184,6551,1,0,0:0:0:0:
192,136,6552,1,0,0:0:0:0:
112,168,6553,1,0,0:0:0:0:
168,128,6554,1,0,0:0:0:0:
56,168,6555,1,0,0:0:0:0:
208,216,6556,1,0,0:0:0:0:
144,232,6557,1,0,0:0:0:0:
184,304,6558,1,0,0:0:0:0:
208,176,6559,1,0,0:0:0:0:
168,160,6560,1,0,0:0:0:0:
360,208,6561,5,0,0:0:0:0:
232,152,6562,1,0,0:0:0:0:
112,96,6563,1,0,0:0:0:0:
112,136,6564,1,0,0:0:0:0:
112,232,6565,1,0,0:0:0:0:
112,40,6566,1,0,0:0:0:0:
176,248,6567,1,0,0:0:0:0:
240,208,6568,1,0,0:0:0:0:
224,112,6569,1,0,0:0:0:0:
264,40,6570,1,0,0:0:0:0:
192,96,6571,1,0,0:0:0:0:
136,360,6572,1,0,0:0:0:0:
64,56,6573,5,0,0:0:0:0:
440,352,6574,1,0,0:0:0:0:
24,32,6575,1,0,0:0:0:0:
464,304,6576,1,0,0:0:0:0:
272,56,6577,1,0,0:0:0:0:
248,184,6578,1,0,0:0:0:0:
40,336,6579,1,0,0:0:0:0:
464,32,6580,1,0,0:0:0:0:
40,264,6581,1,0,0:0:0:0:
408,280,6582,1,0,0:0:0:0:
120,32,6583,1,0,0:0:0:0:
416,320,6584,1,0,0:0:0:0:
376,360,6585,1,0,0:0:0:0:
8,80,6586,1,0,0:0:0:0:
504,216,6587,1,0,0:0:0:0:
0,344,6588,1,0,0:0:0:0:
256,96,6589,1,0,0:0:0:0:
480,48,6590,1,0,0:0:0:0:
296,112,6591,1,0,0:0:0:0:
488,368,6592,1,0,0:0:0:0:
64,16,6593,1,0,0:0:0:0:
400,320,6594,1,0,0:0:0:0:
16,144,6595,1,0,0:0:0:0:
16,296,6596,1,0,0:0:0:0:
488,64,6597,1,0,0:0:0:0:
456,256,6598,1,0,0:0:0:0:
48,16,6599,1,0,0:0:0:0:
320,184,6600,1,0,0:0:0:0:
56,88,6601,1,0,0:0:0:0:
480,272,6602,1,0,0:0:0:0:
56,304,6603,1,0,0:0:0:0:
104,64,6604,1,0,0:0:0:0:
448,64,6605,1,0,0:0:0:0:
200,24,6606,1,0,0:0:0:0:
408,120,6607,5,0,0:0:0:0:
360,320,6608,1,0,0:0:0:0:
80,272,6609,1,0,0:0:0:0:
416,48,6610,1,0,0:0:0:0:
408,176,6611,1,0,0:0:0:0:
88,88,6612,1,0,0:0:0:0:
96,312,6613,1,0,0:0:0:0:
16,208,6614,1,0,0:0:0:0:
432,296,6615,1,0,0:0:0:0:
384,16,6616,1,0,0:0:0:0:
448,120,6617,1,0,0:0:0:0:
136,88,6618,1,0,0:0:0:0:
80,336,6619,1,0,0:0:0:0:
384,288,6620,1,0,0:0:0:0:
416,24,6621,1,0,0:0:0:0:
104,288,6622,1,0,0:0:0:0:
32,56,6623,1,0,0:0:0:0:
56,344,6624,1,0,0:0:0:0:
464,336,6625,1,0,0:0:0:0:
424,64,6626,1,0,0:0:0:0:
80,32,6627,1,0,0:0:0:0:
32,360,6629,1,0,0:0:0:0:
408,344,6630,1,0,0:0:0:0:
440,368,6631,1,0,0:0:0:0:
64,368,6632,1,0,0:0:0:0:
392,32,6633,1,0,0:0:0:0:
440,328,6634,1,0,0:0:0:0:
384,48,6635,1,0,0:0:0:0:
0,48,6636,1,0,0:0:0:0:
424,16,6637,1,0,0:0:0:0:
104,360,6638,1,0,0:0:0:0:
416,376,6640,1,0,0:0:0:0:
280,16,6641,1,0,0:0:0:0:
496,320,6642,1,0,0:0:0:0:
0,264,6643,1,0,0:0:0:0:
120,144,6644,1,0,0:0:0:0:
432,40,6645,1,0,0:0:0:0:
56,40,6646,1,0,0:0:0:0:
16,320,6647,1,0,0:0:0:0:
456,376,6648,1,0,0:0:0:0:
128,304,6649,1,0,0:0:0:0:
160,248,6650,1,0,0:0:0:0:
128,56,6651,1,0,0:0:0:0:
232,80,6652,1,0,0:0:0:0:
136,344,6653,1,0,0:0:0:0:
160,48,6654,5,0,0:0:0:0:
288,88,6655,1,0,0:0:0:0:
344,336,6656,1,0,0:0:0:0:
24,96,6657,1,0,0:0:0:0:
112,320,6658,1,0,0:0:0:0:
440,48,6659,1,0,0:0:0:0:
432,264,6660,1,0,0:0:0:0:
272,312,6661,1,0,0:0:0:0:
96,64,6662,1,0,0:0:0:0:
368,336,6663,1,0,0:0:0:0:
32,120,6664,1,0,0:0:0:0:
136,296,6665,1,0,0:0:0:0:
376,64,6666,1,0,0:0:0:0:
24,264,6667,1,0,0:0:0:0:
288,24,6668,1,0,0:0:0:0:
144,56,6669,1,0,0:0:0:0:
104,272,6670,1,0,0:0:0:0:
368,320,6671,1,0,0:0:0:0:
456,80,6672,1,0,0:0:0:0:
160,72,6673,1,0,0:0:0:0:
360,40,6674,1,0,0:0:0:0:
464,224,6675,1,0,0:0:0:0:
48,240,6676,1,0,0:0:0:0:
8,232,6677,1,0,0:0:0:0:
88,240,6679,1,0,0:0:0:0:
40,56,6680,1,0,0:0:0:0:
96,80,6681,1,0,0:0:0:0:
64,56,6682,5,0,0:0:0:0:
440,352,6683,1,0,0:0:0:0:
24,32,6684,1,0,0:0:0:0:
464,304,6685,1,0,0:0:0:0:
408,248,6686,1,0,0:0:0:0:
144,104,6687,1,0,0:0:0:0:
40,336,6688,1,0,0:0:0:0:
464,32,6689,1,0,0:0:0:0:
40,264,6690,1,0,0:0:0:0:
408,280,6691,1,0,0:0:0:0:
120,32,6692,1,0,0:0:0:0:
88,192,6693,1,0,0:0:0:0:
376,360,6694,1,0,0:0:0:0:
8,80,6695,1,0,0:0:0:0:
504,216,6696,1,0,0:0:0:0:
0,344,6697,1,0,0:0:0:0:
152,176,6698,1,0,0:0:0:0:
480,48,6699,1,0,0:0:0:0:
448,168,6700,1,0,0:0:0:0:
488,368,6701,1,0,0:0:0:0:
64,16,6702,1,0,0:0:0:0:
400,320,6703,1,0,0:0:0:0:
168,128,6704,1,0,0:0:0:0:
16,296,6705,1,0,0:0:0:0:
488,64,6706,1,0,0:0:0:0:
456,256,6707,1,0,0:0:0:0:
256,304,6708,1,0,0:0:0:0:
208,176,6709,1,0,0:0:0:0:
56,88,6710,1,0,0:0:0:0:
480,272,6711,1,0,0:0:0:0:
56,304,6712,1,0,0:0:0:0:
104,64,6713,1,0,0:0:0:0:
448,64,6714,1,0,0:0:0:0:
112,232,6715,1,0,0:0:0:0:
144,136,6716,1,0,0:0:0:0:
360,320,6717,1,0,0:0:0:0:
80,272,6718,1,0,0:0:0:0:
416,48,6719,1,0,0:0:0:0:
72,80,6720,1,0,0:0:0:0:
88,88,6721,1,0,0:0:0:0:
96,312,6722,1,0,0:0:0:0:
136,272,6723,1,0,0:0:0:0:
432,296,6724,1,0,0:0:0:0:
384,16,6725,1,0,0:0:0:0:
56,208,6726,1,0,0:0:0:0:
136,88,6727,1,0,0:0:0:0:
80,336,6728,1,0,0:0:0:0:
384,288,6729,1,0,0:0:0:0:
416,24,6730,1,0,0:0:0:0:
224,88,6731,1,0,0:0:0:0:
32,56,6732,1,0,0:0:0:0:
56,344,6733,1,0,0:0:0:0:
464,336,6734,1,0,0:0:0:0:
424,64,6735,1,0,0:0:0:0:
80,32,6736,1,0,0:0:0:0:
408,176,6737,1,0,0:0:0:0:
32,360,6738,1,0,0:0:0:0:
408,344,6739,1,0,0:0:0:0:
280,176,6740,1,0,0:0:0:0:
64,368,6741,1,0,0:0:0:0:
248,240,6742,1,0,0:0:0:0:
440,328,6743,1,0,0:0:0:0:
384,48,6744,1,0,0:0:0:0:
0,48,6745,1,0,0:0:0:0:
176,288,6746,1,0,0:0:0:0:
104,360,6747,1,0,0:0:0:0:
232,48,6748,1,0,0:0:0:0:
416,376,6749,1,0,0:0:0:0:
320,184,6750,1,0,0:0:0:0:
496,320,6751,1,0,0:0:0:0:
0,264,6752,1,0,0:0:0:0:
320,104,6753,1,0,0:0:0:0:
432,40,6754,1,0,0:0:0:0:
56,40,6755,1,0,0:0:0:0:
16,320,6756,1,0,0:0:0:0:
456,376,6757,1,0,0:0:0:0:
128,304,6758,1,0,0:0:0:0:
24,208,6759,1,0,0:0:0:0:
128,56,6760,1,0,0:0:0:0:
376,256,6761,1,0,0:0:0:0:
136,344,6762,1,0,0:0:0:0:
160,48,6763,5,0,0:0:0:0:
16,208,6764,1,0,0:0:0:0:
344,336,6765,1,0,0:0:0:0:
24,96,6766,1,0,0:0:0:0:
112,320,6767,1,0,0:0:0:0:
440,48,6768,1,0,0:0:0:0:
432,264,6769,1,0,0:0:0:0:
120,144,6770,1,0,0:0:0:0:
96,64,6771,1,0,0:0:0:0:
368,336,6772,1,0,0:0:0:0:
280,368,6773,1,0,0:0:0:0:
136,296,6774,1,0,0:0:0:0:
376,64,6775,1,0,0:0:0:0:
464,360,6776,1,0,0:0:0:0:
384,296,6777,1,0,0:0:0:0:
144,56,6778,1,0,0:0:0:0:
104,272,6779,1,0,0:0:0:0:
368,320,6780,1,0,0:0:0:0:
440,368,6781,1,0,0:0:0:0:
160,72,6782,1,0,0:0:0:0:
360,40,6783,1,0,0:0:0:0:
464,224,6784,1,0,0:0:0:0:
48,240,6785,1,0,0:0:0:0:
8,232,6786,1,0,0:0:0:0:
424,16,6787,1,0,0:0:0:0:
88,240,6788,1,0,0:0:0:0:
40,56,6789,1,0,0:0:0:0:
96,80,6790,1,0,0:0:0:0:
376,32,6791,1,0,0:0:0:0:
64,320,6792,1,0,0:0:0:0:
384,40,6793,1,0,0:0:0:0:
432,224,6794,1,0,0:0:0:0:
408,248,6795,1,0,0:0:0:0:
144,104,6796,1,0,0:0:0:0:
104,112,6797,1,0,0:0:0:0:
328,240,6798,1,0,0:0:0:0:
80,128,6799,1,0,0:0:0:0:
72,152,6800,1,0,0:0:0:0:
72,176,6801,1,0,0:0:0:0:
88,192,6802,1,0,0:0:0:0:
240,168,6803,1,0,0:0:0:0:
112,200,6804,1,0,0:0:0:0:
136,192,6805,1,0,0:0:0:0:
144,152,6806,1,0,0:0:0:0:
152,176,6807,1,0,0:0:0:0:
168,208,6808,1,0,0:0:0:0:
416,152,6809,1,0,0:0:0:0:
184,184,6810,1,0,0:0:0:0:
192,136,6811,1,0,0:0:0:0:
112,168,6812,1,0,0:0:0:0:
168,128,6813,1,0,0:0:0:0:
32,120,6814,1,0,0:0:0:0:
208,216,6815,1,0,0:0:0:0:
144,232,6816,1,0,0:0:0:0:
24,264,6817,1,0,0:0:0:0:
208,176,6818,1,0,0:0:0:0:
168,160,6819,1,0,0:0:0:0:
208,216,6820,1,0,0:0:0:0:
232,152,6821,1,0,0:0:0:0:
456,80,6822,1,0,0:0:0:0:
112,136,6823,1,0,0:0:0:0:
112,232,6824,1,0,0:0:0:0:
384,344,6825,1,0,0:0:0:0:
176,248,6826,1,0,0:0:0:0:
240,208,6827,1,0,0:0:0:0:
224,112,6828,1,0,0:0:0:0:
144,64,6829,1,0,0:0:0:0:
192,96,6830,1,0,0:0:0:0:
56,168,6831,1,0,0:0:0:0:
136,272,6832,1,0,0:0:0:0:
408,224,6833,1,0,0:0:0:0:
208,248,6834,1,0,0:0:0:0:
56,208,6835,1,0,0:0:0:0:
328,288,6836,1,0,0:0:0:0:
248,184,6837,1,0,0:0:0:0:
256,136,6838,1,0,0:0:0:0:
32,168,6839,1,0,0:0:0:0:
224,88,6840,1,0,0:0:0:0:
48,136,6841,1,0,0:0:0:0:
112,40,6842,1,0,0:0:0:0:
352,368,6843,1,0,0:0:0:0:
24,200,6844,1,0,0:0:0:0:
208,64,6845,1,0,0:0:0:0:
264,40,6846,1,0,0:0:0:0:
144,176,6847,1,0,0:0:0:0:
256,96,6848,1,0,0:0:0:0:
64,56,6849,5,0,0:0:0:0:
440,352,6850,1,0,0:0:0:0:
24,32,6851,1,0,0:0:0:0:
464,304,6852,1,0,0:0:0:0:
272,56,6853,1,0,0:0:0:0:
16,144,6854,1,0,0:0:0:0:
40,336,6855,1,0,0:0:0:0:
464,32,6856,1,0,0:0:0:0:
40,264,6857,1,0,0:0:0:0:
408,280,6858,1,0,0:0:0:0:
120,32,6859,1,0,0:0:0:0:
264,56,6860,1,0,0:0:0:0:
376,360,6861,1,0,0:0:0:0:
8,80,6862,1,0,0:0:0:0:
504,216,6863,1,0,0:0:0:0:
0,344,6864,1,0,0:0:0:0:
200,24,6865,1,0,0:0:0:0:
480,48,6866,1,0,0:0:0:0:
248,336,6867,1,0,0:0:0:0:
488,368,6868,1,0,0:0:0:0:
64,16,6869,1,0,0:0:0:0:
400,320,6870,1,0,0:0:0:0:
424,120,6871,1,0,0:0:0:0:
16,296,6872,1,0,0:0:0:0:
488,64,6873,1,0,0:0:0:0:
456,256,6874,1,0,0:0:0:0:
48,16,6875,1,0,0:0:0:0:
448,120,6876,1,0,0:0:0:0:
56,88,6877,1,0,0:0:0:0:
480,272,6878,1,0,0:0:0:0:
56,304,6879,1,0,0:0:0:0:
104,64,6880,1,0,0:0:0:0:
448,64,6881,1,0,0:0:0:0:
280,368,6882,1,0,0:0:0:0:
8,208,6883,1,0,0:0:0:0:
360,320,6884,1,0,0:0:0:0:
80,272,6885,1,0,0:0:0:0:
416,48,6886,1,0,0:0:0:0:
408,176,6887,1,0,0:0:0:0:
88,88,6888,1,0,0:0:0:0:
96,312,6889,1,0,0:0:0:0:
64,56,6890,5,0,0:0:0:0:
440,352,6891,1,0,0:0:0:0:
24,32,6892,1,0,0:0:0:0:
464,304,6893,1,0,0:0:0:0:
136,88,6894,1,0,0:0:0:0:
80,336,6895,1,0,0:0:0:0:
40,336,6896,1,0,0:0:0:0:
464,32,6897,1,0,0:0:0:0:
40,264,6898,1,0,0:0:0:0:
408,280,6899,1,0,0:0:0:0:
120,32,6900,1,0,0:0:0:0:
464,336,6901,1,0,0:0:0:0:
376,360,6902,1,0,0:0:0:0:
8,80,6903,1,0,0:0:0:0:
504,216,6904,1,0,0:0:0:0:
0,344,6905,1,0,0:0:0:0:
408,344,6906,1,0,0:0:0:0:
480,48,6907,1,0,0:0:0:0:
64,368,6908,1,0,0:0:0:0:
488,368,6909,1,0,0:0:0:0:
64,16,6910,1,0,0:0:0:0:
400,320,6911,1,0,0:0:0:0:
0,48,6912,1,0,0:0:0:0:
16,296,6913,1,0,0:0:0:0:
488,64,6914,1,0,0:0:0:0:
456,256,6915,1,0,0:0:0:0:
416,376,6916,1,0,0:0:0:0:
184,144,6917,1,0,0:0:0:0:
56,88,6918,1,0,0:0:0:0:
480,272,6919,1,0,0:0:0:0:
56,304,6920,1,0,0:0:0:0:
104,64,6921,1,0,0:0:0:0:
448,64,6922,1,0,0:0:0:0:
16,320,6923,1,0,0:0:0:0:
456,376,6924,1,0,0:0:0:0:
360,320,6925,1,0,0:0:0:0:
80,272,6926,1,0,0:0:0:0:
416,48,6927,1,0,0:0:0:0:
320,352,6928,1,0,0:0:0:0:
88,88,6929,1,0,0:0:0:0:
96,312,6930,1,0,0:0:0:0:
456,80,6931,1,0,0:0:0:0:
432,296,6932,1,0,0:0:0:0:
384,16,6933,1,0,0:0:0:0:
112,320,6934,1,0,0:0:0:0:
136,88,6935,1,0,0:0:0:0:
80,336,6936,1,0,0:0:0:0:
384,288,6937,1,0,0:0:0:0:
416,24,6938,1,0,0:0:0:0:
368,336,6939,1,0,0:0:0:0:
32,56,6940,1,0,0:0:0:0:
56,344,6941,1,0,0:0:0:0:
464,336,6942,1,0,0:0:0:0:
424,64,6943,1,0,0:0:0:0:
80,32,6944,1,0,0:0:0:0:
144,56,6945,1,0,0:0:0:0:
32,360,6946,1,0,0:0:0:0:
408,344,6947,1,0,0:0:0:0:
112,96,6948,1,0,0:0:0:0:
64,368,6949,1,0,0:0:0:0:
360,40,6950,1,0,0:0:0:0:
440,328,6951,1,0,0:0:0:0:
384,48,6952,1,0,0:0:0:0:
0,48,6953,1,0,0:0:0:0:
232,320,6954,1,0,0:0:0:0:
104,360,6955,1,0,0:0:0:0:
40,56,6956,1,0,0:0:0:0:
416,376,6957,1,0,0:0:0:0:
376,32,6958,1,0,0:0:0:0:
496,320,6959,1,0,0:0:0:0:
0,264,6960,1,0,0:0:0:0:
432,224,6961,1,0,0:0:0:0:
432,40,6962,1,0,0:0:0:0:
56,40,6963,1,0,0:0:0:0:
16,320,6964,1,0,0:0:0:0:
456,376,6965,1,0,0:0:0:0:
128,304,6966,1,0,0:0:0:0:
72,152,6967,1,0,0:0:0:0:
128,56,6968,1,0,0:0:0:0:
88,192,6969,1,0,0:0:0:0:
136,344,6970,1,0,0:0:0:0:
160,48,6971,5,0,0:0:0:0:
136,192,6972,1,0,0:0:0:0:
344,336,6973,1,0,0:0:0:0:
24,96,6974,1,0,0:0:0:0:
112,320,6975,1,0,0:0:0:0:
440,48,6976,1,0,0:0:0:0:
432,264,6977,1,0,0:0:0:0:
192,136,6978,1,0,0:0:0:0:
96,64,6979,1,0,0:0:0:0:
368,336,6980,1,0,0:0:0:0:
440,344,6981,1,0,0:0:0:0:
136,296,6982,1,0,0:0:0:0:
376,64,6983,1,0,0:0:0:0:
48,16,6984,1,0,0:0:0:0:
208,176,6985,1,0,0:0:0:0:
144,56,6986,1,0,0:0:0:0:
104,272,6987,1,0,0:0:0:0:
368,320,6988,1,0,0:0:0:0:
24,96,6989,1,0,0:0:0:0:
160,72,6990,1,0,0:0:0:0:
360,40,6991,1,0,0:0:0:0:
464,224,6992,1,0,0:0:0:0:
48,240,6993,1,0,0:0:0:0:
8,232,6994,1,0,0:0:0:0:
224,112,6995,1,0,0:0:0:0:
88,240,6996,1,0,0:0:0:0:
40,56,6997,1,0,0:0:0:0:
96,80,6998,1,0,0:0:0:0:
376,32,6999,1,0,0:0:0:0:
288,248,7000,1,0,0:0:0:0:
208,248,7001,1,0,0:0:0:0:
432,224,7002,1,0,0:0:0:0:
408,248,7003,1,0,0:0:0:0:
144,104,7004,1,0,0:0:0:0:
104,112,7005,1,0,0:0:0:0:
32,168,7006,1,0,0:0:0:0:
80,128,7007,1,0,0:0:0:0:
72,152,7008,1,0,0:0:0:0:
72,176,7009,1,0,0:0:0:0:
88,192,7010,1,0,0:0:0:0:
24,200,7011,1,0,0:0:0:0:
112,200,7012,1,0,0:0:0:0:
136,192,7013,1,0,0:0:0:0:
144,152,7014,1,0,0:0:0:0:
152,176,7015,1,0,0:0:0:0:
168,208,7016,1,0,0:0:0:0:
48,64,7017,1,0,0:0:0:0:
184,184,7018,1,0,0:0:0:0:
192,136,7019,1,0,0:0:0:0:
112,168,7020,1,0,0:0:0:0:
168,128,7021,1,0,0:0:0:0:
176,288,7022,1,0,0:0:0:0:
208,216,7023,1,0,0:0:0:0:
144,232,7024,1,0,0:0:0:0:
352,48,7025,1,0,0:0:0:0:
208,176,7026,1,0,0:0:0:0:
168,160,7027,1,0,0:0:0:0:
64,56,7028,5,0,0:0:0:0:
440,352,7029,1,0,0:0:0:0:
24,32,7030,1,0,0:0:0:0:
464,304,7031,1,0,0:0:0:0:
112,232,7032,1,0,0:0:0:0:
408,120,7033,5,0,0:0:0:0:
40,336,7034,1,0,0:0:0:0:
464,32,7035,1,0,0:0:0:0:
40,264,7036,1,0,0:0:0:0:
408,280,7037,1,0,0:0:0:0:
120,32,7038,1,0,0:0:0:0:
256,344,7039,1,0,0:0:0:0:
376,360,7040,1,0,0:0:0:0:
8,80,7041,1,0,0:0:0:0:
504,216,7042,1,0,0:0:0:0:
0,344,7043,1,0,0:0:0:0:
272,360,7044,1,0,0:0:0:0:
480,48,7045,1,0,0:0:0:0:
256,136,7046,1,0,0:0:0:0:
488,368,7047,1,0,0:0:0:0:
64,16,7048,1,0,0:0:0:0:
400,320,7049,1,0,0:0:0:0:
8,208,7050,1,0,0:0:0:0:
16,296,7051,1,0,0:0:0:0:
488,64,7052,1,0,0:0:0:0:
456,256,7053,1,0,0:0:0:0:
232,32,7054,1,0,0:0:0:0:
144,208,7055,1,0,0:0:0:0:
56,88,7056,1,0,0:0:0:0:
480,272,7057,1,0,0:0:0:0:
56,304,7058,1,0,0:0:0:0:
104,64,7059,1,0,0:0:0:0:
448,64,7060,1,0,0:0:0:0:
24,344,7061,1,0,0:0:0:0:
16,144,7062,1,0,0:0:0:0:
360,320,7063,1,0,0:0:0:0:
80,272,7064,1,0,0:0:0:0:
416,48,7065,1,0,0:0:0:0:
24,224,7066,1,0,0:0:0:0:
88,88,7067,1,0,0:0:0:0:
96,312,7068,1,0,0:0:0:0:
264,280,7069,1,0,0:0:0:0:
432,296,7070,1,0,0:0:0:0:
384,16,7071,1,0,0:0:0:0:
384,296,7072,1,0,0:0:0:0:
136,88,7073,1,0,0:0:0:0:
80,336,7074,1,0,0:0:0:0:
384,288,7075,1,0,0:0:0:0:
416,24,7076,1,0,0:0:0:0:
128,128,7077,1,0,0:0:0:0:
32,56,7078,1,0,0:0:0:0:
56,344,7079,1,0,0:0:0:0:
464,336,7080,1,0,0:0:0:0:
424,64,7081,1,0,0:0:0:0:
80,32,7082,1,0,0:0:0:0:
104,184,7083,1,0,0:0:0:0:
32,360,7084,1,0,0:0:0:0:
408,344,7085,1,0,0:0:0:0:
0,208,7086,1,0,0:0:0:0:
64,368,7087,1,0,0:0:0:0:
464,120,7088,1,0,0:0:0:0:
440,328,7089,1,0,0:0:0:0:
384,48,7090,1,0,0:0:0:0:
0,48,7091,1,0,0:0:0:0:
464,368,7092,1,0,0:0:0:0:
104,360,7093,1,0,0:0:0:0:
288,24,7094,1,0,0:0:0:0:
416,376,7095,1,0,0:0:0:0:
208,216,7096,1,0,0:0:0:0:
496,320,7097,1,0,0:0:0:0:
0,264,7098,1,0,0:0:0:0:
440,16,7099,1,0,0:0:0:0:
432,40,7100,1,0,0:0:0:0:
56,40,7101,1,0,0:0:0:0:
16,320,7102,1,0,0:0:0:0:
456,376,7103,1,0,0:0:0:0:
128,304,7104,1,0,0:0:0:0:
144,64,7105,1,0,0:0:0:0:
128,56,7106,1,0,0:0:0:0:
24,224,7107,1,0,0:0:0:0:
136,344,7108,1,0,0:0:0:0:
160,48,7109,5,0,0:0:0:0:
384,40,7110,1,0,0:0:0:0:
344,336,7111,1,0,0:0:0:0:
24,96,7112,1,0,0:0:0:0:
112,320,7113,1,0,0:0:0:0:
440,48,7114,1,0,0:0:0:0:
432,264,7115,1,0,0:0:0:0:
48,320,7116,1,0,0:0:0:0:
96,64,7117,1,0,0:0:0:0:
368,336,7118,1,0,0:0:0:0:
232,80,7119,1,0,0:0:0:0:
136,296,7120,1,0,0:0:0:0:
376,64,7121,1,0,0:0:0:0:
264,40,7122,1,0,0:0:0:0:
264,272,7123,1,0,0:0:0:0:
144,56,7124,1,0,0:0:0:0:
104,272,7125,1,0,0:0:0:0:
368,320,7126,1,0,0:0:0:0:
240,136,7127,1,0,0:0:0:0:
160,72,7128,1,0,0:0:0:0:
360,40,7129,1,0,0:0:0:0:
464,224,7130,1,0,0:0:0:0:
48,240,7131,1,0,0:0:0:0:
8,232,7132,1,0,0:0:0:0:
40,96,7133,1,0,0:0:0:0:
88,240,7134,1,0,0:0:0:0:
40,56,7135,1,0,0:0:0:0:
96,80,7136,1,0,0:0:0:0:
376,32,7137,1,0,0:0:0:0:
320,72,7138,1,0,0:0:0:0:
456,80,7139,1,0,0:0:0:0:
432,224,7140,1,0,0:0:0:0:
408,248,7141,1,0,0:0:0:0:
144,104,7142,1,0,0:0:0:0:
104,112,7143,1,0,0:0:0:0:
112,248,7144,1,0,0:0:0:0:
80,128,7145,1,0,0:0:0:0:
72,152,7146,1,0,0:0:0:0:
72,176,7147,1,0,0:0:0:0:
88,192,7148,1,0,0:0:0:0:
48,352,7149,1,0,0:0:0:0:
112,200,7150,1,0,0:0:0:0:
136,192,7151,1,0,0:0:0:0:
144,152,7152,1,0,0:0:0:0:
64,56,7153,5,0,0:0:0:0:
440,352,7154,1,0,0:0:0:0:
24,32,7155,1,0,0:0:0:0:
464,304,7156,1,0,0:0:0:0:
192,136,7157,1,0,0:0:0:0:
112,168,7158,1,0,0:0:0:0:
40,336,7159,1,0,0:0:0:0:
464,32,7160,1,0,0:0:0:0:
40,264,7161,1,0,0:0:0:0:
408,280,7162,1,0,0:0:0:0:
120,32,7163,1,0,0:0:0:0:
208,176,7164,1,0,0:0:0:0:
376,360,7165,1,0,0:0:0:0:
8,80,7166,1,0,0:0:0:0:
504,216,7167,1,0,0:0:0:0:
0,344,7168,1,0,0:0:0:0:
112,136,7169,1,0,0:0:0:0:
480,48,7170,1,0,0:0:0:0:
64,280,7171,1,0,0:0:0:0:
488,368,7172,1,0,0:0:0:0:
64,16,7173,1,0,0:0:0:0:
400,320,7174,1,0,0:0:0:0:
256,304,7175,1,0,0:0:0:0:
16,296,7176,1,0,0:0:0:0:
488,64,7177,1,0,0:0:0:0:
456,256,7178,1,0,0:0:0:0:
320,72,7179,1,0,0:0:0:0:
208,248,7180,1,0,0:0:0:0:
56,88,7181,1,0,0:0:0:0:
480,272,7182,1,0,0:0:0:0:
56,304,7183,1,0,0:0:0:0:
104,64,7184,1,0,0:0:0:0:
448,64,7185,1,0,0:0:0:0:
224,88,7186,1,0,0:0:0:0:
48,136,7187,1,0,0:0:0:0:
360,320,7188,1,0,0:0:0:0:
80,272,7189,1,0,0:0:0:0:
416,48,7190,1,0,0:0:0:0:
208,64,7191,1,0,0:0:0:0:
88,88,7192,1,0,0:0:0:0:
96,312,7193,1,0,0:0:0:0:
256,96,7194,1,0,0:0:0:0:
432,296,7195,1,0,0:0:0:0:
384,16,7196,1,0,0:0:0:0:
248,240,7197,1,0,0:0:0:0:
136,88,7198,1,0,0:0:0:0:
80,336,7199,1,0,0:0:0:0:
384,288,7200,1,0,0:0:0:0:
416,24,7201,1,0,0:0:0:0:
224,288,7202,1,0,0:0:0:0:
32,56,7203,1,0,0:0:0:0:
56,344,7204,1,0,0:0:0:0:
464,336,7205,1,0,0:0:0:0:
424,64,7206,1,0,0:0:0:0:
80,32,7207,1,0,0:0:0:0:
288,248,7208,1,0,0:0:0:0:
32,360,7209,1,0,0:0:0:0:
408,344,7210,1,0,0:0:0:0:
200,24,7211,1,0,0:0:0:0:
64,368,7212,1,0,0:0:0:0:
248,336,7213,1,0,0:0:0:0:
440,328,7214,1,0,0:0:0:0:
384,48,7215,1,0,0:0:0:0:
0,48,7216,1,0,0:0:0:0:
424,120,7217,1,0,0:0:0:0:
104,360,7218,1,0,0:0:0:0:
16,208,7219,1,0,0:0:0:0:
416,376,7220,1,0,0:0:0:0:
232,32,7221,1,0,0:0:0:0:
496,320,7222,1,0,0:0:0:0:
0,264,7223,1,0,0:0:0:0:
0,208,7224,1,0,0:0:0:0:
432,40,7225,1,0,0:0:0:0:
56,40,7226,1,0,0:0:0:0:
16,320,7227,1,0,0:0:0:0:
456,376,7228,1,0,0:0:0:0:
128,304,7229,1,0,0:0:0:0:
152,336,7230,1,0,0:0:0:0:
128,56,7231,1,0,0:0:0:0:
192,72,7232,1,0,0:0:0:0:
136,344,7233,1,0,0:0:0:0:
160,48,7234,5,0,0:0:0:0:
16,360,7235,1,0,0:0:0:0:
344,336,7236,1,0,0:0:0:0:
24,96,7237,1,0,0:0:0:0:
112,320,7238,1,0,0:0:0:0:
440,48,7239,1,0,0:0:0:0:
432,264,7240,1,0,0:0:0:0:
432,344,7241,1,0,0:0:0:0:
96,64,7242,1,0,0:0:0:0:
368,336,7243,1,0,0:0:0:0:
384,296,7244,1,0,0:0:0:0:
136,296,7245,1,0,0:0:0:0:
376,64,7246,1,0,0:0:0:0:
64,320,7247,1,0,0:0:0:0:
384,40,7248,1,0,0:0:0:0:
144,56,7249,1,0,0:0:0:0:
104,272,7250,1,0,0:0:0:0:
368,320,7251,1,0,0:0:0:0:
320,88,7252,1,0,0:0:0:0:
160,72,7253,1,0,0:0:0:0:
360,40,7254,1,0,0:0:0:0:
464,224,7255,1,0,0:0:0:0:
48,240,7256,1,0,0:0:0:0:
8,232,7257,1,0,0:0:0:0:
240,168,7258,1,0,0:0:0:0:
88,240,7259,1,0,0:0:0:0:
40,56,7260,1,0,0:0:0:0:
64,56,7261,5,0,0:0:0:0:
440,352,7262,1,0,0:0:0:0:
24,32,7263,1,0,0:0:0:0:
464,304,7264,1,0,0:0:0:0:
432,224,7265,1,0,0:0:0:0:
408,248,7266,1,0,0:0:0:0:
40,336,7267,1,0,0:0:0:0:
464,32,7268,1,0,0:0:0:0:
40,264,7269,1,0,0:0:0:0:
408,280,7270,1,0,0:0:0:0:
120,32,7271,1,0,0:0:0:0:
72,176,7272,1,0,0:0:0:0:
376,360,7273,1,0,0:0:0:0:
8,80,7274,1,0,0:0:0:0:
504,216,7275,1,0,0:0:0:0:
0,344,7276,1,0,0:0:0:0:
144,152,7277,1,0,0:0:0:0:
480,48,7278,1,0,0:0:0:0:
168,208,7279,1,0,0:0:0:0:
488,368,7280,1,0,0:0:0:0:
64,16,7281,1,0,0:0:0:0:
400,320,7282,1,0,0:0:0:0:
112,168,7283,1,0,0:0:0:0:
16,296,7284,1,0,0:0:0:0:
488,64,7285,1,0,0:0:0:0:
456,256,7286,1,0,0:0:0:0:
144,232,7287,1,0,0:0:0:0:
408,224,7288,1,0,0:0:0:0:
56,88,7289,1,0,0:0:0:0:
480,272,7290,1,0,0:0:0:0:
56,304,7291,1,0,0:0:0:0:
104,64,7292,1,0,0:0:0:0:
448,64,7293,1,0,0:0:0:0:
112,136,7294,1,0,0:0:0:0:
112,232,7295,1,0,0:0:0:0:
360,320,7296,1,0,0:0:0:0:
80,272,7297,1,0,0:0:0:0:
416,48,7298,1,0,0:0:0:0:
224,112,7299,1,0,0:0:0:0:
88,88,7300,1,0,0:0:0:0:
96,312,7301,1,0,0:0:0:0:
144,176,7302,1,0,0:0:0:0:
432,296,7303,1,0,0:0:0:0:
384,16,7304,1,0,0:0:0:0:
208,248,7305,1,0,0:0:0:0:
136,88,7306,1,0,0:0:0:0:
80,336,7307,1,0,0:0:0:0:
384,288,7308,1,0,0:0:0:0:
416,24,7309,1,0,0:0:0:0:
32,168,7310,1,0,0:0:0:0:
32,56,7311,1,0,0:0:0:0:
56,344,7312,1,0,0:0:0:0:
464,336,7313,1,0,0:0:0:0:
424,64,7314,1,0,0:0:0:0:
80,32,7315,1,0,0:0:0:0:
208,64,7316,1,0,0:0:0:0:
32,360,7317,1,0,0:0:0:0:
408,344,7318,1,0,0:0:0:0:
256,96,7319,1,0,0:0:0:0:
64,368,7320,1,0,0:0:0:0:
24,72,7321,1,0,0:0:0:0:
440,328,7322,1,0,0:0:0:0:
384,48,7323,1,0,0:0:0:0:
0,48,7324,1,0,0:0:0:0:
16,144,7325,1,0,0:0:0:0:
104,360,7326,1,0,0:0:0:0:
224,288,7327,1,0,0:0:0:0:
416,376,7328,1,0,0:0:0:0:
360,16,7329,1,0,0:0:0:0:
496,320,7330,1,0,0:0:0:0:
0,264,7331,1,0,0:0:0:0:
264,280,7332,1,0,0:0:0:0:
432,40,7333,1,0,0:0:0:0:
56,40,7334,1,0,0:0:0:0:
16,320,7335,1,0,0:0:0:0:
456,376,7336,1,0,0:0:0:0:
128,304,7337,1,0,0:0:0:0:
248,336,7338,1,0,0:0:0:0:
128,56,7339,1,0,0:0:0:0:
152,336,7340,1,0,0:0:0:0:
136,344,7341,1,0,0:0:0:0:
160,48,7342,5,0,0:0:0:0:
256,344,7343,1,0,0:0:0:0:
344,336,7344,1,0,0:0:0:0:
24,96,7345,1,0,0:0:0:0:
112,320,7346,1,0,0:0:0:0:
440,48,7347,1,0,0:0:0:0:
432,264,7348,1,0,0:0:0:0:
0,208,7349,1,0,0:0:0:0:
96,64,7350,1,0,0:0:0:0:
368,336,7351,1,0,0:0:0:0:
264,80,7352,1,0,0:0:0:0:
136,296,7353,1,0,0:0:0:0:
376,64,7354,1,0,0:0:0:0:
24,40,7355,1,0,0:0:0:0:
464,360,7356,1,0,0:0:0:0:
144,56,7357,1,0,0:0:0:0:
104,272,7358,1,0,0:0:0:0:
368,320,7359,1,0,0:0:0:0:
16,360,7360,1,0,0:0:0:0:
160,72,7361,1,0,0:0:0:0:
360,40,7362,1,0,0:0:0:0:
464,224,7363,1,0,0:0:0:0:
48,240,7364,1,0,0:0:0:0:
8,232,7365,1,0,0:0:0:0:
432,344,7366,1,0,0:0:0:0:
88,240,7367,1,0,0:0:0:0:
40,56,7368,1,0,0:0:0:0:
96,80,7369,1,0,0:0:0:0:
376,32,7370,1,0,0:0:0:0:
352,48,7371,1,0,0:0:0:0:
64,320,7372,1,0,0:0:0:0:
432,224,7373,1,0,0:0:0:0:
408,248,7374,1,0,0:0:0:0:
144,104,7375,1,0,0:0:0:0:
104,112,7376,1,0,0:0:0:0:
320,88,7377,1,0,0:0:0:0:
80,128,7378,1,0,0:0:0:0:
72,152,7379,1,0,0:0:0:0:
72,176,7380,1,0,0:0:0:0:
88,192,7381,1,0,0:0:0:0:
232,80,7382,1,0,0:0:0:0:
112,200,7383,1,0,0:0:0:0:
136,192,7384,1,0,0:0:0:0:
144,152,7385,1,0,0:0:0:0:
152,176,7386,1,0,0:0:0:0:
168,208,7387,1,0,0:0:0:0:
64,56,7388,5,0,0:0:0:0:
440,352,7389,1,0,0:0:0:0:
24,32,7390,1,0,0:0:0:0:
464,304,7391,1,0,0:0:0:0:
168,128,7392,1,0,0:0:0:0:
368,112,7393,1,0,0:0:0:0:
40,336,7394,1,0,0:0:0:0:
464,32,7395,1,0,0:0:0:0:
40,264,7396,1,0,0:0:0:0:
408,280,7397,1,0,0:0:0:0:
120,32,7398,1,0,0:0:0:0:
320,352,7399,1,0,0:0:0:0:
376,360,7400,1,0,0:0:0:0:
8,80,7401,1,0,0:0:0:0:
504,216,7402,1,0,0:0:0:0:
0,344,7403,1,0,0:0:0:0:
8,112,7404,1,0,0:0:0:0:
480,48,7405,1,0,0:0:0:0:
240,208,7406,1,0,0:0:0:0:
488,368,7407,1,0,0:0:0:0:
64,16,7408,1,0,0:0:0:0:
400,320,7409,1,0,0:0:0:0:
64,272,7410,1,0,0:0:0:0:
16,296,7411,1,0,0:0:0:0:
488,64,7412,1,0,0:0:0:0:
456,256,7413,1,0,0:0:0:0:
56,208,7414,1,0,0:0:0:0:
416,64,7415,1,0,0:0:0:0:
56,88,7416,1,0,0:0:0:0:
480,272,7417,1,0,0:0:0:0:
56,304,7418,1,0,0:0:0:0:
104,64,7419,1,0,0:0:0:0:
448,64,7420,1,0,0:0:0:0:
344,136,7421,1,0,0:0:0:0:
112,40,7422,1,0,0:0:0:0:
360,320,7423,1,0,0:0:0:0:
80,272,7424,1,0,0:0:0:0:
416,48,7425,1,0,0:0:0:0:
264,40,7426,1,0,0:0:0:0:
88,88,7427,1,0,0:0:0:0:
96,312,7428,1,0,0:0:0:0:
208,272,7429,1,0,0:0:0:0:
432,296,7430,1,0,0:0:0:0:
384,16,7431,1,0,0:0:0:0:
48,112,7432,1,0,0:0:0:0:
136,88,7433,1,0,0:0:0:0:
80,336,7434,1,0,0:0:0:0:
384,288,7435,1,0,0:0:0:0:
416,24,7436,1,0,0:0:0:0:
40,96,7437,1,0,0:0:0:0:
32,56,7438,1,0,0:0:0:0:
56,344,7439,1,0,0:0:0:0:
464,336,7440,1,0,0:0:0:0:
424,64,7441,1,0,0:0:0:0:
80,32,7442,1,0,0:0:0:0:
120,32,7443,1,0,0:0:0:0:
32,360,7444,1,0,0:0:0:0:
408,344,7445,1,0,0:0:0:0:
248,336,7446,1,0,0:0:0:0:
64,368,7447,1,0,0:0:0:0:
112,248,7448,1,0,0:0:0:0:
440,328,7449,1,0,0:0:0:0:
384,48,7450,1,0,0:0:0:0:
0,48,7451,1,0,0:0:0:0:
16,208,7452,1,0,0:0:0:0:
104,360,7453,1,0,0:0:0:0:
360,16,7454,1,0,0:0:0:0:
416,376,7455,1,0,0:0:0:0:
272,360,7456,1,0,0:0:0:0:
496,320,7457,1,0,0:0:0:0:
0,264,7458,1,0,0:0:0:0:
464,120,7459,1,0,0:0:0:0:
432,40,7460,1,0,0:0:0:0:
56,40,7461,1,0,0:0:0:0:
16,320,7462,1,0,0:0:0:0:
456,376,7463,1,0,0:0:0:0:
128,304,7464,1,0,0:0:0:0:
152,336,7465,1,0,0:0:0:0:
128,56,7466,1,0,0:0:0:0:
408,176,7467,1,0,0:0:0:0:
136,344,7468,1,0,0:0:0:0:
160,48,7469,5,0,0:0:0:0:
440,16,7470,1,0,0:0:0:0:
344,336,7471,1,0,0:0:0:0:
24,96,7472,1,0,0:0:0:0:
112,320,7473,1,0,0:0:0:0:
440,48,7474,1,0,0:0:0:0:
432,264,7475,1,0,0:0:0:0:
264,216,7476,1,0,0:0:0:0:
96,64,7477,1,0,0:0:0:0:
368,336,7478,1,0,0:0:0:0:
320,320,7479,1,0,0:0:0:0:
136,296,7480,1,0,0:0:0:0:
376,64,7481,1,0,0:0:0:0:
64,344,7482,1,0,0:0:0:0:
88,48,7483,1,0,0:0:0:0:
144,56,7484,1,0,0:0:0:0:
104,272,7485,1,0,0:0:0:0:
368,320,7486,1,0,0:0:0:0:
216,352,7487,1,0,0:0:0:0:
160,72,7488,1,0,0:0:0:0:
360,40,7489,1,0,0:0:0:0:
464,224,7490,1,0,0:0:0:0:
48,240,7491,1,0,0:0:0:0:
8,232,7492,1,0,0:0:0:0:
152,336,7493,1,0,0:0:0:0:
88,240,7494,1,0,0:0:0:0:
40,56,7495,1,0,0:0:0:0:
96,80,7496,1,0,0:0:0:0:
376,32,7497,1,0,0:0:0:0:
416,184,7498,1,0,0:0:0:0:
272,312,7499,1,0,0:0:0:0:
432,224,7500,1,0,0:0:0:0:
408,248,7501,1,0,0:0:0:0:
144,104,7502,1,0,0:0:0:0:
104,112,7503,1,0,0:0:0:0:
392,88,7504,1,0,0:0:0:0:
80,128,7505,1,0,0:0:0:0:
72,152,7506,1,0,0:0:0:0:
72,176,7507,1,0,0:0:0:0:
88,192,7508,1,0,0:0:0:0:
72,232,7509,1,0,0:0:0:0:
112,200,7510,1,0,0:0:0:0:
136,192,7511,1,0,0:0:0:0:
144,152,7512,1,0,0:0:0:0:
152,176,7513,1,0,0:0:0:0:
168,208,7514,1,0,0:0:0:0:
224,248,7515,1,0,0:0:0:0:
184,184,7516,1,0,0:0:0:0:
192,136,7517,1,0,0:0:0:0:
112,168,7518,1,0,0:0:0:0:
168,128,7519,1,0,0:0:0:0:
200,160,7520,1,0,0:0:0:0:
208,216,7521,1,0,0:0:0:0:
144,232,7522,1,0,0:0:0:0:
416,64,7523,1,0,0:0:0:0:
208,176,7524,1,0,0:0:0:0:
168,160,7525,1,0,0:0:0:0:
144,208,7526,1,0,0:0:0:0:
232,152,7527,1,0,0:0:0:0:
48,320,7528,1,0,0:0:0:0:
112,136,7529,1,0,0:0:0:0:
112,232,7530,1,0,0:0:0:0:
352,368,7531,1,0,0:0:0:0:
176,248,7532,1,0,0:0:0:0:
240,208,7533,1,0,0:0:0:0:
224,112,7534,1,0,0:0:0:0:
144,176,7535,1,0,0:0:0:0:
192,96,7536,1,0,0:0:0:0:
368,64,7537,1,0,0:0:0:0:
136,272,7538,1,0,0:0:0:0:
240,136,7539,1,0,0:0:0:0:
208,248,7540,1,0,0:0:0:0:
56,208,7541,1,0,0:0:0:0:
64,280,7542,1,0,0:0:0:0:
248,184,7543,1,0,0:0:0:0:
256,136,7544,1,0,0:0:0:0:
32,168,7545,1,0,0:0:0:0:
224,88,7546,1,0,0:0:0:0:
48,136,7547,1,0,0:0:0:0:
104,160,7548,1,0,0:0:0:0:
384,216,7549,1,0,0:0:0:0:
24,200,7550,1,0,0:0:0:0:
208,64,7551,1,0,0:0:0:0:
280,296,7552,1,0,0:0:0:0:
312,256,7553,1,0,0:0:0:0:
256,96,7554,1,0,0:0:0:0:
280,176,7555,1,0,0:0:0:0:
112,248,7556,1,0,0:0:0:0:
248,240,7557,1,0,0:0:0:0:
288,216,7558,1,0,0:0:0:0:
312,80,7559,1,0,0:0:0:0:
16,144,7560,1,0,0:0:0:0:
176,288,7561,1,0,0:0:0:0:
224,288,7562,1,0,0:0:0:0:
232,48,7563,1,0,0:0:0:0:
104,296,7564,1,0,0:0:0:0:
320,184,7565,1,0,0:0:0:0:
264,56,7566,1,0,0:0:0:0:
264,280,7567,1,0,0:0:0:0:
24,96,7568,1,0,0:0:0:0:
0,176,7569,1,0,0:0:0:0:
112,280,7570,1,0,0:0:0:0:
200,24,7571,1,0,0:0:0:0:
408,120,7572,5,0,0:0:0:0:
248,336,7573,1,0,0:0:0:0:
24,208,7574,1,0,0:0:0:0:
408,176,7575,1,0,0:0:0:0:
368,144,7576,1,0,0:0:0:0:
424,120,7577,1,0,0:0:0:0:
256,344,7578,1,0,0:0:0:0:
16,208,7579,1,0,0:0:0:0:
320,200,7580,1,0,0:0:0:0:
192,176,7581,1,0,0:0:0:0:
448,120,7582,1,0,0:0:0:0:
272,360,7583,1,0,0:0:0:0:
0,208,7584,1,0,0:0:0:0:
264,80,7585,1,0,0:0:0:0:
464,120,7586,1,0,0:0:0:0:
184,56,7587,1,0,0:0:0:0:
280,368,7588,1,0,0:0:0:0:
8,208,7589,1,0,0:0:0:0:
64,344,7590,1,0,0:0:0:0:
464,360,7591,1,0,0:0:0:0:
96,80,7592,1,0,0:0:0:0:
248,32,7593,1,0,0:0:0:0:
472,192,7594,1,0,0:0:0:0:
16,360,7595,1,0,0:0:0:0:
440,368,7596,1,0,0:0:0:0:
440,16,7597,1,0,0:0:0:0:
192,208,7598,1,0,0:0:0:0:
24,16,7599,1,0,0:0:0:0:
24,344,7600,1,0,0:0:0:0:
432,344,7601,1,0,0:0:0:0:
424,16,7602,1,0,0:0:0:0:
336,256,7603,1,0,0:0:0:0:
352,48,7604,1,0,0:0:0:0:
24,224,7605,1,0,0:0:0:0:
416,184,7606,1,0,0:0:0:0:
64,320,7607,1,0,0:0:0:0:
384,40,7608,1,0,0:0:0:0:
296,64,7609,1,0,0:0:0:0:
88,48,7610,1,0,0:0:0:0:
384,296,7611,1,0,0:0:0:0:
320,88,7612,1,0,0:0:0:0:
328,240,7613,1,0,0:0:0:0:
480,304,7614,1,0,0:0:0:0:
160,248,7615,1,0,0:0:0:0:
128,128,7616,1,0,0:0:0:0:
232,80,7617,1,0,0:0:0:0:
240,168,7618,1,0,0:0:0:0:
360,160,7619,1,0,0:0:0:0:
176,192,7620,1,0,0:0:0:0:
264,272,7621,1,0,0:0:0:0:
104,184,7622,1,0,0:0:0:0:
184,144,7623,1,0,0:0:0:0:
48,264,7624,1,0,0:0:0:0:
40,96,7625,1,0,0:0:0:0:
272,312,7626,1,0,0:0:0:0:
184,368,7627,1,0,0:0:0:0:
368,112,7628,1,0,0:0:0:0:
32,120,7629,1,0,0:0:0:0:
464,296,7630,1,0,0:0:0:0:
368,200,7631,1,0,0:0:0:0:
24,264,7632,1,0,0:0:0:0:
288,24,7633,1,0,0:0:0:0:
320,352,7634,1,0,0:0:0:0:
208,216,7635,1,0,0:0:0:0:
264,160,7636,1,0,0:0:0:0:
456,80,7637,1,0,0:0:0:0:
176,80,7638,1,0,0:0:0:0:
8,112,7639,1,0,0:0:0:0:
384,344,7640,1,0,0:0:0:0:
304,128,7641,1,0,0:0:0:0:
40,80,7643,1,0,0:0:0:0:
144,64,7644,1,0,0:0:0:0:
64,272,7645,1,0,0:0:0:0:
56,168,7646,1,0,0:0:0:0:
416,152,7647,1,0,0:0:0:0:
408,224,7648,1,0,0:0:0:0:
184,304,7649,1,0,0:0:0:0:
416,64,7650,1,0,0:0:0:0:
328,288,7651,1,0,0:0:0:0:
360,208,7652,5,0,0:0:0:0:
48,64,7653,1,0,0:0:0:0:
112,96,7654,1,0,0:0:0:0:
48,320,7655,1,0,0:0:0:0:
344,136,7656,1,0,0:0:0:0:
112,40,7657,1,0,0:0:0:0:
352,368,7658,1,0,0:0:0:0:
192,176,7659,1,0,0:0:0:0:
232,320,7660,1,0,0:0:0:0:
264,40,7661,1,0,0:0:0:0:
144,176,7662,1,0,0:0:0:0:
136,360,7663,1,0,0:0:0:0:
120,24,7664,1,0,0:0:0:0:
448,168,7665,1,0,0:0:0:0:
240,136,7666,1,0,0:0:0:0:
48,112,7667,1,0,0:0:0:0:
272,56,7668,1,0,0:0:0:0:
64,280,7669,1,0,0:0:0:0:
24,312,7670,1,0,0:0:0:0:
392,80,7671,1,0,0:0:0:0:
40,96,7672,1,0,0:0:0:0:
256,304,7673,1,0,0:0:0:0:
168,368,7674,1,0,0:0:0:0:
88,280,7675,1,0,0:0:0:0:
384,216,7676,1,0,0:0:0:0:
320,72,7677,1,0,0:0:0:0:
120,32,7678,1,0,0:0:0:0:
280,296,7679,1,0,0:0:0:0:
312,256,7680,1,0,0:0:0:0:
8,272,7681,1,0,0:0:0:0:
296,112,7682,1,0,0:0:0:0:
112,248,7683,1,0,0:0:0:0:
304,104,7684,1,0,0:0:0:0:
72,80,7685,1,0,0:0:0:0:
216,80,7686,1,0,0:0:0:0:
440,344,7687,1,0,0:0:0:0:
48,352,7688,1,0,0:0:0:0:
360,16,7689,1,0,0:0:0:0:
48,16,7690,1,0,0:0:0:0:
104,296,7691,1,0,0:0:0:0:
416,128,7693,1,0,0:0:0:0:
200,328,7694,1,0,0:0:0:0:
24,96,7695,1,0,0:0:0:0:
288,312,7696,1,0,0:0:0:0:
320,56,7698,1,0,0:0:0:0:
176,48,7699,1,0,0:0:0:0:
152,336,7700,1,0,0:0:0:0:
24,176,7701,1,0,0:0:0:0:
408,176,7702,1,0,0:0:0:0:
368,256,7704,1,0,0:0:0:0:
304,144,7705,1,0,0:0:0:0:
288,248,7706,1,0,0:0:0:0:
320,200,7707,1,0,0:0:0:0:
456,336,7708,1,0,0:0:0:0:
192,280,7709,1,0,0:0:0:0:
360,16,7710,1,0,0:0:0:0:
264,216,7711,1,0,0:0:0:0:
264,80,7712,1,0,0:0:0:0:
104,288,7713,1,0,0:0:0:0:
24,40,7715,1,0,0:0:0:0:
456,328,7716,1,0,0:0:0:0:
64,344,7717,1,0,0:0:0:0:
320,104,7718,1,0,0:0:0:0:
272,128,7719,1,0,0:0:0:0:
248,32,7720,1,0,0:0:0:0:
472,192,7721,1,0,0:0:0:0:
216,352,7722,1,0,0:0:0:0:
48,64,7723,1,0,0:0:0:0:
392,32,7724,1,0,0:0:0:0:
376,256,7726,1,0,0:0:0:0:
328,304,7727,1,0,0:0:0:0:
152,336,7728,1,0,0:0:0:0:
16,176,7729,1,0,0:0:0:0:
24,248,7730,1,0,0:0:0:0:
352,48,7731,1,0,0:0:0:0:
280,16,7732,1,0,0:0:0:0:
416,184,7733,1,0,0:0:0:0:
224,256,7734,1,0,0:0:0:0:
120,144,7735,1,0,0:0:0:0:
216,48,7737,1,0,0:0:0:0:
480,32,7738,1,0,0:0:0:0:
392,88,7739,1,0,0:0:0:0:
384,192,7740,1,0,0:0:0:0:
80,72,7741,1,0,0:0:0:0:
384,296,7742,1,0,0:0:0:0:
128,48,7743,1,0,0:0:0:0:
72,232,7744,1,0,0:0:0:0:
32,88,7745,1,0,0:0:0:0:
288,88,7746,1,0,0:0:0:0:
440,64,7748,1,0,0:0:0:0:
432,184,7749,1,0,0:0:0:0:
224,248,7750,1,0,0:0:0:0:
48,264,7751,1,0,0:0:0:0:
40,96,7752,1,0,0:0:0:0:
176,40,7754,1,0,0:0:0:0:
200,160,7755,1,0,0:0:0:0:
144,272,7756,1,0,0:0:0:0:
440,312,7757,1,0,0:0:0:0:
312,128,7759,1,0,0:0:0:0:
232,32,7760,1,0,0:0:0:0:
144,208,7761,1,0,0:0:0:0:
368,184,7762,1,0,0:0:0:0:
264,160,7763,1,0,0:0:0:0:
304,232,7765,1,0,0:0:0:0:
304,296,7766,1,0,0:0:0:0:
48,320,7767,1,0,0:0:0:0:
120,168,7768,1,0,0:0:0:0:
40,80,7770,1,0,0:0:0:0:
192,72,7771,1,0,0:0:0:0:
368,64,7772,1,0,0:0:0:0:
432,32,7773,1,0,0:0:0:0:
416,152,7774,1,0,0:0:0:0:
336,272,7776,1,0,0:0:0:0:
304,200,7777,1,0,0:0:0:0:
376,88,7778,1,0,0:0:0:0:
312,48,7779,1,0,0:0:0:0:
304,160,7781,5,0,0:0:0:0:
144,56,7782,1,0,0:0:0:0:
104,160,7783,1,0,0:0:0:0:
128,240,7784,1,0,0:0:0:0:
320,96,7785,1,0,0:0:0:0:
184,40,7787,1,0,0:0:0:0:
16,32,7788,1,0,0:0:0:0:
208,272,7789,1,0,0:0:0:0:
432,56,7790,1,0,0:0:0:0:
424,192,7792,1,0,0:0:0:0:
384,240,7793,1,0,0:0:0:0:
312,80,7794,1,0,0:0:0:0:
72,256,7795,1,0,0:0:0:0:
64,304,7796,1,0,0:0:0:0:
464,368,7798,1,0,0:0:0:0:
168,328,7799,1,0,0:0:0:0:
256,256,7800,1,0,0:0:0:0:
392,24,7803,1,0,0:0:0:0:
336,104,7804,1,0,0:0:0:0:
112,280,7805,1,0,0:0:0:0:
56,352,7806,1,0,0:0:0:0:
144,136,7807,1,0,0:0:0:0:
336,152,7810,1,0,0:0:0:0:
368,144,7811,1,0,0:0:0:0:
416,104,7812,1,0,0:0:0:0:
464,160,7814,1,0,0:0:0:0:
72,312,7815,1,0,0:0:0:0:
192,176,7816,1,0,0:0:0:0:
192,128,7817,1,0,0:0:0:0:
336,384,7818,1,0,0:0:0:0:
48,288,7820,1,0,0:0:0:0:
392,144,7821,1,0,0:0:0:0:
184,56,7822,1,0,0:0:0:0:
360,32,7823,1,0,0:0:0:0:
64,168,7825,1,0,0:0:0:0:
368,296,7826,1,0,0:0:0:0:
96,80,7827,1,0,0:0:0:0:
368,72,7828,1,0,0:0:0:0:
152,200,7829,1,0,0:0:0:0:
288,280,7831,1,0,0:0:0:0:
200,48,7832,1,0,0:0:0:0:
192,208,7833,1,0,0:0:0:0:
288,256,7834,1,0,0:0:0:0:
456,336,7835,1,0,0:0:0:0:
424,48,7837,1,0,0:0:0:0:
336,256,7838,1,0,0:0:0:0:
320,320,7839,1,0,0:0:0:0:
208,328,7840,1,0,0:0:0:0:
368,160,7842,1,0,0:0:0:0:
160,128,7843,1,0,0:0:0:0:
296,64,7844,1,0,0:0:0:0:
272,128,7846,1,0,0:0:0:0:
184,200,7848,1,0,0:0:0:0:
480,304,7849,1,0,0:0:0:0:
264,176,7850,1,0,0:0:0:0:
360,128,7851,1,0,0:0:0:0:
256,40,7853,1,0,0:0:0:0:
160,88,7854,1,0,0:0:0:0:
176,192,7855,1,0,0:0:0:0:
24,248,7857,1,0,0:0:0:0:
24,120,7859,1,0,0:0:0:0:
24,72,7860,1,0,0:0:0:0:
152,56,7861,1,0,0:0:0:0:
424,192,7862,1,0,0:0:0:0:
368,264,7864,1,0,0:0:0:0:
288,320,7865,1,0,0:0:0:0:
368,200,7866,1,0,0:0:0:0:
40,112,7867,1,0,0:0:0:0:
80,72,7868,1,0,0:0:0:0:
24,16,7870,1,0,0:0:0:0:
304,88,7871,1,0,0:0:0:0:
296,176,7872,1,0,0:0:0:0:
336,224,7873,1,0,0:0:0:0:
400,272,7875,1,0,0:0:0:0:
144,272,7876,1,0,0:0:0:0:
232,152,7878,1,0,0:0:0:0:
184,248,7879,1,0,0:0:0:0:
72,360,7881,1,0,0:0:0:0:
376,360,7882,1,0,0:0:0:0:
376,184,7883,1,0,0:0:0:0:
440,288,7884,1,0,0:0:0:0:
320,296,7886,1,0,0:0:0:0:
88,224,7887,1,0,0:0:0:0:
48,64,7888,1,0,0:0:0:0:
448,56,7890,1,0,0:0:0:0:
0,336,7892,1,0,0:0:0:0:
272,336,7893,1,0,0:0:0:0:
192,176,7894,1,0,0:0:0:0:
328,80,7895,1,0,0:0:0:0:
88,48,7897,1,0,0:0:0:0:
368,56,7898,1,0,0:0:0:0:
120,24,7899,1,0,0:0:0:0:
328,24,7900,1,0,0:0:0:0:
424,320,7901,1,0,0:0:0:0:
304,200,7904,1,0,0:0:0:0:
24,312,7905,1,0,0:0:0:0:
248,312,7906,1,0,0:0:0:0:
72,56,7908,1,0,0:0:0:0:
272,48,7909,1,0,0:0:0:0:
88,280,7910,1,0,0:0:0:0:
328,304,7911,1,0,0:0:0:0:
176,336,7912,1,0,0:0:0:0:
424,320,7914,1,0,0:0:0:0:
112,296,7915,1,0,0:0:0:0:
8,272,7916,1,0,0:0:0:0:
104,288,7917,1,0,0:0:0:0:
416,320,7919,1,0,0:0:0:0:
448,240,7920,1,0,0:0:0:0:
216,80,7921,1,0,0:0:0:0:
144,64,7922,1,0,0:0:0:0:
