osu file format v13

[General]
AudioFilename: Prelude in C minor.mp3
AudioLeadIn: 0
PreviewTime: -1
Countdown: 1
SampleSet: None
StackLeniency: 0.7
Mode: 1
LetterboxInBreaks: 1
WidescreenStoryboard: 1

[Editor]
Bookmarks: 313
DistanceSpacing: 1
BeatDivisor: 1
GridSize: 8
TimelineZoom: 8

[Metadata]
Title:The Wrath of ET Blocko
TitleUnicode:The Wrath of ET Blocko
Artist:iJinjin
ArtistUnicode:iJinjin
Creator:iJinjin
Version:Akumu^1271419
Source:
Tags:
BeatmapID:577783
BeatmapSetID:249218

[Difficulty]
HPDrainRate:0
CircleSize:7
OverallDifficulty:10
ApproachRate:5
SliderMultiplier:3.59999990463257
SliderTickRate:1

[Events]
//Background and Video events
0,0,"blocko.png",0,0
//Break Periods
//Storyboard Layer 0 (Background)
//Storyboard Layer 1 (Fail)
//Storyboard Layer 2 (Pass)
//Storyboard Layer 3 (Foreground)
//Storyboard Sound Samples

[TimingPoints]
1,78.125,4,1,0,0,1,0

[HitObjects]
256,192,0,5,8,0:0:0:0:
256,192,5,1,8,0:0:0:0:
256,192,10,1,8,0:0:0:0:
256,192,15,1,8,0:0:0:0:
256,192,20,1,8,0:0:0:0:
256,192,25,1,8,0:0:0:0:
256,192,30,1,8,0:0:0:0:
256,192,35,1,8,0:0:0:0:
256,192,40,1,8,0:0:0:0:
256,192,44,1,8,0:0:0:0:
256,192,49,1,8,0:0:0:0:
256,192,54,1,8,0:0:0:0:
256,192,59,1,8,0:0:0:0:
256,192,64,1,8,0:0:0:0:
256,192,69,1,8,0:0:0:0:
256,192,74,1,8,0:0:0:0:
256,192,79,5,0,0:0:0:0:
256,192,84,1,0,0:0:0:0:
256,192,89,1,0,0:0:0:0:
256,192,94,1,0,0:0:0:0:
256,192,99,1,0,0:0:0:0:
256,192,104,1,0,0:0:0:0:
256,192,109,1,0,0:0:0:0:
256,192,114,1,0,0:0:0:0:
256,192,119,1,0,0:0:0:0:
256,192,123,1,0,0:0:0:0:
256,192,128,1,0,0:0:0:0:
256,192,133,1,0,0:0:0:0:
256,192,138,1,0,0:0:0:0:
256,192,143,1,0,0:0:0:0:
256,192,148,1,0,0:0:0:0:
256,192,153,1,0,0:0:0:0:
256,192,157,5,8,0:0:0:0:
256,192,162,1,8,0:0:0:0:
256,192,167,1,8,0:0:0:0:
256,192,172,1,8,0:0:0:0:
256,192,177,1,8,0:0:0:0:
256,192,182,1,8,0:0:0:0:
256,192,187,1,8,0:0:0:0:
256,192,192,1,8,0:0:0:0:
256,192,197,1,8,0:0:0:0:
256,192,201,1,8,0:0:0:0:
256,192,206,1,8,0:0:0:0:
256,192,211,1,8,0:0:0:0:
256,192,216,1,8,0:0:0:0:
256,192,221,1,8,0:0:0:0:
256,192,226,1,8,0:0:0:0:
256,192,231,1,8,0:0:0:0:
256,192,235,5,8,0:0:0:0:
256,192,240,1,8,0:0:0:0:
256,192,245,1,8,0:0:0:0:
256,192,250,1,8,0:0:0:0:
256,192,255,1,8,0:0:0:0:
256,192,260,1,8,0:0:0:0:
256,192,265,1,8,0:0:0:0:
256,192,270,1,8,0:0:0:0:
256,192,275,1,8,0:0:0:0:
256,192,279,1,8,0:0:0:0:
256,192,284,1,8,0:0:0:0:
256,192,289,1,8,0:0:0:0:
256,192,294,1,8,0:0:0:0:
256,192,299,1,8,0:0:0:0:
256,192,304,1,8,0:0:0:0:
256,192,309,1,8,0:0:0:0:
256,192,313,5,0,0:0:0:0:
256,192,318,1,0,0:0:0:0:
256,192,323,1,0,0:0:0:0:
256,192,328,1,0,0:0:0:0:
256,192,333,1,0,0:0:0:0:
256,192,338,1,0,0:0:0:0:
256,192,343,1,0,0:0:0:0:
256,192,348,1,0,0:0:0:0:
256,192,353,1,0,0:0:0:0:
256,192,357,1,0,0:0:0:0:
256,192,362,1,0,0:0:0:0:
256,192,367,1,0,0:0:0:0:
256,192,372,1,0,0:0:0:0:
256,192,377,1,0,0:0:0:0:
256,192,382,1,0,0:0:0:0:
256,192,387,1,0,0:0:0:0:
256,192,391,5,0,0:0:0:0:
256,192,396,1,0,0:0:0:0:
256,192,401,1,0,0:0:0:0:
256,192,406,1,0,0:0:0:0:
256,192,411,1,0,0:0:0:0:
256,192,416,1,0,0:0:0:0:
256,192,421,1,0,0:0:0:0:
256,192,426,1,0,0:0:0:0:
256,192,431,1,0,0:0:0:0:
256,192,435,1,0,0:0:0:0:
256,192,440,1,0,0:0:0:0:
256,192,445,1,0,0:0:0:0:
256,192,450,1,0,0:0:0:0:
256,192,455,1,0,0:0:0:0:
256,192,460,1,0,0:0:0:0:
256,192,465,1,0,0:0:0:0:
256,192,469,5,0,0:0:0:0:
256,192,474,1,0,0:0:0:0:
256,192,479,1,0,0:0:0:0:
256,192,484,1,0,0:0:0:0:
256,192,489,1,0,0:0:0:0:
256,192,494,1,0,0:0:0:0:
256,192,499,1,0,0:0:0:0:
256,192,504,1,0,0:0:0:0:
256,192,509,1,0,0:0:0:0:
256,192,513,1,0,0:0:0:0:
256,192,518,1,0,0:0:0:0:
256,192,523,1,0,0:0:0:0:
256,192,528,1,0,0:0:0:0:
256,192,533,1,0,0:0:0:0:
256,192,538,1,0,0:0:0:0:
256,192,543,1,0,0:0:0:0:
256,192,547,5,8,0:0:0:0:
256,192,552,1,8,0:0:0:0:
256,192,557,1,8,0:0:0:0:
256,192,562,1,8,0:0:0:0:
256,192,567,1,8,0:0:0:0:
256,192,572,1,8,0:0:0:0:
256,192,577,1,8,0:0:0:0:
256,192,582,1,8,0:0:0:0:
256,192,587,1,8,0:0:0:0:
256,192,591,1,8,0:0:0:0:
256,192,596,1,8,0:0:0:0:
256,192,601,1,8,0:0:0:0:
256,192,606,1,8,0:0:0:0:
256,192,611,1,8,0:0:0:0:
256,192,616,1,8,0:0:0:0:
256,192,621,1,8,0:0:0:0:
256,192,626,5,0,0:0:0:0:
256,192,631,1,0,0:0:0:0:
256,192,636,1,0,0:0:0:0:
256,192,641,1,0,0:0:0:0:
256,192,646,1,0,0:0:0:0:
256,192,651,1,0,0:0:0:0:
256,192,656,1,0,0:0:0:0:
256,192,661,1,0,0:0:0:0:
256,192,666,1,0,0:0:0:0:
256,192,670,1,0,0:0:0:0:
256,192,675,1,0,0:0:0:0:
256,192,680,1,0,0:0:0:0:
256,192,685,1,0,0:0:0:0:
256,192,690,1,0,0:0:0:0:
256,192,695,1,0,0:0:0:0:
256,192,700,1,0,0:0:0:0:
256,192,704,5,8,0:0:0:0:
256,192,709,1,8,0:0:0:0:
256,192,714,1,8,0:0:0:0:
256,192,719,1,8,0:0:0:0:
256,192,724,1,8,0:0:0:0:
256,192,729,1,8,0:0:0:0:
256,192,734,1,8,0:0:0:0:
256,192,739,1,8,0:0:0:0:
256,192,744,1,8,0:0:0:0:
256,192,748,1,8,0:0:0:0:
256,192,753,1,8,0:0:0:0:
256,192,758,1,8,0:0:0:0:
256,192,763,1,8,0:0:0:0:
256,192,768,1,8,0:0:0:0:
256,192,773,1,8,0:0:0:0:
256,192,778,1,8,0:0:0:0:
256,192,782,5,8,0:0:0:0:
256,192,787,1,8,0:0:0:0:
256,192,792,1,8,0:0:0:0:
256,192,797,1,8,0:0:0:0:
256,192,802,1,8,0:0:0:0:
256,192,807,1,8,0:0:0:0:
256,192,812,1,8,0:0:0:0:
256,192,817,1,8,0:0:0:0:
256,192,822,1,8,0:0:0:0:
256,192,826,1,8,0:0:0:0:
256,192,831,1,8,0:0:0:0:
256,192,836,1,8,0:0:0:0:
256,192,841,1,8,0:0:0:0:
256,192,846,1,8,0:0:0:0:
256,192,851,1,8,0:0:0:0:
256,192,856,1,8,0:0:0:0:
256,192,860,5,0,0:0:0:0:
256,192,865,1,0,0:0:0:0:
256,192,870,1,0,0:0:0:0:
256,192,875,1,0,0:0:0:0:
256,192,880,1,0,0:0:0:0:
256,192,885,1,0,0:0:0:0:
256,192,890,1,0,0:0:0:0:
256,192,895,1,0,0:0:0:0:
256,192,900,1,0,0:0:0:0:
256,192,904,1,0,0:0:0:0:
256,192,909,1,0,0:0:0:0:
256,192,914,1,0,0:0:0:0:
256,192,919,1,0,0:0:0:0:
256,192,924,1,0,0:0:0:0:
256,192,929,1,0,0:0:0:0:
256,192,934,1,0,0:0:0:0:
256,192,938,5,0,0:0:0:0:
256,192,943,1,0,0:0:0:0:
256,192,948,1,0,0:0:0:0:
256,192,953,1,0,0:0:0:0:
256,192,958,1,0,0:0:0:0:
256,192,963,1,0,0:0:0:0:
256,192,968,1,0,0:0:0:0:
256,192,973,1,0,0:0:0:0:
256,192,978,1,0,0:0:0:0:
256,192,982,1,0,0:0:0:0:
256,192,987,1,0,0:0:0:0:
256,192,992,1,0,0:0:0:0:
256,192,997,1,0,0:0:0:0:
256,192,1002,1,0,0:0:0:0:
256,192,1007,1,0,0:0:0:0:
256,192,1012,1,0,0:0:0:0:
256,192,1016,5,8,0:0:0:0:
256,192,1021,1,8,0:0:0:0:
256,192,1026,1,8,0:0:0:0:
256,192,1031,1,8,0:0:0:0:
256,192,1036,1,8,0:0:0:0:
256,192,1041,1,8,0:0:0:0:
256,192,1046,1,8,0:0:0:0:
256,192,1051,1,8,0:0:0:0:
256,192,1056,1,8,0:0:0:0:
256,192,1060,1,8,0:0:0:0:
256,192,1065,1,8,0:0:0:0:
256,192,1070,1,8,0:0:0:0:
256,192,1075,1,8,0:0:0:0:
256,192,1080,1,8,0:0:0:0:
256,192,1085,1,8,0:0:0:0:
256,192,1090,1,8,0:0:0:0:
256,192,1094,5,0,0:0:0:0:
256,192,1099,1,0,0:0:0:0:
256,192,1104,1,0,0:0:0:0:
256,192,1109,1,0,0:0:0:0:
256,192,1114,1,0,0:0:0:0:
256,192,1119,1,0,0:0:0:0:
256,192,1124,1,0,0:0:0:0:
256,192,1129,1,0,0:0:0:0:
256,192,1134,1,0,0:0:0:0:
256,192,1138,1,0,0:0:0:0:
256,192,1143,1,0,0:0:0:0:
256,192,1148,1,0,0:0:0:0:
256,192,1153,1,0,0:0:0:0:
256,192,1158,1,0,0:0:0:0:
256,192,1163,1,0,0:0:0:0:
256,192,1168,1,0,0:0:0:0:
256,192,1172,5,8,0:0:0:0:
256,192,1177,1,8,0:0:0:0:
256,192,1182,1,8,0:0:0:0:
256,192,1187,1,8,0:0:0:0:
256,192,1192,1,8,0:0:0:0:
256,192,1197,1,8,0:0:0:0:
256,192,1202,1,8,0:0:0:0:
256,192,1207,1,8,0:0:0:0:
256,192,1212,1,8,0:0:0:0:
256,192,1216,1,8,0:0:0:0:
256,192,1221,1,8,0:0:0:0:
256,192,1226,1,8,0:0:0:0:
256,192,1231,1,8,0:0:0:0:
256,192,1236,1,8,0:0:0:0:
256,192,1241,1,8,0:0:0:0:
256,192,1246,1,8,0:0:0:0:
256,192,1251,5,8,0:0:0:0:
256,192,1256,1,8,0:0:0:0:
256,192,1261,1,8,0:0:0:0:
256,192,1266,1,8,0:0:0:0:
256,192,1271,1,8,0:0:0:0:
256,192,1276,1,8,0:0:0:0:
256,192,1281,1,8,0:0:0:0:
256,192,1286,1,8,0:0:0:0:
256,192,1291,1,8,0:0:0:0:
256,192,1295,1,8,0:0:0:0:
256,192,1300,1,8,0:0:0:0:
256,192,1305,1,8,0:0:0:0:
256,192,1310,1,8,0:0:0:0:
256,192,1315,1,8,0:0:0:0:
256,192,1320,1,8,0:0:0:0:
256,192,1325,1,8,0:0:0:0:
256,192,1329,5,0,0:0:0:0:
256,192,1334,1,0,0:0:0:0:
256,192,1339,1,0,0:0:0:0:
256,192,1344,1,0,0:0:0:0:
256,192,1349,1,0,0:0:0:0:
256,192,1354,1,0,0:0:0:0:
256,192,1359,1,0,0:0:0:0:
256,192,1364,1,0,0:0:0:0:
256,192,1369,1,0,0:0:0:0:
256,192,1373,1,0,0:0:0:0:
256,192,1378,1,0,0:0:0:0:
256,192,1383,1,0,0:0:0:0:
256,192,1388,1,0,0:0:0:0:
256,192,1393,1,0,0:0:0:0:
256,192,1398,1,0,0:0:0:0:
256,192,1403,1,0,0:0:0:0:
256,192,1407,5,8,0:0:0:0:
256,192,1412,1,8,0:0:0:0:
256,192,1417,1,8,0:0:0:0:
256,192,1422,1,8,0:0:0:0:
256,192,1427,1,8,0:0:0:0:
256,192,1432,1,8,0:0:0:0:
256,192,1437,1,8,0:0:0:0:
256,192,1442,1,8,0:0:0:0:
256,192,1447,1,8,0:0:0:0:
256,192,1451,1,8,0:0:0:0:
256,192,1456,1,8,0:0:0:0:
256,192,1461,1,8,0:0:0:0:
256,192,1466,1,8,0:0:0:0:
256,192,1471,1,8,0:0:0:0:
256,192,1476,1,8,0:0:0:0:
256,192,1481,1,8,0:0:0:0:
256,192,1485,5,0,0:0:0:0:
256,192,1490,1,0,0:0:0:0:
256,192,1495,1,0,0:0:0:0:
256,192,1500,1,0,0:0:0:0:
256,192,1505,1,0,0:0:0:0:
256,192,1510,1,0,0:0:0:0:
256,192,1515,1,0,0:0:0:0:
256,192,1520,1,0,0:0:0:0:
256,192,1525,1,0,0:0:0:0:
256,192,1529,1,0,0:0:0:0:
256,192,1534,1,0,0:0:0:0:
256,192,1539,1,0,0:0:0:0:
256,192,1544,1,0,0:0:0:0:
256,192,1549,1,0,0:0:0:0:
256,192,1554,1,0,0:0:0:0:
256,192,1559,1,0,0:0:0:0:
256,192,1563,5,8,0:0:0:0:
256,192,1568,1,8,0:0:0:0:
256,192,1573,1,8,0:0:0:0:
256,192,1578,1,8,0:0:0:0:
256,192,1583,1,8,0:0:0:0:
256,192,1588,1,8,0:0:0:0:
256,192,1593,1,8,0:0:0:0:
256,192,1598,1,8,0:0:0:0:
256,192,1603,1,8,0:0:0:0:
256,192,1607,1,8,0:0:0:0:
256,192,1612,1,8,0:0:0:0:
256,192,1617,1,8,0:0:0:0:
256,192,1622,1,8,0:0:0:0:
256,192,1627,1,8,0:0:0:0:
256,192,1632,1,8,0:0:0:0:
256,192,1637,1,8,0:0:0:0:
256,192,1641,5,8,0:0:0:0:
256,192,1646,1,8,0:0:0:0:
256,192,1651,1,8,0:0:0:0:
256,192,1656,1,8,0:0:0:0:
256,192,1661,1,8,0:0:0:0:
256,192,1666,1,8,0:0:0:0:
256,192,1671,1,8,0:0:0:0:
256,192,1676,1,8,0:0:0:0:
256,192,1681,1,8,0:0:0:0:
256,192,1685,1,8,0:0:0:0:
256,192,1690,1,8,0:0:0:0:
256,192,1695,1,8,0:0:0:0:
256,192,1700,1,8,0:0:0:0:
256,192,1705,1,8,0:0:0:0:
256,192,1710,1,8,0:0:0:0:
256,192,1715,1,8,0:0:0:0:
256,192,1719,5,8,0:0:0:0:
256,192,1724,1,8,0:0:0:0:
256,192,1729,1,8,0:0:0:0:
256,192,1734,1,8,0:0:0:0:
256,192,1739,1,8,0:0:0:0:
256,192,1744,1,8,0:0:0:0:
256,192,1749,1,8,0:0:0:0:
256,192,1754,1,8,0:0:0:0:
256,192,1759,1,8,0:0:0:0:
256,192,1763,1,8,0:0:0:0:
256,192,1768,1,8,0:0:0:0:
256,192,1773,1,8,0:0:0:0:
256,192,1778,1,8,0:0:0:0:
256,192,1783,1,8,0:0:0:0:
256,192,1788,1,8,0:0:0:0:
256,192,1793,1,8,0:0:0:0:
256,192,1797,5,8,0:0:0:0:
256,192,1802,1,8,0:0:0:0:
256,192,1807,1,8,0:0:0:0:
256,192,1812,1,8,0:0:0:0:
256,192,1817,1,8,0:0:0:0:
256,192,1822,1,8,0:0:0:0:
256,192,1827,1,8,0:0:0:0:
256,192,1832,1,8,0:0:0:0:
256,192,1837,1,8,0:0:0:0:
256,192,1841,1,8,0:0:0:0:
256,192,1846,1,8,0:0:0:0:
256,192,1851,1,8,0:0:0:0:
256,192,1856,1,8,0:0:0:0:
256,192,1861,1,8,0:0:0:0:
256,192,1866,1,8,0:0:0:0:
256,192,1871,1,8,0:0:0:0:
256,192,1876,5,0,0:0:0:0:
256,192,1881,1,0,0:0:0:0:
256,192,1886,1,0,0:0:0:0:
256,192,1891,1,0,0:0:0:0:
256,192,1896,1,0,0:0:0:0:
256,192,1901,1,0,0:0:0:0:
256,192,1906,1,0,0:0:0:0:
256,192,1911,1,0,0:0:0:0:
256,192,1916,1,0,0:0:0:0:
256,192,1920,1,0,0:0:0:0:
256,192,1925,1,0,0:0:0:0:
256,192,1930,1,0,0:0:0:0:
256,192,1935,1,0,0:0:0:0:
256,192,1940,1,0,0:0:0:0:
256,192,1945,1,0,0:0:0:0:
256,192,1950,1,0,0:0:0:0:
256,192,1954,5,0,0:0:0:0:
256,192,1959,1,0,0:0:0:0:
256,192,1964,1,0,0:0:0:0:
256,192,1969,1,0,0:0:0:0:
256,192,1974,1,0,0:0:0:0:
256,192,1979,1,0,0:0:0:0:
256,192,1984,1,0,0:0:0:0:
256,192,1989,1,0,0:0:0:0:
256,192,1994,1,0,0:0:0:0:
256,192,1998,1,0,0:0:0:0:
256,192,2003,1,0,0:0:0:0:
256,192,2008,1,0,0:0:0:0:
256,192,2013,1,0,0:0:0:0:
256,192,2018,1,0,0:0:0:0:
256,192,2023,1,0,0:0:0:0:
256,192,2028,1,0,0:0:0:0:
256,192,2032,5,0,0:0:0:0:
256,192,2037,1,0,0:0:0:0:
256,192,2042,1,0,0:0:0:0:
256,192,2047,1,0,0:0:0:0:
256,192,2052,1,0,0:0:0:0:
256,192,2057,1,0,0:0:0:0:
256,192,2062,1,0,0:0:0:0:
256,192,2067,1,0,0:0:0:0:
256,192,2072,1,0,0:0:0:0:
256,192,2076,1,0,0:0:0:0:
256,192,2081,1,0,0:0:0:0:
256,192,2086,1,0,0:0:0:0:
256,192,2091,1,0,0:0:0:0:
256,192,2096,1,0,0:0:0:0:
256,192,2101,1,0,0:0:0:0:
256,192,2106,1,0,0:0:0:0:
256,192,2110,5,0,0:0:0:0:
256,192,2115,1,0,0:0:0:0:
256,192,2120,1,0,0:0:0:0:
256,192,2125,1,0,0:0:0:0:
256,192,2130,1,0,0:0:0:0:
256,192,2135,1,0,0:0:0:0:
256,192,2140,1,0,0:0:0:0:
256,192,2145,1,0,0:0:0:0:
256,192,2150,1,0,0:0:0:0:
256,192,2154,1,0,0:0:0:0:
256,192,2159,1,0,0:0:0:0:
256,192,2164,1,0,0:0:0:0:
256,192,2169,1,0,0:0:0:0:
256,192,2174,1,0,0:0:0:0:
256,192,2179,1,0,0:0:0:0:
256,192,2184,1,0,0:0:0:0:
256,192,2188,5,8,0:0:0:0:
256,192,2193,1,8,0:0:0:0:
256,192,2198,1,8,0:0:0:0:
256,192,2203,1,8,0:0:0:0:
256,192,2208,1,8,0:0:0:0:
256,192,2213,1,8,0:0:0:0:
256,192,2218,1,8,0:0:0:0:
256,192,2223,1,8,0:0:0:0:
256,192,2228,1,8,0:0:0:0:
256,192,2232,1,8,0:0:0:0:
256,192,2237,1,8,0:0:0:0:
256,192,2242,1,8,0:0:0:0:
256,192,2247,1,8,0:0:0:0:
256,192,2252,1,8,0:0:0:0:
256,192,2257,1,8,0:0:0:0:
256,192,2262,1,8,0:0:0:0:
256,192,2266,5,0,0:0:0:0:
256,192,2271,1,0,0:0:0:0:
256,192,2276,1,0,0:0:0:0:
256,192,2281,1,0,0:0:0:0:
256,192,2286,1,0,0:0:0:0:
256,192,2291,1,0,0:0:0:0:
256,192,2296,1,0,0:0:0:0:
256,192,2301,1,0,0:0:0:0:
256,192,2306,1,0,0:0:0:0:
256,192,2310,1,0,0:0:0:0:
256,192,2315,1,0,0:0:0:0:
256,192,2320,1,0,0:0:0:0:
256,192,2325,1,0,0:0:0:0:
256,192,2330,1,0,0:0:0:0:
256,192,2335,1,0,0:0:0:0:
256,192,2340,1,0,0:0:0:0:
256,192,2344,5,8,0:0:0:0:
256,192,2349,1,8,0:0:0:0:
256,192,2354,1,8,0:0:0:0:
256,192,2359,1,8,0:0:0:0:
256,192,2364,1,8,0:0:0:0:
256,192,2369,1,8,0:0:0:0:
256,192,2374,1,8,0:0:0:0:
256,192,2379,1,8,0:0:0:0:
256,192,2384,1,8,0:0:0:0:
256,192,2388,1,8,0:0:0:0:
256,192,2393,1,8,0:0:0:0:
256,192,2398,1,8,0:0:0:0:
256,192,2403,1,8,0:0:0:0:
256,192,2408,1,8,0:0:0:0:
256,192,2413,1,8,0:0:0:0:
256,192,2418,1,8,0:0:0:0:
256,192,2422,5,0,0:0:0:0:
256,192,2427,1,0,0:0:0:0:
256,192,2432,1,0,0:0:0:0:
256,192,2437,1,0,0:0:0:0:
256,192,2442,1,0,0:0:0:0:
256,192,2447,1,0,0:0:0:0:
256,192,2452,1,0,0:0:0:0:
256,192,2457,1,0,0:0:0:0:
256,192,2462,1,0,0:0:0:0:
256,192,2466,1,0,0:0:0:0:
256,192,2471,1,0,0:0:0:0:
256,192,2476,1,0,0:0:0:0:
256,192,2481,1,0,0:0:0:0:
256,192,2486,1,0,0:0:0:0:
256,192,2491,1,0,0:0:0:0:
256,192,2496,1,0,0:0:0:0:
256,192,2501,5,0,0:0:0:0:
256,192,2506,1,0,0:0:0:0:
256,192,2511,1,0,0:0:0:0:
256,192,2516,1,0,0:0:0:0:
256,192,2521,1,0,0:0:0:0:
256,192,2526,1,0,0:0:0:0:
256,192,2531,1,0,0:0:0:0:
256,192,2536,1,0,0:0:0:0:
256,192,2541,1,0,0:0:0:0:
256,192,2545,1,0,0:0:0:0:
256,192,2550,1,0,0:0:0:0:
256,192,2555,1,0,0:0:0:0:
256,192,2560,1,0,0:0:0:0:
256,192,2565,1,0,0:0:0:0:
256,192,2570,1,0,0:0:0:0:
256,192,2575,1,0,0:0:0:0:
256,192,2579,5,0,0:0:0:0:
256,192,2584,1,0,0:0:0:0:
256,192,2589,1,0,0:0:0:0:
256,192,2594,1,0,0:0:0:0:
256,192,2599,1,0,0:0:0:0:
256,192,2604,1,0,0:0:0:0:
256,192,2609,1,0,0:0:0:0:
256,192,2614,1,0,0:0:0:0:
256,192,2619,1,0,0:0:0:0:
256,192,2623,1,0,0:0:0:0:
256,192,2628,1,0,0:0:0:0:
256,192,2633,1,0,0:0:0:0:
256,192,2638,1,0,0:0:0:0:
256,192,2643,1,0,0:0:0:0:
256,192,2648,1,0,0:0:0:0:
256,192,2653,1,0,0:0:0:0:
256,192,2657,5,8,0:0:0:0:
256,192,2662,1,8,0:0:0:0:
256,192,2667,1,8,0:0:0:0:
256,192,2672,1,8,0:0:0:0:
256,192,2677,1,8,0:0:0:0:
256,192,2682,1,8,0:0:0:0:
256,192,2687,1,8,0:0:0:0:
256,192,2692,1,8,0:0:0:0:
256,192,2697,1,8,0:0:0:0:
256,192,2701,1,8,0:0:0:0:
256,192,2706,1,8,0:0:0:0:
256,192,2711,1,8,0:0:0:0:
256,192,2716,1,8,0:0:0:0:
256,192,2721,1,8,0:0:0:0:
256,192,2726,1,8,0:0:0:0:
256,192,2731,1,8,0:0:0:0:
256,192,2735,5,8,0:0:0:0:
256,192,2740,1,8,0:0:0:0:
256,192,2745,1,8,0:0:0:0:
256,192,2750,1,8,0:0:0:0:
256,192,2755,1,8,0:0:0:0:
256,192,2760,1,8,0:0:0:0:
256,192,2765,1,8,0:0:0:0:
256,192,2770,1,8,0:0:0:0:
256,192,2775,1,8,0:0:0:0:
256,192,2779,1,8,0:0:0:0:
256,192,2784,1,8,0:0:0:0:
256,192,2789,1,8,0:0:0:0:
256,192,2794,1,8,0:0:0:0:
256,192,2799,1,8,0:0:0:0:
256,192,2804,1,8,0:0:0:0:
256,192,2809,1,8,0:0:0:0:
256,192,2813,5,8,0:0:0:0:
256,192,2818,1,8,0:0:0:0:
256,192,2823,1,8,0:0:0:0:
256,192,2828,1,8,0:0:0:0:
256,192,2833,1,8,0:0:0:0:
256,192,2838,1,8,0:0:0:0:
256,192,2843,1,8,0:0:0:0:
256,192,2848,1,8,0:0:0:0:
256,192,2853,1,8,0:0:0:0:
256,192,2857,1,8,0:0:0:0:
256,192,2862,1,8,0:0:0:0:
256,192,2867,1,8,0:0:0:0:
256,192,2872,1,8,0:0:0:0:
256,192,2877,1,8,0:0:0:0:
256,192,2882,1,8,0:0:0:0:
256,192,2887,1,8,0:0:0:0:
256,192,2891,5,0,0:0:0:0:
256,192,2896,1,0,0:0:0:0:
256,192,2901,1,0,0:0:0:0:
256,192,2906,1,0,0:0:0:0:
256,192,2911,1,0,0:0:0:0:
256,192,2916,1,0,0:0:0:0:
256,192,2921,1,0,0:0:0:0:
256,192,2926,1,0,0:0:0:0:
256,192,2931,1,0,0:0:0:0:
256,192,2935,1,0,0:0:0:0:
256,192,2940,1,0,0:0:0:0:
256,192,2945,1,0,0:0:0:0:
256,192,2950,1,0,0:0:0:0:
256,192,2955,1,0,0:0:0:0:
256,192,2960,1,0,0:0:0:0:
256,192,2965,1,0,0:0:0:0:
256,192,2969,5,8,0:0:0:0:
256,192,2974,1,8,0:0:0:0:
256,192,2979,1,8,0:0:0:0:
256,192,2984,1,8,0:0:0:0:
256,192,2989,1,8,0:0:0:0:
256,192,2994,1,8,0:0:0:0:
256,192,2999,1,8,0:0:0:0:
256,192,3004,1,8,0:0:0:0:
256,192,3009,1,8,0:0:0:0:
256,192,3013,1,8,0:0:0:0:
256,192,3018,1,8,0:0:0:0:
256,192,3023,1,8,0:0:0:0:
256,192,3028,1,8,0:0:0:0:
256,192,3033,1,8,0:0:0:0:
256,192,3038,1,8,0:0:0:0:
256,192,3043,1,8,0:0:0:0:
256,192,3047,5,0,0:0:0:0:
256,192,3052,1,0,0:0:0:0:
256,192,3057,1,0,0:0:0:0:
256,192,3062,1,0,0:0:0:0:
256,192,3067,1,0,0:0:0:0:
256,192,3072,1,0,0:0:0:0:
256,192,3077,1,0,0:0:0:0:
256,192,3082,1,0,0:0:0:0:
256,192,3087,1,0,0:0:0:0:
256,192,3091,1,0,0:0:0:0:
256,192,3096,1,0,0:0:0:0:
256,192,3101,1,0,0:0:0:0:
256,192,3106,1,0,0:0:0:0:
256,192,3111,1,0,0:0:0:0:
256,192,3116,1,0,0:0:0:0:
256,192,3121,1,0,0:0:0:0:
256,192,3126,5,0,0:0:0:0:
256,192,3131,1,0,0:0:0:0:
256,192,3136,1,0,0:0:0:0:
256,192,3141,1,0,0:0:0:0:
256,192,3146,1,0,0:0:0:0:
256,192,3151,1,0,0:0:0:0:
256,192,3156,1,0,0:0:0:0:
256,192,3161,1,0,0:0:0:0:
256,192,3166,1,0,0:0:0:0:
256,192,3170,1,0,0:0:0:0:
256,192,3175,1,0,0:0:0:0:
256,192,3180,1,0,0:0:0:0:
256,192,3185,1,0,0:0:0:0:
256,192,3190,1,0,0:0:0:0:
256,192,3195,1,0,0:0:0:0:
256,192,3200,1,0,0:0:0:0:
256,192,3204,5,8,0:0:0:0:
256,192,3209,1,8,0:0:0:0:
256,192,3214,1,8,0:0:0:0:
256,192,3219,1,8,0:0:0:0:
256,192,3224,1,8,0:0:0:0:
256,192,3229,1,8,0:0:0:0:
256,192,3234,1,8,0:0:0:0:
256,192,3239,1,8,0:0:0:0:
256,192,3244,1,8,0:0:0:0:
256,192,3248,1,8,0:0:0:0:
256,192,3253,1,8,0:0:0:0:
256,192,3258,1,8,0:0:0:0:
256,192,3263,1,8,0:0:0:0:
256,192,3268,1,8,0:0:0:0:
256,192,3273,1,8,0:0:0:0:
256,192,3278,1,8,0:0:0:0:
256,192,3282,5,8,0:0:0:0:
256,192,3287,1,8,0:0:0:0:
256,192,3292,1,8,0:0:0:0:
256,192,3297,1,8,0:0:0:0:
256,192,3302,1,8,0:0:0:0:
256,192,3307,1,8,0:0:0:0:
256,192,3312,1,8,0:0:0:0:
256,192,3317,1,8,0:0:0:0:
256,192,3322,1,8,0:0:0:0:
256,192,3326,1,8,0:0:0:0:
256,192,3331,1,8,0:0:0:0:
256,192,3336,1,8,0:0:0:0:
256,192,3341,1,8,0:0:0:0:
256,192,3346,1,8,0:0:0:0:
256,192,3351,1,8,0:0:0:0:
256,192,3356,1,8,0:0:0:0:
256,192,3360,5,8,0:0:0:0:
256,192,3365,1,8,0:0:0:0:
256,192,3370,1,8,0:0:0:0:
256,192,3375,1,8,0:0:0:0:
256,192,3380,1,8,0:0:0:0:
256,192,3385,1,8,0:0:0:0:
256,192,3390,1,8,0:0:0:0:
256,192,3395,1,8,0:0:0:0:
256,192,3400,1,8,0:0:0:0:
256,192,3404,1,8,0:0:0:0:
256,192,3409,1,8,0:0:0:0:
256,192,3414,1,8,0:0:0:0:
256,192,3419,1,8,0:0:0:0:
256,192,3424,1,8,0:0:0:0:
256,192,3429,1,8,0:0:0:0:
256,192,3434,1,8,0:0:0:0:
256,192,3438,5,0,0:0:0:0:
256,192,3443,1,0,0:0:0:0:
256,192,3448,1,0,0:0:0:0:
256,192,3453,1,0,0:0:0:0:
256,192,3458,1,0,0:0:0:0:
256,192,3463,1,0,0:0:0:0:
256,192,3468,1,0,0:0:0:0:
256,192,3473,1,0,0:0:0:0:
256,192,3478,1,0,0:0:0:0:
256,192,3482,1,0,0:0:0:0:
256,192,3487,1,0,0:0:0:0:
256,192,3492,1,0,0:0:0:0:
256,192,3497,1,0,0:0:0:0:
256,192,3502,1,0,0:0:0:0:
256,192,3507,1,0,0:0:0:0:
256,192,3512,1,0,0:0:0:0:
256,192,3516,5,8,0:0:0:0:
256,192,3521,1,8,0:0:0:0:
256,192,3526,1,8,0:0:0:0:
256,192,3531,1,8,0:0:0:0:
256,192,3536,1,8,0:0:0:0:
256,192,3541,1,8,0:0:0:0:
256,192,3546,1,8,0:0:0:0:
256,192,3551,1,8,0:0:0:0:
256,192,3556,1,8,0:0:0:0:
256,192,3560,1,8,0:0:0:0:
256,192,3565,1,8,0:0:0:0:
256,192,3570,1,8,0:0:0:0:
256,192,3575,1,8,0:0:0:0:
256,192,3580,1,8,0:0:0:0:
256,192,3585,1,8,0:0:0:0:
256,192,3590,1,8,0:0:0:0:
256,192,3594,5,8,0:0:0:0:
256,192,3599,1,8,0:0:0:0:
256,192,3604,1,8,0:0:0:0:
256,192,3609,1,8,0:0:0:0:
256,192,3614,1,8,0:0:0:0:
256,192,3619,1,8,0:0:0:0:
256,192,3624,1,8,0:0:0:0:
256,192,3629,1,8,0:0:0:0:
256,192,3634,1,8,0:0:0:0:
256,192,3638,1,8,0:0:0:0:
256,192,3643,1,8,0:0:0:0:
256,192,3648,1,8,0:0:0:0:
256,192,3653,1,8,0:0:0:0:
256,192,3658,1,8,0:0:0:0:
256,192,3663,1,8,0:0:0:0:
256,192,3668,1,8,0:0:0:0:
256,192,3672,5,8,0:0:0:0:
256,192,3677,1,8,0:0:0:0:
256,192,3682,1,8,0:0:0:0:
256,192,3687,1,8,0:0:0:0:
256,192,3692,1,8,0:0:0:0:
256,192,3697,1,8,0:0:0:0:
256,192,3702,1,8,0:0:0:0:
256,192,3707,1,8,0:0:0:0:
256,192,3712,1,8,0:0:0:0:
256,192,3716,1,8,0:0:0:0:
256,192,3721,1,8,0:0:0:0:
256,192,3726,1,8,0:0:0:0:
256,192,3731,1,8,0:0:0:0:
256,192,3736,1,8,0:0:0:0:
256,192,3741,1,8,0:0:0:0:
256,192,3746,1,8,0:0:0:0:
256,192,3751,5,0,0:0:0:0:
256,192,3756,1,0,0:0:0:0:
256,192,3761,1,0,0:0:0:0:
256,192,3766,1,0,0:0:0:0:
256,192,3771,1,0,0:0:0:0:
256,192,3776,1,0,0:0:0:0:
256,192,3781,1,0,0:0:0:0:
256,192,3786,1,0,0:0:0:0:
256,192,3791,1,0,0:0:0:0:
256,192,3795,1,0,0:0:0:0:
256,192,3800,1,0,0:0:0:0:
256,192,3805,1,0,0:0:0:0:
256,192,3810,1,0,0:0:0:0:
256,192,3815,1,0,0:0:0:0:
256,192,3820,1,0,0:0:0:0:
256,192,3825,1,0,0:0:0:0:
256,192,3829,5,8,0:0:0:0:
256,192,3834,1,8,0:0:0:0:
256,192,3839,1,8,0:0:0:0:
256,192,3844,1,8,0:0:0:0:
256,192,3849,1,8,0:0:0:0:
256,192,3854,1,8,0:0:0:0:
256,192,3859,1,8,0:0:0:0:
256,192,3864,1,8,0:0:0:0:
256,192,3869,1,8,0:0:0:0:
256,192,3873,1,8,0:0:0:0:
256,192,3878,1,8,0:0:0:0:
256,192,3883,1,8,0:0:0:0:
256,192,3888,1,8,0:0:0:0:
256,192,3893,1,8,0:0:0:0:
256,192,3898,1,8,0:0:0:0:
256,192,3903,1,8,0:0:0:0:
256,192,3907,5,0,0:0:0:0:
256,192,3912,1,0,0:0:0:0:
256,192,3917,1,0,0:0:0:0:
256,192,3922,1,0,0:0:0:0:
256,192,3927,1,0,0:0:0:0:
256,192,3932,1,0,0:0:0:0:
256,192,3937,1,0,0:0:0:0:
256,192,3942,1,0,0:0:0:0:
256,192,3947,1,0,0:0:0:0:
256,192,3951,1,0,0:0:0:0:
256,192,3956,1,0,0:0:0:0:
256,192,3961,1,0,0:0:0:0:
256,192,3966,1,0,0:0:0:0:
256,192,3971,1,0,0:0:0:0:
256,192,3976,1,0,0:0:0:0:
256,192,3981,1,0,0:0:0:0:
256,192,3985,5,0,0:0:0:0:
256,192,3990,1,0,0:0:0:0:
256,192,3995,1,0,0:0:0:0:
256,192,4000,1,0,0:0:0:0:
256,192,4005,1,0,0:0:0:0:
256,192,4010,1,0,0:0:0:0:
256,192,4015,1,0,0:0:0:0:
256,192,4020,1,0,0:0:0:0:
256,192,4025,1,0,0:0:0:0:
256,192,4029,1,0,0:0:0:0:
256,192,4034,1,0,0:0:0:0:
256,192,4039,1,0,0:0:0:0:
256,192,4044,1,0,0:0:0:0:
256,192,4049,1,0,0:0:0:0:
256,192,4054,1,0,0:0:0:0:
256,192,4059,1,0,0:0:0:0:
256,192,4063,5,8,0:0:0:0:
256,192,4068,1,8,0:0:0:0:
256,192,4073,1,8,0:0:0:0:
256,192,4078,1,8,0:0:0:0:
256,192,4083,1,8,0:0:0:0:
256,192,4088,1,8,0:0:0:0:
256,192,4093,1,8,0:0:0:0:
256,192,4098,1,8,0:0:0:0:
256,192,4103,1,8,0:0:0:0:
256,192,4107,1,8,0:0:0:0:
256,192,4112,1,8,0:0:0:0:
256,192,4117,1,8,0:0:0:0:
256,192,4122,1,8,0:0:0:0:
256,192,4127,1,8,0:0:0:0:
256,192,4132,1,8,0:0:0:0:
256,192,4137,1,8,0:0:0:0:
256,192,4141,5,0,0:0:0:0:
256,192,4146,1,0,0:0:0:0:
256,192,4151,1,0,0:0:0:0:
256,192,4156,1,0,0:0:0:0:
256,192,4161,1,0,0:0:0:0:
256,192,4166,1,0,0:0:0:0:
256,192,4171,1,0,0:0:0:0:
256,192,4176,1,0,0:0:0:0:
256,192,4181,1,0,0:0:0:0:
256,192,4185,1,0,0:0:0:0:
256,192,4190,1,0,0:0:0:0:
256,192,4195,1,0,0:0:0:0:
256,192,4200,1,0,0:0:0:0:
256,192,4205,1,0,0:0:0:0:
256,192,4210,1,0,0:0:0:0:
256,192,4215,1,0,0:0:0:0:
256,192,4219,5,8,0:0:0:0:
256,192,4224,1,8,0:0:0:0:
256,192,4229,1,8,0:0:0:0:
256,192,4234,1,8,0:0:0:0:
256,192,4239,1,8,0:0:0:0:
256,192,4244,1,8,0:0:0:0:
256,192,4249,1,8,0:0:0:0:
256,192,4254,1,8,0:0:0:0:
256,192,4259,1,8,0:0:0:0:
256,192,4263,1,8,0:0:0:0:
256,192,4268,1,8,0:0:0:0:
256,192,4273,1,8,0:0:0:0:
256,192,4278,1,8,0:0:0:0:
256,192,4283,1,8,0:0:0:0:
256,192,4288,1,8,0:0:0:0:
256,192,4293,1,8,0:0:0:0:
256,192,4297,5,8,0:0:0:0:
256,192,4302,1,8,0:0:0:0:
256,192,4307,1,8,0:0:0:0:
256,192,4312,1,8,0:0:0:0:
256,192,4317,1,8,0:0:0:0:
256,192,4322,1,8,0:0:0:0:
256,192,4327,1,8,0:0:0:0:
256,192,4332,1,8,0:0:0:0:
256,192,4337,1,8,0:0:0:0:
256,192,4341,1,8,0:0:0:0:
256,192,4346,1,8,0:0:0:0:
256,192,4351,1,8,0:0:0:0:
256,192,4356,1,8,0:0:0:0:
256,192,4361,1,8,0:0:0:0:
256,192,4366,1,8,0:0:0:0:
256,192,4371,1,8,0:0:0:0:
256,192,4376,5,8,0:0:0:0:
256,192,4381,1,8,0:0:0:0:
256,192,4386,1,8,0:0:0:0:
256,192,4391,1,8,0:0:0:0:
256,192,4396,1,8,0:0:0:0:
256,192,4401,1,8,0:0:0:0:
256,192,4406,1,8,0:0:0:0:
256,192,4411,1,8,0:0:0:0:
256,192,4416,1,8,0:0:0:0:
256,192,4420,1,8,0:0:0:0:
256,192,4425,1,8,0:0:0:0:
256,192,4430,1,8,0:0:0:0:
256,192,4435,1,8,0:0:0:0:
256,192,4440,1,8,0:0:0:0:
256,192,4445,1,8,0:0:0:0:
256,192,4450,1,8,0:0:0:0:
256,192,4454,5,0,0:0:0:0:
256,192,4459,1,0,0:0:0:0:
256,192,4464,1,0,0:0:0:0:
256,192,4469,1,0,0:0:0:0:
256,192,4474,1,0,0:0:0:0:
256,192,4479,1,0,0:0:0:0:
256,192,4484,1,0,0:0:0:0:
256,192,4489,1,0,0:0:0:0:
256,192,4494,1,0,0:0:0:0:
256,192,4498,1,0,0:0:0:0:
256,192,4503,1,0,0:0:0:0:
256,192,4508,1,0,0:0:0:0:
256,192,4513,1,0,0:0:0:0:
256,192,4518,1,0,0:0:0:0:
256,192,4523,1,0,0:0:0:0:
256,192,4528,1,0,0:0:0:0:
256,192,4532,5,8,0:0:0:0:
256,192,4537,1,8,0:0:0:0:
256,192,4542,1,8,0:0:0:0:
256,192,4547,1,8,0:0:0:0:
256,192,4552,1,8,0:0:0:0:
256,192,4557,1,8,0:0:0:0:
256,192,4562,1,8,0:0:0:0:
256,192,4567,1,8,0:0:0:0:
256,192,4572,1,8,0:0:0:0:
256,192,4576,1,8,0:0:0:0:
256,192,4581,1,8,0:0:0:0:
256,192,4586,1,8,0:0:0:0:
256,192,4591,1,8,0:0:0:0:
256,192,4596,1,8,0:0:0:0:
256,192,4601,1,8,0:0:0:0:
256,192,4606,1,8,0:0:0:0:
256,192,4610,5,8,0:0:0:0:
256,192,4615,1,8,0:0:0:0:
256,192,4620,1,8,0:0:0:0:
256,192,4625,1,8,0:0:0:0:
256,192,4630,1,8,0:0:0:0:
256,192,4635,1,8,0:0:0:0:
256,192,4640,1,8,0:0:0:0:
256,192,4645,1,8,0:0:0:0:
256,192,4650,1,8,0:0:0:0:
256,192,4654,1,8,0:0:0:0:
256,192,4659,1,8,0:0:0:0:
256,192,4664,1,8,0:0:0:0:
256,192,4669,1,8,0:0:0:0:
256,192,4674,1,8,0:0:0:0:
256,192,4679,1,8,0:0:0:0:
256,192,4684,1,8,0:0:0:0:
256,192,4688,5,8,0:0:0:0:
256,192,4693,1,8,0:0:0:0:
256,192,4698,1,8,0:0:0:0:
256,192,4703,1,8,0:0:0:0:
256,192,4708,1,8,0:0:0:0:
256,192,4713,1,8,0:0:0:0:
256,192,4718,1,8,0:0:0:0:
256,192,4723,1,8,0:0:0:0:
256,192,4728,1,8,0:0:0:0:
256,192,4732,1,8,0:0:0:0:
256,192,4737,1,8,0:0:0:0:
256,192,4742,1,8,0:0:0:0:
256,192,4747,1,8,0:0:0:0:
256,192,4752,1,8,0:0:0:0:
256,192,4757,1,8,0:0:0:0:
256,192,4762,1,8,0:0:0:0:
256,192,4766,5,0,0:0:0:0:
256,192,4771,1,0,0:0:0:0:
256,192,4776,1,0,0:0:0:0:
256,192,4781,1,0,0:0:0:0:
256,192,4786,1,0,0:0:0:0:
256,192,4791,1,0,0:0:0:0:
256,192,4796,1,0,0:0:0:0:
256,192,4801,1,0,0:0:0:0:
256,192,4806,1,0,0:0:0:0:
256,192,4810,1,0,0:0:0:0:
256,192,4815,1,0,0:0:0:0:
256,192,4820,1,0,0:0:0:0:
256,192,4825,1,0,0:0:0:0:
256,192,4830,1,0,0:0:0:0:
256,192,4835,1,0,0:0:0:0:
256,192,4840,1,0,0:0:0:0:
256,192,4844,5,8,0:0:0:0:
256,192,4849,1,8,0:0:0:0:
256,192,4854,1,8,0:0:0:0:
256,192,4859,1,8,0:0:0:0:
256,192,4864,1,8,0:0:0:0:
256,192,4869,1,8,0:0:0:0:
256,192,4874,1,8,0:0:0:0:
256,192,4879,1,8,0:0:0:0:
256,192,4884,1,8,0:0:0:0:
256,192,4888,1,8,0:0:0:0:
256,192,4893,1,8,0:0:0:0:
256,192,4898,1,8,0:0:0:0:
256,192,4903,1,8,0:0:0:0:
256,192,4908,1,8,0:0:0:0:
256,192,4913,1,8,0:0:0:0:
256,192,4918,1,8,0:0:0:0:
256,192,4922,5,8,0:0:0:0:
256,192,4927,1,8,0:0:0:0:
256,192,4932,1,8,0:0:0:0:
256,192,4937,1,8,0:0:0:0:
256,192,4942,1,8,0:0:0:0:
256,192,4947,1,8,0:0:0:0:
256,192,4952,1,8,0:0:0:0:
256,192,4957,1,8,0:0:0:0:
256,192,4962,1,8,0:0:0:0:
256,192,4966,1,8,0:0:0:0:
256,192,4971,1,8,0:0:0:0:
256,192,4976,1,8,0:0:0:0:
256,192,4981,1,8,0:0:0:0:
256,192,4986,1,8,0:0:0:0:
256,192,4991,1,8,0:0:0:0:
256,192,4996,1,8,0:0:0:0:
256,192,5001,1,0,0:0:0:0:
256,192,5313,5,8,0:0:0:0:
256,192,5318,1,8,0:0:0:0:
256,192,5323,1,8,0:0:0:0:
256,192,5328,1,8,0:0:0:0:
256,192,5333,1,8,0:0:0:0:
256,192,5338,1,8,0:0:0:0:
256,192,5343,1,8,0:0:0:0:
256,192,5348,1,8,0:0:0:0:
256,192,5353,1,8,0:0:0:0:
256,192,5357,1,8,0:0:0:0:
256,192,5362,1,8,0:0:0:0:
256,192,5367,1,8,0:0:0:0:
256,192,5372,1,8,0:0:0:0:
256,192,5377,1,8,0:0:0:0:
256,192,5382,1,8,0:0:0:0:
256,192,5387,1,8,0:0:0:0:
256,192,5392,5,0,0:0:0:0:
256,192,5397,1,0,0:0:0:0:
256,192,5402,1,0,0:0:0:0:
256,192,5407,1,0,0:0:0:0:
256,192,5412,1,0,0:0:0:0:
256,192,5417,1,0,0:0:0:0:
256,192,5422,1,0,0:0:0:0:
256,192,5427,1,0,0:0:0:0:
256,192,5432,1,0,0:0:0:0:
256,192,5436,1,0,0:0:0:0:
256,192,5441,1,0,0:0:0:0:
256,192,5446,1,0,0:0:0:0:
256,192,5451,1,0,0:0:0:0:
256,192,5456,1,0,0:0:0:0:
256,192,5461,1,0,0:0:0:0:
256,192,5466,1,0,0:0:0:0:
256,192,5470,5,8,0:0:0:0:
256,192,5475,1,8,0:0:0:0:
256,192,5480,1,8,0:0:0:0:
256,192,5485,1,8,0:0:0:0:
256,192,5490,1,8,0:0:0:0:
256,192,5495,1,8,0:0:0:0:
256,192,5500,1,8,0:0:0:0:
256,192,5505,1,8,0:0:0:0:
256,192,5510,1,8,0:0:0:0:
256,192,5514,1,8,0:0:0:0:
256,192,5519,1,8,0:0:0:0:
256,192,5524,1,8,0:0:0:0:
256,192,5529,1,8,0:0:0:0:
256,192,5534,1,8,0:0:0:0:
256,192,5539,1,8,0:0:0:0:
256,192,5544,1,8,0:0:0:0:
256,192,5548,5,8,0:0:0:0:
256,192,5553,1,8,0:0:0:0:
256,192,5558,1,8,0:0:0:0:
256,192,5563,1,8,0:0:0:0:
256,192,5568,1,8,0:0:0:0:
256,192,5573,1,8,0:0:0:0:
256,192,5578,1,8,0:0:0:0:
256,192,5583,1,8,0:0:0:0:
256,192,5588,1,8,0:0:0:0:
256,192,5592,1,8,0:0:0:0:
256,192,5597,1,8,0:0:0:0:
256,192,5602,1,8,0:0:0:0:
256,192,5607,1,8,0:0:0:0:
256,192,5612,1,8,0:0:0:0:
256,192,5617,1,8,0:0:0:0:
256,192,5622,1,8,0:0:0:0:
256,192,5626,5,0,0:0:0:0:
256,192,5631,1,0,0:0:0:0:
256,192,5636,1,0,0:0:0:0:
256,192,5641,1,0,0:0:0:0:
256,192,5646,1,0,0:0:0:0:
256,192,5651,1,0,0:0:0:0:
256,192,5656,1,0,0:0:0:0:
256,192,5661,1,0,0:0:0:0:
256,192,5666,1,0,0:0:0:0:
256,192,5670,1,0,0:0:0:0:
256,192,5675,1,0,0:0:0:0:
256,192,5680,1,0,0:0:0:0:
256,192,5685,1,0,0:0:0:0:
256,192,5690,1,0,0:0:0:0:
256,192,5695,1,0,0:0:0:0:
256,192,5700,1,0,0:0:0:0:
256,192,5704,5,0,0:0:0:0:
256,192,5709,1,0,0:0:0:0:
256,192,5714,1,0,0:0:0:0:
256,192,5719,1,0,0:0:0:0:
256,192,5724,1,0,0:0:0:0:
256,192,5729,1,0,0:0:0:0:
256,192,5734,1,0,0:0:0:0:
256,192,5739,1,0,0:0:0:0:
256,192,5744,1,0,0:0:0:0:
256,192,5748,1,0,0:0:0:0:
256,192,5753,1,0,0:0:0:0:
256,192,5758,1,0,0:0:0:0:
256,192,5763,1,0,0:0:0:0:
256,192,5768,1,0,0:0:0:0:
256,192,5773,1,0,0:0:0:0:
256,192,5778,1,0,0:0:0:0:
256,192,5782,5,0,0:0:0:0:
256,192,5787,1,0,0:0:0:0:
256,192,5792,1,0,0:0:0:0:
256,192,5797,1,0,0:0:0:0:
256,192,5802,1,0,0:0:0:0:
256,192,5807,1,0,0:0:0:0:
256,192,5812,1,0,0:0:0:0:
256,192,5817,1,0,0:0:0:0:
256,192,5822,1,0,0:0:0:0:
256,192,5826,1,0,0:0:0:0:
256,192,5831,1,0,0:0:0:0:
256,192,5836,1,0,0:0:0:0:
256,192,5841,1,0,0:0:0:0:
256,192,5846,1,0,0:0:0:0:
256,192,5851,1,0,0:0:0:0:
256,192,5856,1,0,0:0:0:0:
256,192,5860,5,8,0:0:0:0:
256,192,5865,1,8,0:0:0:0:
256,192,5870,1,8,0:0:0:0:
256,192,5875,1,8,0:0:0:0:
256,192,5880,1,8,0:0:0:0:
256,192,5885,1,8,0:0:0:0:
256,192,5890,1,8,0:0:0:0:
256,192,5895,1,8,0:0:0:0:
256,192,5900,1,8,0:0:0:0:
256,192,5904,1,8,0:0:0:0:
256,192,5909,1,8,0:0:0:0:
256,192,5914,1,8,0:0:0:0:
256,192,5919,1,8,0:0:0:0:
256,192,5924,1,8,0:0:0:0:
256,192,5929,1,8,0:0:0:0:
256,192,5934,1,8,0:0:0:0:
256,192,5939,5,0,0:0:0:0:
256,192,5944,1,0,0:0:0:0:
256,192,5949,1,0,0:0:0:0:
256,192,5954,1,0,0:0:0:0:
256,192,5959,1,0,0:0:0:0:
256,192,5964,1,0,0:0:0:0:
256,192,5969,1,0,0:0:0:0:
256,192,5974,1,0,0:0:0:0:
256,192,5979,1,0,0:0:0:0:
256,192,5983,1,0,0:0:0:0:
256,192,5988,1,0,0:0:0:0:
256,192,5993,1,0,0:0:0:0:
256,192,5998,1,0,0:0:0:0:
256,192,6003,1,0,0:0:0:0:
256,192,6008,1,0,0:0:0:0:
256,192,6013,1,0,0:0:0:0:
256,192,6017,5,8,0:0:0:0:
256,192,6022,1,8,0:0:0:0:
256,192,6027,1,8,0:0:0:0:
256,192,6032,1,8,0:0:0:0:
256,192,6037,1,8,0:0:0:0:
256,192,6042,1,8,0:0:0:0:
256,192,6047,1,8,0:0:0:0:
256,192,6052,1,8,0:0:0:0:
256,192,6057,1,8,0:0:0:0:
256,192,6061,1,8,0:0:0:0:
256,192,6066,1,8,0:0:0:0:
256,192,6071,1,8,0:0:0:0:
256,192,6076,1,8,0:0:0:0:
256,192,6081,1,8,0:0:0:0:
256,192,6086,1,8,0:0:0:0:
256,192,6091,1,8,0:0:0:0:
256,192,6095,5,8,0:0:0:0:
256,192,6100,1,8,0:0:0:0:
256,192,6105,1,8,0:0:0:0:
256,192,6110,1,8,0:0:0:0:
256,192,6115,1,8,0:0:0:0:
256,192,6120,1,8,0:0:0:0:
256,192,6125,1,8,0:0:0:0:
256,192,6130,1,8,0:0:0:0:
256,192,6135,1,8,0:0:0:0:
256,192,6139,1,8,0:0:0:0:
256,192,6144,1,8,0:0:0:0:
256,192,6149,1,8,0:0:0:0:
256,192,6154,1,8,0:0:0:0:
256,192,6159,1,8,0:0:0:0:
256,192,6164,1,8,0:0:0:0:
256,192,6169,1,8,0:0:0:0:
256,192,6173,5,0,0:0:0:0:
256,192,6178,1,0,0:0:0:0:
256,192,6183,1,0,0:0:0:0:
256,192,6188,1,0,0:0:0:0:
256,192,6193,1,0,0:0:0:0:
256,192,6198,1,0,0:0:0:0:
256,192,6203,1,0,0:0:0:0:
256,192,6208,1,0,0:0:0:0:
256,192,6213,1,0,0:0:0:0:
256,192,6217,1,0,0:0:0:0:
256,192,6222,1,0,0:0:0:0:
256,192,6227,1,0,0:0:0:0:
256,192,6232,1,0,0:0:0:0:
256,192,6237,1,0,0:0:0:0:
256,192,6242,1,0,0:0:0:0:
256,192,6247,1,0,0:0:0:0:
256,192,6251,5,0,0:0:0:0:
256,192,6256,1,0,0:0:0:0:
256,192,6261,1,0,0:0:0:0:
256,192,6266,1,0,0:0:0:0:
256,192,6271,1,0,0:0:0:0:
256,192,6276,1,0,0:0:0:0:
256,192,6281,1,0,0:0:0:0:
256,192,6286,1,0,0:0:0:0:
256,192,6291,1,0,0:0:0:0:
256,192,6295,1,0,0:0:0:0:
256,192,6300,1,0,0:0:0:0:
256,192,6305,1,0,0:0:0:0:
256,192,6310,1,0,0:0:0:0:
256,192,6315,1,0,0:0:0:0:
256,192,6320,1,0,0:0:0:0:
256,192,6325,1,0,0:0:0:0:
256,192,6329,5,8,0:0:0:0:
256,192,6334,1,8,0:0:0:0:
256,192,6339,1,8,0:0:0:0:
256,192,6344,1,8,0:0:0:0:
256,192,6349,1,8,0:0:0:0:
256,192,6354,1,8,0:0:0:0:
256,192,6359,1,8,0:0:0:0:
256,192,6364,1,8,0:0:0:0:
256,192,6369,1,8,0:0:0:0:
256,192,6373,1,8,0:0:0:0:
256,192,6378,1,8,0:0:0:0:
256,192,6383,1,8,0:0:0:0:
256,192,6388,1,8,0:0:0:0:
256,192,6393,1,8,0:0:0:0:
256,192,6398,1,8,0:0:0:0:
256,192,6403,1,8,0:0:0:0:
256,192,6407,5,0,0:0:0:0:
256,192,6412,1,0,0:0:0:0:
256,192,6417,1,0,0:0:0:0:
256,192,6422,1,0,0:0:0:0:
256,192,6427,1,0,0:0:0:0:
256,192,6432,1,0,0:0:0:0:
256,192,6437,1,0,0:0:0:0:
256,192,6442,1,0,0:0:0:0:
256,192,6447,1,0,0:0:0:0:
256,192,6451,1,0,0:0:0:0:
256,192,6456,1,0,0:0:0:0:
256,192,6461,1,0,0:0:0:0:
256,192,6466,1,0,0:0:0:0:
256,192,6471,1,0,0:0:0:0:
256,192,6476,1,0,0:0:0:0:
256,192,6481,1,0,0:0:0:0:
256,192,6485,5,8,0:0:0:0:
256,192,6490,1,8,0:0:0:0:
256,192,6495,1,8,0:0:0:0:
256,192,6500,1,8,0:0:0:0:
256,192,6505,1,8,0:0:0:0:
256,192,6510,1,8,0:0:0:0:
256,192,6515,1,8,0:0:0:0:
256,192,6520,1,8,0:0:0:0:
256,192,6525,1,8,0:0:0:0:
256,192,6529,1,8,0:0:0:0:
256,192,6534,1,8,0:0:0:0:
256,192,6539,1,8,0:0:0:0:
256,192,6544,1,8,0:0:0:0:
256,192,6549,1,8,0:0:0:0:
256,192,6554,1,8,0:0:0:0:
256,192,6559,1,8,0:0:0:0:
256,192,6564,5,8,0:0:0:0:
256,192,6569,1,8,0:0:0:0:
256,192,6574,1,8,0:0:0:0:
256,192,6579,1,8,0:0:0:0:
256,192,6584,1,8,0:0:0:0:
256,192,6589,1,8,0:0:0:0:
256,192,6594,1,8,0:0:0:0:
256,192,6599,1,8,0:0:0:0:
256,192,6604,1,8,0:0:0:0:
256,192,6608,1,8,0:0:0:0:
256,192,6613,1,8,0:0:0:0:
256,192,6618,1,8,0:0:0:0:
256,192,6623,1,8,0:0:0:0:
256,192,6628,1,8,0:0:0:0:
256,192,6633,1,8,0:0:0:0:
256,192,6638,1,8,0:0:0:0:
256,192,6642,5,0,0:0:0:0:
256,192,6647,1,0,0:0:0:0:
256,192,6652,1,0,0:0:0:0:
256,192,6657,1,0,0:0:0:0:
256,192,6662,1,0,0:0:0:0:
256,192,6667,1,0,0:0:0:0:
256,192,6672,1,0,0:0:0:0:
256,192,6677,1,0,0:0:0:0:
256,192,6682,1,0,0:0:0:0:
256,192,6686,1,0,0:0:0:0:
256,192,6691,1,0,0:0:0:0:
256,192,6696,1,0,0:0:0:0:
256,192,6701,1,0,0:0:0:0:
256,192,6706,1,0,0:0:0:0:
256,192,6711,1,0,0:0:0:0:
256,192,6716,1,0,0:0:0:0:
256,192,6720,5,8,0:0:0:0:
256,192,6725,1,8,0:0:0:0:
256,192,6730,1,8,0:0:0:0:
256,192,6735,1,8,0:0:0:0:
256,192,6740,1,8,0:0:0:0:
256,192,6745,1,8,0:0:0:0:
256,192,6750,1,8,0:0:0:0:
256,192,6755,1,8,0:0:0:0:
256,192,6760,1,8,0:0:0:0:
256,192,6764,1,8,0:0:0:0:
256,192,6769,1,8,0:0:0:0:
256,192,6774,1,8,0:0:0:0:
256,192,6779,1,8,0:0:0:0:
256,192,6784,1,8,0:0:0:0:
256,192,6789,1,8,0:0:0:0:
256,192,6794,1,8,0:0:0:0:
256,192,6798,5,0,0:0:0:0:
256,192,6803,1,0,0:0:0:0:
256,192,6808,1,0,0:0:0:0:
256,192,6813,1,0,0:0:0:0:
256,192,6818,1,0,0:0:0:0:
256,192,6823,1,0,0:0:0:0:
256,192,6828,1,0,0:0:0:0:
256,192,6833,1,0,0:0:0:0:
256,192,6838,1,0,0:0:0:0:
256,192,6842,1,0,0:0:0:0:
256,192,6847,1,0,0:0:0:0:
256,192,6852,1,0,0:0:0:0:
256,192,6857,1,0,0:0:0:0:
256,192,6862,1,0,0:0:0:0:
256,192,6867,1,0,0:0:0:0:
256,192,6872,1,0,0:0:0:0:
256,192,6876,5,8,0:0:0:0:
256,192,6881,1,8,0:0:0:0:
256,192,6886,1,8,0:0:0:0:
256,192,6891,1,8,0:0:0:0:
256,192,6896,1,8,0:0:0:0:
256,192,6901,1,8,0:0:0:0:
256,192,6906,1,8,0:0:0:0:
256,192,6911,1,8,0:0:0:0:
256,192,6916,1,8,0:0:0:0:
256,192,6920,1,8,0:0:0:0:
256,192,6925,1,8,0:0:0:0:
256,192,6930,1,8,0:0:0:0:
256,192,6935,1,8,0:0:0:0:
256,192,6940,1,8,0:0:0:0:
256,192,6945,1,8,0:0:0:0:
256,192,6950,1,8,0:0:0:0:
256,192,6954,5,8,0:0:0:0:
256,192,6959,1,8,0:0:0:0:
256,192,6964,1,8,0:0:0:0:
256,192,6969,1,8,0:0:0:0:
256,192,6974,1,8,0:0:0:0:
256,192,6979,1,8,0:0:0:0:
256,192,6984,1,8,0:0:0:0:
256,192,6989,1,8,0:0:0:0:
256,192,6994,1,8,0:0:0:0:
256,192,6998,1,8,0:0:0:0:
256,192,7003,1,8,0:0:0:0:
256,192,7008,1,8,0:0:0:0:
256,192,7013,1,8,0:0:0:0:
256,192,7018,1,8,0:0:0:0:
256,192,7023,1,8,0:0:0:0:
256,192,7028,1,8,0:0:0:0:
256,192,7032,5,8,0:0:0:0:
256,192,7037,1,8,0:0:0:0:
256,192,7042,1,8,0:0:0:0:
256,192,7047,1,8,0:0:0:0:
256,192,7052,1,8,0:0:0:0:
256,192,7057,1,8,0:0:0:0:
256,192,7062,1,8,0:0:0:0:
256,192,7067,1,8,0:0:0:0:
256,192,7072,1,8,0:0:0:0:
256,192,7076,1,8,0:0:0:0:
256,192,7081,1,8,0:0:0:0:
256,192,7086,1,8,0:0:0:0:
256,192,7091,1,8,0:0:0:0:
256,192,7096,1,8,0:0:0:0:
256,192,7101,1,8,0:0:0:0:
256,192,7106,1,8,0:0:0:0:
256,192,7110,5,8,0:0:0:0:
256,192,7115,1,8,0:0:0:0:
256,192,7120,1,8,0:0:0:0:
256,192,7125,1,8,0:0:0:0:
256,192,7130,1,8,0:0:0:0:
256,192,7135,1,8,0:0:0:0:
256,192,7140,1,8,0:0:0:0:
256,192,7145,1,8,0:0:0:0:
256,192,7150,1,8,0:0:0:0:
256,192,7154,1,8,0:0:0:0:
256,192,7159,1,8,0:0:0:0:
256,192,7164,1,8,0:0:0:0:
256,192,7169,1,8,0:0:0:0:
256,192,7174,1,8,0:0:0:0:
256,192,7179,1,8,0:0:0:0:
256,192,7184,1,8,0:0:0:0:
256,192,7189,5,0,0:0:0:0:
256,192,7194,1,0,0:0:0:0:
256,192,7199,1,0,0:0:0:0:
256,192,7204,1,0,0:0:0:0:
256,192,7209,1,0,0:0:0:0:
256,192,7214,1,0,0:0:0:0:
256,192,7219,1,0,0:0:0:0:
256,192,7224,1,0,0:0:0:0:
256,192,7229,1,0,0:0:0:0:
256,192,7233,1,0,0:0:0:0:
256,192,7238,1,0,0:0:0:0:
256,192,7243,1,0,0:0:0:0:
256,192,7248,1,0,0:0:0:0:
256,192,7253,1,0,0:0:0:0:
256,192,7258,1,0,0:0:0:0:
256,192,7263,1,0,0:0:0:0:
256,192,7267,5,0,0:0:0:0:
256,192,7272,1,0,0:0:0:0:
256,192,7277,1,0,0:0:0:0:
256,192,7282,1,0,0:0:0:0:
256,192,7287,1,0,0:0:0:0:
256,192,7292,1,0,0:0:0:0:
256,192,7297,1,0,0:0:0:0:
256,192,7302,1,0,0:0:0:0:
256,192,7307,1,0,0:0:0:0:
256,192,7311,1,0,0:0:0:0:
256,192,7316,1,0,0:0:0:0:
256,192,7321,1,0,0:0:0:0:
256,192,7326,1,0,0:0:0:0:
256,192,7331,1,0,0:0:0:0:
256,192,7336,1,0,0:0:0:0:
256,192,7341,1,0,0:0:0:0:
256,192,7345,5,0,0:0:0:0:
256,192,7350,1,0,0:0:0:0:
256,192,7355,1,0,0:0:0:0:
256,192,7360,1,0,0:0:0:0:
256,192,7365,1,0,0:0:0:0:
256,192,7370,1,0,0:0:0:0:
256,192,7375,1,0,0:0:0:0:
256,192,7380,1,0,0:0:0:0:
256,192,7385,1,0,0:0:0:0:
256,192,7389,1,0,0:0:0:0:
256,192,7394,1,0,0:0:0:0:
256,192,7399,1,0,0:0:0:0:
256,192,7404,1,0,0:0:0:0:
256,192,7409,1,0,0:0:0:0:
256,192,7414,1,0,0:0:0:0:
256,192,7419,1,0,0:0:0:0:
256,192,7423,5,0,0:0:0:0:
256,192,7428,1,0,0:0:0:0:
256,192,7433,1,0,0:0:0:0:
256,192,7438,1,0,0:0:0:0:
256,192,7443,1,0,0:0:0:0:
256,192,7448,1,0,0:0:0:0:
256,192,7453,1,0,0:0:0:0:
256,192,7458,1,0,0:0:0:0:
256,192,7463,1,0,0:0:0:0:
256,192,7467,1,0,0:0:0:0:
256,192,7472,1,0,0:0:0:0:
256,192,7477,1,0,0:0:0:0:
256,192,7482,1,0,0:0:0:0:
256,192,7487,1,0,0:0:0:0:
256,192,7492,1,0,0:0:0:0:
256,192,7497,1,0,0:0:0:0:
256,192,7501,5,8,0:0:0:0:
256,192,7506,1,8,0:0:0:0:
256,192,7511,1,8,0:0:0:0:
256,192,7516,1,8,0:0:0:0:
256,192,7521,1,8,0:0:0:0:
256,192,7526,1,8,0:0:0:0:
256,192,7531,1,8,0:0:0:0:
256,192,7536,1,8,0:0:0:0:
256,192,7541,1,8,0:0:0:0:
256,192,7545,1,8,0:0:0:0:
256,192,7550,1,8,0:0:0:0:
256,192,7555,1,8,0:0:0:0:
256,192,7560,1,8,0:0:0:0:
256,192,7565,1,8,0:0:0:0:
256,192,7570,1,8,0:0:0:0:
256,192,7575,1,8,0:0:0:0:
256,192,7579,5,0,0:0:0:0:
256,192,7584,1,0,0:0:0:0:
256,192,7589,1,0,0:0:0:0:
256,192,7594,1,0,0:0:0:0:
256,192,7599,1,0,0:0:0:0:
256,192,7604,1,0,0:0:0:0:
256,192,7609,1,0,0:0:0:0:
256,192,7614,1,0,0:0:0:0:
256,192,7619,1,0,0:0:0:0:
256,192,7623,1,0,0:0:0:0:
256,192,7628,1,0,0:0:0:0:
256,192,7633,1,0,0:0:0:0:
256,192,7638,1,0,0:0:0:0:
256,192,7643,1,0,0:0:0:0:
256,192,7648,1,0,0:0:0:0:
256,192,7653,1,0,0:0:0:0:
256,192,7657,5,8,0:0:0:0:
256,192,7662,1,8,0:0:0:0:
256,192,7667,1,8,0:0:0:0:
256,192,7672,1,8,0:0:0:0:
256,192,7677,1,8,0:0:0:0:
256,192,7682,1,8,0:0:0:0:
256,192,7687,1,8,0:0:0:0:
256,192,7692,1,8,0:0:0:0:
256,192,7697,1,8,0:0:0:0:
256,192,7701,1,8,0:0:0:0:
256,192,7706,1,8,0:0:0:0:
256,192,7711,1,8,0:0:0:0:
256,192,7716,1,8,0:0:0:0:
256,192,7721,1,8,0:0:0:0:
256,192,7726,1,8,0:0:0:0:
256,192,7731,1,8,0:0:0:0:
256,192,7735,5,0,0:0:0:0:
256,192,7740,1,0,0:0:0:0:
256,192,7745,1,0,0:0:0:0:
256,192,7750,1,0,0:0:0:0:
256,192,7755,1,0,0:0:0:0:
256,192,7760,1,0,0:0:0:0:
256,192,7765,1,0,0:0:0:0:
256,192,7770,1,0,0:0:0:0:
256,192,7775,1,0,0:0:0:0:
256,192,7779,1,0,0:0:0:0:
256,192,7784,1,0,0:0:0:0:
256,192,7789,1,0,0:0:0:0:
256,192,7794,1,0,0:0:0:0:
256,192,7799,1,0,0:0:0:0:
256,192,7804,1,0,0:0:0:0:
256,192,7809,1,0,0:0:0:0:
256,192,7814,5,0,0:0:0:0:
256,192,7819,1,0,0:0:0:0:
256,192,7824,1,0,0:0:0:0:
256,192,7829,1,0,0:0:0:0:
256,192,7834,1,0,0:0:0:0:
256,192,7839,1,0,0:0:0:0:
256,192,7844,1,0,0:0:0:0:
256,192,7849,1,0,0:0:0:0:
256,192,7854,1,0,0:0:0:0:
256,192,7858,1,0,0:0:0:0:
256,192,7863,1,0,0:0:0:0:
256,192,7868,1,0,0:0:0:0:
256,192,7873,1,0,0:0:0:0:
256,192,7878,1,0,0:0:0:0:
256,192,7883,1,0,0:0:0:0:
256,192,7888,1,0,0:0:0:0:
256,192,7892,5,0,0:0:0:0:
256,192,7897,1,0,0:0:0:0:
256,192,7902,1,0,0:0:0:0:
256,192,7907,1,0,0:0:0:0:
256,192,7912,1,0,0:0:0:0:
256,192,7917,1,0,0:0:0:0:
256,192,7922,1,0,0:0:0:0:
256,192,7927,1,0,0:0:0:0:
256,192,7932,1,0,0:0:0:0:
256,192,7936,1,0,0:0:0:0:
256,192,7941,1,0,0:0:0:0:
256,192,7946,1,0,0:0:0:0:
256,192,7951,1,0,0:0:0:0:
256,192,7956,1,0,0:0:0:0:
256,192,7961,1,0,0:0:0:0:
256,192,7966,1,0,0:0:0:0:
256,192,7970,5,8,0:0:0:0:
256,192,7975,1,8,0:0:0:0:
256,192,7980,1,8,0:0:0:0:
256,192,7985,1,8,0:0:0:0:
256,192,7990,1,8,0:0:0:0:
256,192,7995,1,8,0:0:0:0:
256,192,8000,1,8,0:0:0:0:
256,192,8005,1,8,0:0:0:0:
256,192,8010,1,8,0:0:0:0:
256,192,8014,1,8,0:0:0:0:
256,192,8019,1,8,0:0:0:0:
256,192,8024,1,8,0:0:0:0:
256,192,8029,1,8,0:0:0:0:
256,192,8034,1,8,0:0:0:0:
256,192,8039,1,8,0:0:0:0:
256,192,8044,1,8,0:0:0:0:
256,192,8048,5,8,0:0:0:0:
256,192,8053,1,8,0:0:0:0:
256,192,8058,1,8,0:0:0:0:
256,192,8063,1,8,0:0:0:0:
256,192,8068,1,8,0:0:0:0:
256,192,8073,1,8,0:0:0:0:
256,192,8078,1,8,0:0:0:0:
256,192,8083,1,8,0:0:0:0:
256,192,8088,1,8,0:0:0:0:
256,192,8092,1,8,0:0:0:0:
256,192,8097,1,8,0:0:0:0:
256,192,8102,1,8,0:0:0:0:
256,192,8107,1,8,0:0:0:0:
256,192,8112,1,8,0:0:0:0:
256,192,8117,1,8,0:0:0:0:
256,192,8122,1,8,0:0:0:0:
256,192,8126,5,8,0:0:0:0:
256,192,8131,1,8,0:0:0:0:
256,192,8136,1,8,0:0:0:0:
256,192,8141,1,8,0:0:0:0:
256,192,8146,1,8,0:0:0:0:
256,192,8151,1,8,0:0:0:0:
256,192,8156,1,8,0:0:0:0:
256,192,8161,1,8,0:0:0:0:
256,192,8166,1,8,0:0:0:0:
256,192,8170,1,8,0:0:0:0:
256,192,8175,1,8,0:0:0:0:
256,192,8180,1,8,0:0:0:0:
256,192,8185,1,8,0:0:0:0:
256,192,8190,1,8,0:0:0:0:
256,192,8195,1,8,0:0:0:0:
256,192,8200,1,8,0:0:0:0:
256,192,8204,5,0,0:0:0:0:
256,192,8209,1,0,0:0:0:0:
256,192,8214,1,0,0:0:0:0:
256,192,8219,1,0,0:0:0:0:
256,192,8224,1,0,0:0:0:0:
256,192,8229,1,0,0:0:0:0:
256,192,8234,1,0,0:0:0:0:
256,192,8239,1,0,0:0:0:0:
256,192,8244,1,0,0:0:0:0:
256,192,8248,1,0,0:0:0:0:
256,192,8253,1,0,0:0:0:0:
256,192,8258,1,0,0:0:0:0:
256,192,8263,1,0,0:0:0:0:
256,192,8268,1,0,0:0:0:0:
256,192,8273,1,0,0:0:0:0:
256,192,8278,1,0,0:0:0:0:
256,192,8282,5,8,0:0:0:0:
256,192,8287,1,8,0:0:0:0:
256,192,8292,1,8,0:0:0:0:
256,192,8297,1,8,0:0:0:0:
256,192,8302,1,8,0:0:0:0:
256,192,8307,1,8,0:0:0:0:
256,192,8312,1,8,0:0:0:0:
256,192,8317,1,8,0:0:0:0:
256,192,8322,1,8,0:0:0:0:
256,192,8326,1,8,0:0:0:0:
256,192,8331,1,8,0:0:0:0:
256,192,8336,1,8,0:0:0:0:
256,192,8341,1,8,0:0:0:0:
256,192,8346,1,8,0:0:0:0:
256,192,8351,1,8,0:0:0:0:
256,192,8356,1,8,0:0:0:0:
256,192,8360,5,0,0:0:0:0:
256,192,8365,1,0,0:0:0:0:
256,192,8370,1,0,0:0:0:0:
256,192,8375,1,0,0:0:0:0:
256,192,8380,1,0,0:0:0:0:
256,192,8385,1,0,0:0:0:0:
256,192,8390,1,0,0:0:0:0:
256,192,8395,1,0,0:0:0:0:
256,192,8400,1,0,0:0:0:0:
256,192,8404,1,0,0:0:0:0:
256,192,8409,1,0,0:0:0:0:
256,192,8414,1,0,0:0:0:0:
256,192,8419,1,0,0:0:0:0:
256,192,8424,1,0,0:0:0:0:
256,192,8429,1,0,0:0:0:0:
256,192,8434,1,0,0:0:0:0:
256,192,8439,5,0,0:0:0:0:
256,192,8444,1,0,0:0:0:0:
256,192,8449,1,0,0:0:0:0:
256,192,8454,1,0,0:0:0:0:
256,192,8459,1,0,0:0:0:0:
256,192,8464,1,0,0:0:0:0:
256,192,8469,1,0,0:0:0:0:
256,192,8474,1,0,0:0:0:0:
256,192,8479,1,0,0:0:0:0:
256,192,8483,1,0,0:0:0:0:
256,192,8488,1,0,0:0:0:0:
256,192,8493,1,0,0:0:0:0:
256,192,8498,1,0,0:0:0:0:
256,192,8503,1,0,0:0:0:0:
256,192,8508,1,0,0:0:0:0:
256,192,8513,1,0,0:0:0:0:
256,192,8517,5,8,0:0:0:0:
256,192,8522,1,8,0:0:0:0:
256,192,8527,1,8,0:0:0:0:
256,192,8532,1,8,0:0:0:0:
256,192,8537,1,8,0:0:0:0:
256,192,8542,1,8,0:0:0:0:
256,192,8547,1,8,0:0:0:0:
256,192,8552,1,8,0:0:0:0:
256,192,8557,1,8,0:0:0:0:
256,192,8561,1,8,0:0:0:0:
256,192,8566,1,8,0:0:0:0:
256,192,8571,1,8,0:0:0:0:
256,192,8576,1,8,0:0:0:0:
256,192,8581,1,8,0:0:0:0:
256,192,8586,1,8,0:0:0:0:
256,192,8591,1,8,0:0:0:0:
256,192,8595,5,8,0:0:0:0:
256,192,8600,1,8,0:0:0:0:
256,192,8605,1,8,0:0:0:0:
256,192,8610,1,8,0:0:0:0:
256,192,8615,1,8,0:0:0:0:
256,192,8620,1,8,0:0:0:0:
256,192,8625,1,8,0:0:0:0:
256,192,8630,1,8,0:0:0:0:
256,192,8635,1,8,0:0:0:0:
256,192,8639,1,8,0:0:0:0:
256,192,8644,1,8,0:0:0:0:
256,192,8649,1,8,0:0:0:0:
256,192,8654,1,8,0:0:0:0:
256,192,8659,1,8,0:0:0:0:
256,192,8664,1,8,0:0:0:0:
256,192,8669,1,8,0:0:0:0:
256,192,8673,5,8,0:0:0:0:
256,192,8678,1,8,0:0:0:0:
256,192,8683,1,8,0:0:0:0:
256,192,8688,1,8,0:0:0:0:
256,192,8693,1,8,0:0:0:0:
256,192,8698,1,8,0:0:0:0:
256,192,8703,1,8,0:0:0:0:
256,192,8708,1,8,0:0:0:0:
256,192,8713,1,8,0:0:0:0:
256,192,8717,1,8,0:0:0:0:
256,192,8722,1,8,0:0:0:0:
256,192,8727,1,8,0:0:0:0:
256,192,8732,1,8,0:0:0:0:
256,192,8737,1,8,0:0:0:0:
256,192,8742,1,8,0:0:0:0:
256,192,8747,1,8,0:0:0:0:
256,192,8751,5,0,0:0:0:0:
256,192,8756,1,0,0:0:0:0:
256,192,8761,1,0,0:0:0:0:
