osu file format v14

[General]
AudioFilename: Prelude in C minor.mp3
AudioLeadIn: 0
PreviewTime: -1
Countdown: 1
SampleSet: None
StackLeniency: 0.7
Mode: 3
LetterboxInBreaks: 1
SpecialStyle: 0
WidescreenStoryboard: 1

[Editor]
DistanceSpacing: 1
BeatDivisor: 4
GridSize: 8
TimelineZoom: 1.9

[Metadata]
Title:The Wrath of ET Blocko
TitleUnicode:The Wrath of ET Blocko
Artist:iJinjin
ArtistUnicode:iJinjin
Creator:iJinjin
Version:8K Normal
Source:
Tags:
BeatmapID:695351
BeatmapSetID:249218

[Difficulty]
HPDrainRate:0
CircleSize:8
OverallDifficulty:0
ApproachRate:5
SliderMultiplier:1.4
SliderTickRate:1

[Events]
//Background and Video events
0,0,"blocko.png",0,0
//Break Periods
//Storyboard Layer 0 (Background)
//Storyboard Layer 1 (Fail)
//Storyboard Layer 2 (Pass)
//Storyboard Layer 3 (Foreground)
//Storyboard Sound Samples

[TimingPoints]
0,312.5,4,1,0,0,1,0

[HitObjects]
32,192,0,1,0,0:0:0:0:
352,192,0,1,0,0:0:0:0:
480,192,0,1,0,0:0:0:0:
96,192,625,1,0,0:0:0:0:
224,192,625,1,0,0:0:0:0:
416,192,625,1,0,0:0:0:0:
32,192,1250,1,0,0:0:0:0:
352,192,1250,1,0,0:0:0:0:
224,192,1250,128,0,1875:0:0:0:0:
416,192,1875,128,0,2500:0:0:0:0:
160,192,1875,1,0,0:0:0:0:
32,192,2500,1,0,0:0:0:0:
160,192,2500,1,0,0:0:0:0:
224,192,2812,1,0,0:0:0:0:
352,192,2812,1,0,0:0:0:0:
32,192,3125,1,0,0:0:0:0:
288,192,3437,1,0,0:0:0:0:
416,192,3437,1,0,0:0:0:0:
32,192,3750,1,0,0:0:0:0:
96,192,4375,128,0,5000:0:0:0:0:
416,192,4375,128,0,5000:0:0:0:0:
160,192,5000,1,0,0:0:0:0:
352,192,5000,1,0,0:0:0:0:
224,192,5312,1,0,0:0:0:0:
352,192,5312,1,0,0:0:0:0:
480,192,5468,1,0,0:0:0:0:
160,192,5625,1,0,0:0:0:0:
288,192,5625,1,0,0:0:0:0:
416,192,5781,1,0,0:0:0:0:
224,192,5937,1,0,0:0:0:0:
480,192,5937,1,0,0:0:0:0:
288,192,6093,1,0,0:0:0:0:
352,192,6250,1,0,0:0:0:0:
480,192,6250,1,0,0:0:0:0:
288,192,6406,1,0,0:0:0:0:
224,192,6562,1,0,0:0:0:0:
416,192,6562,1,0,0:0:0:0:
160,192,6718,1,0,0:0:0:0:
96,192,6875,1,0,0:0:0:0:
352,192,6875,1,0,0:0:0:0:
160,192,7031,1,0,0:0:0:0:
224,192,7187,1,0,0:0:0:0:
416,192,7187,1,0,0:0:0:0:
288,192,7343,1,0,0:0:0:0:
352,192,7500,1,0,0:0:0:0:
480,192,7500,1,0,0:0:0:0:
32,192,7500,1,0,0:0:0:0:
32,192,7812,1,0,0:0:0:0:
224,192,7812,1,0,0:0:0:0:
416,192,7812,1,0,0:0:0:0:
160,192,7812,1,0,0:0:0:0:
32,192,8125,1,0,0:0:0:0:
288,192,8125,1,0,0:0:0:0:
352,192,8125,1,0,0:0:0:0:
480,192,8125,1,0,0:0:0:0:
32,192,8437,1,0,0:0:0:0:
224,192,8437,1,0,0:0:0:0:
352,192,8437,1,0,0:0:0:0:
480,192,8437,1,0,0:0:0:0:
32,192,8750,1,0,0:0:0:0:
160,192,8750,1,0,0:0:0:0:
288,192,8750,1,0,0:0:0:0:
416,192,8750,1,0,0:0:0:0:
480,192,8750,1,0,0:0:0:0:
