osu file format v14

[General]
AudioFilename: Prelude in C minor.mp3
AudioLeadIn: 0
PreviewTime: -1
Countdown: 1
SampleSet: None
StackLeniency: 0.7
Mode: 3
LetterboxInBreaks: 1
SpecialStyle: 0
WidescreenStoryboard: 1

[Editor]
DistanceSpacing: 1
BeatDivisor: 4
GridSize: 8
TimelineZoom: 1.9

[Metadata]
Title:The Wrath of ET Blocko
TitleUnicode:The Wrath of ET Blocko
Artist:iJinjin
ArtistUnicode:iJinjin
Creator:iJinjin
Version:8K Hard
Source:
Tags:
BeatmapID:695349
BeatmapSetID:249218

[Difficulty]
HPDrainRate:0
CircleSize:8
OverallDifficulty:0
ApproachRate:5
SliderMultiplier:1.4
SliderTickRate:1

[Events]
//Background and Video events
0,0,"blocko.png",0,0
//Break Periods
//Storyboard Layer 0 (Background)
//Storyboard Layer 1 (Fail)
//Storyboard Layer 2 (Pass)
//Storyboard Layer 3 (Foreground)
//Storyboard Sound Samples

[TimingPoints]
0,312.5,4,1,0,0,1,0

[HitObjects]
32,192,0,1,0,0:0:0:0:
224,192,0,1,0,0:0:0:0:
480,192,0,1,0,0:0:0:0:
288,192,78,1,0,0:0:0:0:
416,192,156,1,0,0:0:0:0:
352,192,234,1,0,0:0:0:0:
160,192,312,1,0,0:0:0:0:
224,192,390,1,0,0:0:0:0:
352,192,468,1,0,0:0:0:0:
288,192,546,1,0,0:0:0:0:
96,192,625,1,0,0:0:0:0:
480,192,625,1,0,0:0:0:0:
416,192,703,1,0,0:0:0:0:
352,192,781,1,0,0:0:0:0:
288,192,859,1,0,0:0:0:0:
224,192,937,1,0,0:0:0:0:
160,192,1015,1,0,0:0:0:0:
96,192,1093,1,0,0:0:0:0:
160,192,1171,1,0,0:0:0:0:
32,192,1250,1,0,0:0:0:0:
352,192,1250,1,0,0:0:0:0:
480,192,1250,1,0,0:0:0:0:
224,192,1328,1,0,0:0:0:0:
416,192,1406,1,0,0:0:0:0:
352,192,1484,1,0,0:0:0:0:
288,192,1562,1,0,0:0:0:0:
224,192,1640,1,0,0:0:0:0:
352,192,1718,1,0,0:0:0:0:
288,192,1796,1,0,0:0:0:0:
96,192,1875,1,0,0:0:0:0:
224,192,1875,1,0,0:0:0:0:
352,192,1953,1,0,0:0:0:0:
480,192,2031,1,0,0:0:0:0:
160,192,2109,1,0,0:0:0:0:
288,192,2187,1,0,0:0:0:0:
416,192,2265,1,0,0:0:0:0:
96,192,2343,1,0,0:0:0:0:
224,192,2421,1,0,0:0:0:0:
352,192,2500,1,0,0:0:0:0:
480,192,2500,1,0,0:0:0:0:
288,192,2578,1,0,0:0:0:0:
224,192,2656,1,0,0:0:0:0:
160,192,2734,1,0,0:0:0:0:
416,192,2812,1,0,0:0:0:0:
480,192,2812,1,0,0:0:0:0:
352,192,2890,1,0,0:0:0:0:
288,192,2968,1,0,0:0:0:0:
224,192,3046,1,0,0:0:0:0:
96,192,3125,1,0,0:0:0:0:
480,192,3125,1,0,0:0:0:0:
160,192,3203,1,0,0:0:0:0:
224,192,3281,1,0,0:0:0:0:
288,192,3359,1,0,0:0:0:0:
416,192,3437,1,0,0:0:0:0:
480,192,3437,1,0,0:0:0:0:
352,192,3515,1,0,0:0:0:0:
288,192,3593,1,0,0:0:0:0:
224,192,3671,1,0,0:0:0:0:
96,192,3750,1,0,0:0:0:0:
480,192,3750,1,0,0:0:0:0:
352,192,3828,1,0,0:0:0:0:
224,192,3906,1,0,0:0:0:0:
96,192,3984,1,0,0:0:0:0:
416,192,4062,1,0,0:0:0:0:
288,192,4140,1,0,0:0:0:0:
160,192,4218,1,0,0:0:0:0:
352,192,4296,1,0,0:0:0:0:
480,192,4375,1,0,0:0:0:0:
32,192,4375,128,0,5000:0:0:0:0:
416,192,4453,1,0,0:0:0:0:
352,192,4531,1,0,0:0:0:0:
288,192,4609,1,0,0:0:0:0:
224,192,4687,1,0,0:0:0:0:
160,192,4765,1,0,0:0:0:0:
416,192,4843,1,0,0:0:0:0:
352,192,4921,1,0,0:0:0:0:
288,192,5000,1,0,0:0:0:0:
224,192,5000,1,0,0:0:0:0:
480,192,5000,1,0,0:0:0:0:
416,192,5312,1,0,0:0:0:0:
288,192,5312,1,0,0:0:0:0:
480,192,5390,1,0,0:0:0:0:
352,192,5468,1,0,0:0:0:0:
416,192,5546,1,0,0:0:0:0:
288,192,5625,1,0,0:0:0:0:
160,192,5625,1,0,0:0:0:0:
352,192,5703,1,0,0:0:0:0:
224,192,5781,1,0,0:0:0:0:
288,192,5859,1,0,0:0:0:0:
160,192,5937,1,0,0:0:0:0:
480,192,5937,1,0,0:0:0:0:
224,192,6015,1,0,0:0:0:0:
96,192,6093,1,0,0:0:0:0:
160,192,6171,1,0,0:0:0:0:
352,192,6250,1,0,0:0:0:0:
480,192,6250,1,0,0:0:0:0:
224,192,6328,1,0,0:0:0:0:
352,192,6406,1,0,0:0:0:0:
224,192,6484,1,0,0:0:0:0:
96,192,6562,1,0,0:0:0:0:
160,192,6562,1,0,0:0:0:0:
416,192,6640,1,0,0:0:0:0:
160,192,6718,1,0,0:0:0:0:
416,192,6796,1,0,0:0:0:0:
96,192,6875,1,0,0:0:0:0:
480,192,6875,1,0,0:0:0:0:
224,192,6953,1,0,0:0:0:0:
352,192,7031,1,0,0:0:0:0:
224,192,7109,1,0,0:0:0:0:
96,192,7187,1,0,0:0:0:0:
480,192,7187,1,0,0:0:0:0:
352,192,7265,1,0,0:0:0:0:
224,192,7343,1,0,0:0:0:0:
352,192,7421,1,0,0:0:0:0:
32,192,7500,1,0,0:0:0:0:
160,192,7500,1,0,0:0:0:0:
480,192,7500,1,0,0:0:0:0:
32,192,7812,1,0,0:0:0:0:
96,192,7812,1,0,0:0:0:0:
352,192,7812,1,0,0:0:0:0:
416,192,7812,1,0,0:0:0:0:
480,192,7812,1,0,0:0:0:0:
288,192,8046,1,0,0:0:0:0:
32,192,8125,1,0,0:0:0:0:
160,192,8125,1,0,0:0:0:0:
224,192,8125,1,0,0:0:0:0:
480,192,8125,1,0,0:0:0:0:
32,192,8437,1,0,0:0:0:0:
224,192,8437,1,0,0:0:0:0:
288,192,8437,1,0,0:0:0:0:
416,192,8437,1,0,0:0:0:0:
352,192,8437,1,0,0:0:0:0:
96,192,8750,1,0,0:0:0:0:
352,192,8750,1,0,0:0:0:0:
416,192,8750,1,0,0:0:0:0:
480,192,8750,1,0,0:0:0:0:
160,192,8750,1,0,0:0:0:0:
224,192,8750,1,0,0:0:0:0:
32,192,8750,1,0,0:0:0:0:
