osu file format v14

[General]
AudioFilename: Prelude in C minor.mp3
AudioLeadIn: 0
PreviewTime: -1
Countdown: 1
SampleSet: None
StackLeniency: 0.7
Mode: 3
LetterboxInBreaks: 1
SpecialStyle: 1
WidescreenStoryboard: 1

[Editor]
DistanceSpacing: 1
BeatDivisor: 6
GridSize: 8
TimelineZoom: 1.7

[Metadata]
Title:The Wrath of ET Blocko
TitleUnicode:The Wrath of ET Blocko
Artist:iJinjin
ArtistUnicode:iJinjin
Creator:iJinjin
Version:7K NormalDump
Source:
Tags:
BeatmapID:696096
BeatmapSetID:249218

[Difficulty]
HPDrainRate:7
CircleSize:7
OverallDifficulty:8
ApproachRate:5
SliderMultiplier:1.4
SliderTickRate:1

[Events]
//Background and Video events
0,0,"blocko.png",0,0
//Break Periods
//Storyboard Layer 0 (Background)
//Storyboard Layer 1 (Fail)
//Storyboard Layer 2 (Pass)
//Storyboard Layer 3 (Foreground)
//Storyboard Sound Samples

[TimingPoints]
0,312.5,4,2,0,0,1,0

[HitObjects]
36,192,0,1,0,0:0:0:0:
475,192,0,1,0,0:0:0:0:
182,192,52,1,0,0:0:0:0:
329,192,104,1,0,0:0:0:0:
256,192,156,1,0,0:0:0:0:
182,192,208,1,0,0:0:0:0:
402,192,260,1,0,0:0:0:0:
329,192,312,1,0,0:0:0:0:
109,192,364,1,0,0:0:0:0:
256,192,416,1,0,0:0:0:0:
475,192,468,1,0,0:0:0:0:
402,192,520,1,0,0:0:0:0:
36,192,572,1,0,0:0:0:0:
182,192,625,1,0,0:0:0:0:
329,192,625,1,0,0:0:0:0:
256,192,625,1,0,0:0:0:0:
475,192,677,1,0,0:0:0:0:
109,192,729,1,0,0:0:0:0:
402,192,781,1,0,0:0:0:0:
36,192,833,1,0,0:0:0:0:
182,192,885,1,0,0:0:0:0:
329,192,937,1,0,0:0:0:0:
109,192,989,1,0,0:0:0:0:
256,192,1041,1,0,0:0:0:0:
475,192,1093,1,0,0:0:0:0:
329,192,1145,1,0,0:0:0:0:
402,192,1197,1,0,0:0:0:0:
182,192,1250,1,0,0:0:0:0:
109,192,1250,1,0,0:0:0:0:
36,192,1302,1,0,0:0:0:0:
256,192,1354,1,0,0:0:0:0:
475,192,1406,1,0,0:0:0:0:
329,192,1458,1,0,0:0:0:0:
36,192,1510,1,0,0:0:0:0:
182,192,1562,1,0,0:0:0:0:
329,192,1614,1,0,0:0:0:0:
475,192,1666,1,0,0:0:0:0:
402,192,1718,1,0,0:0:0:0:
256,192,1770,1,0,0:0:0:0:
109,192,1822,1,0,0:0:0:0:
36,192,1875,1,0,0:0:0:0:
475,192,1875,1,0,0:0:0:0:
402,192,1927,1,0,0:0:0:0:
256,192,1979,1,0,0:0:0:0:
182,192,2031,1,0,0:0:0:0:
329,192,2083,1,0,0:0:0:0:
109,192,2135,1,0,0:0:0:0:
256,192,2187,1,0,0:0:0:0:
36,192,2239,1,0,0:0:0:0:
182,192,2291,1,0,0:0:0:0:
402,192,2343,1,0,0:0:0:0:
256,192,2395,1,0,0:0:0:0:
475,192,2447,1,0,0:0:0:0:
329,192,2500,1,0,0:0:0:0:
36,192,2500,1,0,0:0:0:0:
182,192,2552,1,0,0:0:0:0:
402,192,2604,1,0,0:0:0:0:
256,192,2656,1,0,0:0:0:0:
109,192,2708,1,0,0:0:0:0:
475,192,2760,1,0,0:0:0:0:
329,192,2812,1,0,0:0:0:0:
182,192,2812,1,0,0:0:0:0:
36,192,2864,1,0,0:0:0:0:
256,192,2916,1,0,0:0:0:0:
109,192,2968,1,0,0:0:0:0:
402,192,3020,1,0,0:0:0:0:
182,192,3072,1,0,0:0:0:0:
329,192,3125,1,0,0:0:0:0:
475,192,3125,1,0,0:0:0:0:
36,192,3177,1,0,0:0:0:0:
256,192,3229,1,0,0:0:0:0:
109,192,3281,1,0,0:0:0:0:
182,192,3333,1,0,0:0:0:0:
402,192,3385,1,0,0:0:0:0:
256,192,3437,1,0,0:0:0:0:
329,192,3437,1,0,0:0:0:0:
36,192,3489,1,0,0:0:0:0:
182,192,3541,1,0,0:0:0:0:
475,192,3593,1,0,0:0:0:0:
402,192,3645,1,0,0:0:0:0:
109,192,3697,1,0,0:0:0:0:
182,192,3750,1,0,0:0:0:0:
329,192,3750,1,0,0:0:0:0:
475,192,3802,1,0,0:0:0:0:
36,192,3854,1,0,0:0:0:0:
109,192,3906,1,0,0:0:0:0:
329,192,3958,1,0,0:0:0:0:
182,192,4010,1,0,0:0:0:0:
402,192,4062,1,0,0:0:0:0:
256,192,4114,1,0,0:0:0:0:
475,192,4166,1,0,0:0:0:0:
329,192,4218,1,0,0:0:0:0:
182,192,4270,1,0,0:0:0:0:
36,192,4322,1,0,0:0:0:0:
402,192,4375,1,0,0:0:0:0:
475,192,4375,1,0,0:0:0:0:
329,192,4414,1,0,0:0:0:0:
256,192,4453,1,0,0:0:0:0:
182,192,4492,1,0,0:0:0:0:
109,192,4531,1,0,0:0:0:0:
36,192,4570,1,0,0:0:0:0:
475,192,4609,1,0,0:0:0:0:
402,192,4648,1,0,0:0:0:0:
329,192,4687,1,0,0:0:0:0:
256,192,4726,1,0,0:0:0:0:
182,192,4765,1,0,0:0:0:0:
109,192,4804,1,0,0:0:0:0:
36,192,4843,1,0,0:0:0:0:
475,192,4882,1,0,0:0:0:0:
402,192,4921,1,0,0:0:0:0:
329,192,4960,1,0,0:0:0:0:
256,192,5000,1,0,0:0:0:0:
182,192,5000,1,0,0:0:0:0:
109,192,5000,1,0,0:0:0:0:
36,192,5000,1,0,0:0:0:0:
402,192,5312,1,0,0:0:0:0:
475,192,5312,1,0,0:0:0:0:
256,192,5364,1,0,0:0:0:0:
109,192,5416,1,0,0:0:0:0:
182,192,5468,1,0,0:0:0:0:
36,192,5520,1,0,0:0:0:0:
109,192,5572,1,0,0:0:0:0:
329,192,5625,1,0,0:0:0:0:
402,192,5625,1,0,0:0:0:0:
182,192,5677,1,0,0:0:0:0:
475,192,5729,1,0,0:0:0:0:
402,192,5781,1,0,0:0:0:0:
36,192,5833,1,0,0:0:0:0:
182,192,5885,1,0,0:0:0:0:
256,192,5937,1,0,0:0:0:0:
329,192,5937,1,0,0:0:0:0:
475,192,5989,1,0,0:0:0:0:
109,192,6041,1,0,0:0:0:0:
402,192,6093,1,0,0:0:0:0:
36,192,6145,1,0,0:0:0:0:
329,192,6197,1,0,0:0:0:0:
182,192,6250,1,0,0:0:0:0:
256,192,6250,1,0,0:0:0:0:
109,192,6302,1,0,0:0:0:0:
475,192,6354,1,0,0:0:0:0:
329,192,6406,1,0,0:0:0:0:
402,192,6458,1,0,0:0:0:0:
256,192,6510,1,0,0:0:0:0:
109,192,6562,1,0,0:0:0:0:
36,192,6562,1,0,0:0:0:0:
182,192,6614,1,0,0:0:0:0:
329,192,6666,1,0,0:0:0:0:
475,192,6718,1,0,0:0:0:0:
256,192,6770,1,0,0:0:0:0:
402,192,6822,1,0,0:0:0:0:
109,192,6875,1,0,0:0:0:0:
182,192,6875,1,0,0:0:0:0:
329,192,6927,1,0,0:0:0:0:
36,192,6979,1,0,0:0:0:0:
109,192,7031,1,0,0:0:0:0:
475,192,7083,1,0,0:0:0:0:
402,192,7135,1,0,0:0:0:0:
182,192,7187,1,0,0:0:0:0:
256,192,7187,1,0,0:0:0:0:
109,192,7239,1,0,0:0:0:0:
329,192,7291,1,0,0:0:0:0:
475,192,7343,1,0,0:0:0:0:
36,192,7395,1,0,0:0:0:0:
109,192,7447,1,0,0:0:0:0:
182,192,7500,1,0,0:0:0:0:
329,192,7500,1,0,0:0:0:0:
256,192,7500,1,0,0:0:0:0:
36,192,7812,1,0,0:0:0:0:
182,192,7812,1,0,0:0:0:0:
329,192,7812,1,0,0:0:0:0:
475,192,7812,1,0,0:0:0:0:
402,192,7864,1,0,0:0:0:0:
256,192,7864,1,0,0:0:0:0:
109,192,7864,1,0,0:0:0:0:
182,192,8046,1,0,0:0:0:0:
329,192,8046,1,0,0:0:0:0:
109,192,8125,1,0,0:0:0:0:
256,192,8125,1,0,0:0:0:0:
36,192,8125,1,0,0:0:0:0:
475,192,8125,1,0,0:0:0:0:
402,192,8125,1,0,0:0:0:0:
182,192,8177,1,0,0:0:0:0:
329,192,8177,1,0,0:0:0:0:
36,192,8437,1,0,0:0:0:0:
256,192,8437,1,0,0:0:0:0:
182,192,8437,1,0,0:0:0:0:
475,192,8437,1,0,0:0:0:0:
329,192,8489,1,0,0:0:0:0:
402,192,8489,1,0,0:0:0:0:
109,192,8541,1,0,0:0:0:0:
182,192,8593,1,0,0:0:0:0:
256,192,8593,1,0,0:0:0:0:
475,192,8645,1,0,0:0:0:0:
36,192,8697,1,0,0:0:0:0:
109,192,8697,1,0,0:0:0:0:
182,192,8750,1,0,0:0:0:0:
256,192,8750,1,0,0:0:0:0:
329,192,8750,1,0,0:0:0:0:
402,192,8750,1,0,0:0:0:0:
