osu file format v13

[General]
AudioFilename: Prelude in C minor.mp3
AudioLeadIn: 0
PreviewTime: -1
Countdown: 1
SampleSet: None
StackLeniency: 0.7
Mode: 3
LetterboxInBreaks: 1
SpecialStyle: 0
WidescreenStoryboard: 1

[Editor]
DistanceSpacing: 1
BeatDivisor: 12
GridSize: 8
TimelineZoom: 6.499996

[Metadata]
Title:The Wrath of ET Blocko
TitleUnicode:The Wrath of ET Blocko
Artist:iJinjin
ArtistUnicode:iJinjin
Creator:iJinjin
Version:7K ET 8+
Source:
Tags:
BeatmapID:573027
BeatmapSetID:249218

[Difficulty]
HPDrainRate:0
CircleSize:7
OverallDifficulty:10
ApproachRate:5
SliderMultiplier:1.4
SliderTickRate:1

[Events]
//Background and Video events
0,0,"blocko.png",0,0
//Break Periods
//Storyboard Layer 0 (Background)
//Storyboard Layer 1 (Fail)
//Storyboard Layer 2 (Pass)
//Storyboard Layer 3 (Foreground)
//Storyboard Sound Samples

[TimingPoints]
0,312.5,4,1,0,0,1,0

[HitObjects]
36,192,0,5,0,0:0:0:0:
109,192,0,1,0,0:0:0:0:
182,192,0,1,0,0:0:0:0:
329,192,0,1,0,0:0:0:0:
402,192,0,1,0,0:0:0:0:
475,192,0,1,0,0:0:0:0:
256,192,0,1,0,0:0:0:0:
36,192,19,1,0,0:0:0:0:
329,192,19,1,0,0:0:0:0:
475,192,39,1,0,0:0:0:0:
402,192,39,1,0,0:0:0:0:
36,192,39,1,0,0:0:0:0:
329,192,39,1,0,0:0:0:0:
36,192,58,1,0,0:0:0:0:
329,192,58,1,0,0:0:0:0:
182,192,78,1,0,0:0:0:0:
329,192,78,1,0,0:0:0:0:
36,192,78,1,0,0:0:0:0:
109,192,78,1,0,0:0:0:0:
256,192,78,1,0,0:0:0:0:
402,192,78,128,0,97:0:0:0:0:
475,192,78,128,0,97:0:0:0:0:
182,192,97,1,0,0:0:0:0:
256,192,97,1,0,0:0:0:0:
36,192,117,1,0,0:0:0:0:
109,192,117,1,0,0:0:0:0:
182,192,117,1,0,0:0:0:0:
256,192,117,1,0,0:0:0:0:
182,192,136,1,0,0:0:0:0:
256,192,136,1,0,0:0:0:0:
402,192,156,1,0,0:0:0:0:
475,192,156,1,0,0:0:0:0:
256,192,156,1,0,0:0:0:0:
182,192,156,1,0,0:0:0:0:
329,192,156,1,0,0:0:0:0:
109,192,156,128,0,175:0:0:0:0:
36,192,156,128,0,175:0:0:0:0:
329,192,175,1,0,0:0:0:0:
475,192,175,1,0,0:0:0:0:
36,192,195,1,0,0:0:0:0:
109,192,195,1,0,0:0:0:0:
329,192,195,1,0,0:0:0:0:
475,192,195,1,0,0:0:0:0:
329,192,214,1,0,0:0:0:0:
475,192,214,1,0,0:0:0:0:
402,192,234,1,0,0:0:0:0:
329,192,234,1,0,0:0:0:0:
182,192,234,1,0,0:0:0:0:
109,192,234,1,0,0:0:0:0:
256,192,234,1,0,0:0:0:0:
36,192,234,128,0,253:0:0:0:0:
475,192,234,128,0,253:0:0:0:0:
182,192,253,1,0,0:0:0:0:
329,192,253,1,0,0:0:0:0:
475,192,273,1,0,0:0:0:0:
402,192,273,1,0,0:0:0:0:
182,192,273,1,0,0:0:0:0:
329,192,273,1,0,0:0:0:0:
182,192,292,1,0,0:0:0:0:
329,192,292,1,0,0:0:0:0:
329,192,312,1,0,0:0:0:0:
256,192,312,1,0,0:0:0:0:
109,192,312,1,0,0:0:0:0:
36,192,312,1,0,0:0:0:0:
182,192,312,1,0,0:0:0:0:
402,192,312,1,0,0:0:0:0:
475,192,312,1,0,0:0:0:0:
475,192,332,1,0,0:0:0:0:
256,192,332,1,0,0:0:0:0:
36,192,332,1,0,0:0:0:0:
329,192,351,1,0,0:0:0:0:
109,192,351,1,0,0:0:0:0:
256,192,351,1,0,0:0:0:0:
36,192,351,1,0,0:0:0:0:
475,192,371,1,0,0:0:0:0:
256,192,371,1,0,0:0:0:0:
36,192,371,1,0,0:0:0:0:
256,192,390,1,0,0:0:0:0:
182,192,390,1,0,0:0:0:0:
36,192,390,1,0,0:0:0:0:
475,192,390,1,0,0:0:0:0:
402,192,390,1,0,0:0:0:0:
109,192,390,128,0,410:0:0:0:0:
329,192,390,128,0,410:0:0:0:0:
256,192,410,1,0,0:0:0:0:
475,192,410,1,0,0:0:0:0:
109,192,429,1,0,0:0:0:0:
329,192,429,1,0,0:0:0:0:
256,192,429,1,0,0:0:0:0:
475,192,429,1,0,0:0:0:0:
256,192,449,1,0,0:0:0:0:
475,192,449,1,0,0:0:0:0:
182,192,468,1,0,0:0:0:0:
109,192,468,1,0,0:0:0:0:
329,192,468,1,0,0:0:0:0:
402,192,468,1,0,0:0:0:0:
256,192,468,1,0,0:0:0:0:
475,192,468,128,0,488:0:0:0:0:
36,192,468,128,0,488:0:0:0:0:
182,192,488,1,0,0:0:0:0:
329,192,488,1,0,0:0:0:0:
475,192,507,1,0,0:0:0:0:
402,192,507,1,0,0:0:0:0:
182,192,507,1,0,0:0:0:0:
329,192,507,1,0,0:0:0:0:
182,192,527,1,0,0:0:0:0:
329,192,527,1,0,0:0:0:0:
109,192,546,1,0,0:0:0:0:
36,192,546,1,0,0:0:0:0:
256,192,546,1,0,0:0:0:0:
329,192,546,1,0,0:0:0:0:
182,192,546,1,0,0:0:0:0:
402,192,546,128,0,566:0:0:0:0:
475,192,546,128,0,566:0:0:0:0:
109,192,566,1,0,0:0:0:0:
256,192,566,1,0,0:0:0:0:
402,192,585,1,0,0:0:0:0:
475,192,585,1,0,0:0:0:0:
109,192,585,1,0,0:0:0:0:
256,192,585,1,0,0:0:0:0:
109,192,605,1,0,0:0:0:0:
256,192,605,1,0,0:0:0:0:
36,192,625,1,0,0:0:0:0:
109,192,625,1,0,0:0:0:0:
182,192,625,1,0,0:0:0:0:
329,192,625,1,0,0:0:0:0:
402,192,625,1,0,0:0:0:0:
475,192,625,1,0,0:0:0:0:
256,192,625,1,0,0:0:0:0:
475,192,644,1,0,0:0:0:0:
329,192,644,1,0,0:0:0:0:
109,192,664,1,0,0:0:0:0:
36,192,664,1,0,0:0:0:0:
475,192,664,1,0,0:0:0:0:
329,192,664,1,0,0:0:0:0:
475,192,683,1,0,0:0:0:0:
329,192,683,1,0,0:0:0:0:
402,192,703,1,0,0:0:0:0:
475,192,703,1,0,0:0:0:0:
256,192,703,1,0,0:0:0:0:
182,192,703,1,0,0:0:0:0:
329,192,703,1,0,0:0:0:0:
36,192,703,128,0,722:0:0:0:0:
109,192,703,128,0,722:0:0:0:0:
402,192,722,1,0,0:0:0:0:
256,192,722,1,0,0:0:0:0:
36,192,742,1,0,0:0:0:0:
109,192,742,1,0,0:0:0:0:
402,192,742,1,0,0:0:0:0:
256,192,742,1,0,0:0:0:0:
402,192,761,1,0,0:0:0:0:
256,192,761,1,0,0:0:0:0:
402,192,781,1,0,0:0:0:0:
329,192,781,1,0,0:0:0:0:
182,192,781,1,0,0:0:0:0:
109,192,781,1,0,0:0:0:0:
256,192,781,1,0,0:0:0:0:
36,192,781,128,0,800:0:0:0:0:
475,192,781,128,0,800:0:0:0:0:
329,192,800,1,0,0:0:0:0:
182,192,800,1,0,0:0:0:0:
475,192,820,1,0,0:0:0:0:
402,192,820,1,0,0:0:0:0:
329,192,820,1,0,0:0:0:0:
182,192,820,1,0,0:0:0:0:
329,192,839,1,0,0:0:0:0:
182,192,839,1,0,0:0:0:0:
329,192,859,1,0,0:0:0:0:
256,192,859,1,0,0:0:0:0:
109,192,859,1,0,0:0:0:0:
36,192,859,1,0,0:0:0:0:
182,192,859,1,0,0:0:0:0:
402,192,859,128,0,878:0:0:0:0:
475,192,859,128,0,878:0:0:0:0:
256,192,878,1,0,0:0:0:0:
109,192,878,1,0,0:0:0:0:
402,192,898,1,0,0:0:0:0:
329,192,898,1,0,0:0:0:0:
256,192,898,1,0,0:0:0:0:
109,192,898,1,0,0:0:0:0:
256,192,917,1,0,0:0:0:0:
109,192,917,1,0,0:0:0:0:
182,192,937,1,0,0:0:0:0:
256,192,937,1,0,0:0:0:0:
36,192,937,1,0,0:0:0:0:
475,192,937,1,0,0:0:0:0:
402,192,937,1,0,0:0:0:0:
109,192,937,1,0,0:0:0:0:
329,192,937,1,0,0:0:0:0:
182,192,957,1,0,0:0:0:0:
329,192,957,1,0,0:0:0:0:
475,192,976,1,0,0:0:0:0:
36,192,976,1,0,0:0:0:0:
182,192,976,1,0,0:0:0:0:
329,192,976,1,0,0:0:0:0:
182,192,996,1,0,0:0:0:0:
329,192,996,1,0,0:0:0:0:
109,192,1015,1,0,0:0:0:0:
182,192,1015,1,0,0:0:0:0:
329,192,1015,1,0,0:0:0:0:
402,192,1015,1,0,0:0:0:0:
256,192,1015,1,0,0:0:0:0:
36,192,1015,128,0,1035:0:0:0:0:
475,192,1015,128,0,1035:0:0:0:0:
109,192,1035,1,0,0:0:0:0:
256,192,1035,1,0,0:0:0:0:
402,192,1054,1,0,0:0:0:0:
475,192,1054,1,0,0:0:0:0:
109,192,1054,1,0,0:0:0:0:
256,192,1054,1,0,0:0:0:0:
109,192,1074,1,0,0:0:0:0:
256,192,1074,1,0,0:0:0:0:
36,192,1093,1,0,0:0:0:0:
109,192,1093,1,0,0:0:0:0:
256,192,1093,1,0,0:0:0:0:
329,192,1093,1,0,0:0:0:0:
182,192,1093,1,0,0:0:0:0:
402,192,1093,128,0,1113:0:0:0:0:
475,192,1093,128,0,1113:0:0:0:0:
182,192,1113,1,0,0:0:0:0:
329,192,1113,1,0,0:0:0:0:
109,192,1132,1,0,0:0:0:0:
36,192,1132,1,0,0:0:0:0:
182,192,1132,1,0,0:0:0:0:
329,192,1132,1,0,0:0:0:0:
182,192,1152,1,0,0:0:0:0:
329,192,1152,1,0,0:0:0:0:
182,192,1171,1,0,0:0:0:0:
329,192,1171,1,0,0:0:0:0:
475,192,1171,1,0,0:0:0:0:
402,192,1171,1,0,0:0:0:0:
256,192,1171,1,0,0:0:0:0:
36,192,1171,128,0,1191:0:0:0:0:
109,192,1171,128,0,1191:0:0:0:0:
256,192,1191,1,0,0:0:0:0:
402,192,1191,1,0,0:0:0:0:
36,192,1210,1,0,0:0:0:0:
109,192,1210,1,0,0:0:0:0:
256,192,1210,1,0,0:0:0:0:
402,192,1210,1,0,0:0:0:0:
256,192,1230,1,0,0:0:0:0:
402,192,1230,1,0,0:0:0:0:
256,192,1250,1,0,0:0:0:0:
109,192,1250,1,0,0:0:0:0:
36,192,1250,1,0,0:0:0:0:
402,192,1250,1,0,0:0:0:0:
475,192,1250,1,0,0:0:0:0:
182,192,1250,1,0,0:0:0:0:
329,192,1250,1,0,0:0:0:0:
475,192,1269,1,0,0:0:0:0:
329,192,1269,1,0,0:0:0:0:
109,192,1289,1,0,0:0:0:0:
402,192,1289,1,0,0:0:0:0:
475,192,1289,1,0,0:0:0:0:
329,192,1289,1,0,0:0:0:0:
475,192,1308,1,0,0:0:0:0:
329,192,1308,1,0,0:0:0:0:
182,192,1328,1,0,0:0:0:0:
329,192,1328,1,0,0:0:0:0:
36,192,1328,1,0,0:0:0:0:
475,192,1328,1,0,0:0:0:0:
256,192,1328,1,0,0:0:0:0:
109,192,1328,128,0,1347:0:0:0:0:
402,192,1328,128,0,1347:0:0:0:0:
182,192,1347,1,0,0:0:0:0:
329,192,1347,1,0,0:0:0:0:
475,192,1367,1,0,0:0:0:0:
36,192,1367,1,0,0:0:0:0:
182,192,1367,1,0,0:0:0:0:
329,192,1367,1,0,0:0:0:0:
182,192,1386,1,0,0:0:0:0:
329,192,1386,1,0,0:0:0:0:
109,192,1406,1,0,0:0:0:0:
402,192,1406,1,0,0:0:0:0:
256,192,1406,1,0,0:0:0:0:
182,192,1406,1,0,0:0:0:0:
329,192,1406,1,0,0:0:0:0:
36,192,1406,128,0,1425:0:0:0:0:
475,192,1406,128,0,1425:0:0:0:0:
329,192,1425,1,0,0:0:0:0:
182,192,1425,1,0,0:0:0:0:
36,192,1445,1,0,0:0:0:0:
475,192,1445,1,0,0:0:0:0:
329,192,1445,1,0,0:0:0:0:
182,192,1445,1,0,0:0:0:0:
329,192,1464,1,0,0:0:0:0:
182,192,1464,1,0,0:0:0:0:
36,192,1484,1,0,0:0:0:0:
475,192,1484,1,0,0:0:0:0:
182,192,1484,1,0,0:0:0:0:
329,192,1484,1,0,0:0:0:0:
256,192,1484,1,0,0:0:0:0:
402,192,1484,128,0,1503:0:0:0:0:
109,192,1484,128,0,1503:0:0:0:0:
182,192,1503,1,0,0:0:0:0:
329,192,1503,1,0,0:0:0:0:
109,192,1523,1,0,0:0:0:0:
402,192,1523,1,0,0:0:0:0:
182,192,1523,1,0,0:0:0:0:
329,192,1523,1,0,0:0:0:0:
182,192,1542,1,0,0:0:0:0:
329,192,1542,1,0,0:0:0:0:
182,192,1562,1,0,0:0:0:0:
329,192,1562,1,0,0:0:0:0:
109,192,1562,1,0,0:0:0:0:
402,192,1562,1,0,0:0:0:0:
36,192,1562,1,0,0:0:0:0:
256,192,1562,1,0,0:0:0:0:
475,192,1562,1,0,0:0:0:0:
109,192,1582,1,0,0:0:0:0:
402,192,1582,1,0,0:0:0:0:
36,192,1601,1,0,0:0:0:0:
475,192,1601,1,0,0:0:0:0:
109,192,1601,1,0,0:0:0:0:
402,192,1601,1,0,0:0:0:0:
109,192,1621,1,0,0:0:0:0:
402,192,1621,1,0,0:0:0:0:
109,192,1640,1,0,0:0:0:0:
402,192,1640,1,0,0:0:0:0:
256,192,1640,1,0,0:0:0:0:
182,192,1640,1,0,0:0:0:0:
329,192,1640,1,0,0:0:0:0:
36,192,1640,128,0,1660:0:0:0:0:
475,192,1640,128,0,1660:0:0:0:0:
182,192,1660,1,0,0:0:0:0:
329,192,1660,1,0,0:0:0:0:
475,192,1679,1,0,0:0:0:0:
109,192,1679,1,0,0:0:0:0:
182,192,1679,1,0,0:0:0:0:
329,192,1679,1,0,0:0:0:0:
182,192,1699,1,0,0:0:0:0:
329,192,1699,1,0,0:0:0:0:
36,192,1718,1,0,0:0:0:0:
475,192,1718,1,0,0:0:0:0:
182,192,1718,1,0,0:0:0:0:
329,192,1718,1,0,0:0:0:0:
256,192,1718,1,0,0:0:0:0:
109,192,1718,128,0,1738:0:0:0:0:
402,192,1718,128,0,1738:0:0:0:0:
256,192,1738,1,0,0:0:0:0:
475,192,1738,1,0,0:0:0:0:
109,192,1757,1,0,0:0:0:0:
402,192,1757,1,0,0:0:0:0:
256,192,1757,1,0,0:0:0:0:
475,192,1757,1,0,0:0:0:0:
256,192,1777,1,0,0:0:0:0:
475,192,1777,1,0,0:0:0:0:
109,192,1796,1,0,0:0:0:0:
402,192,1796,1,0,0:0:0:0:
256,192,1796,1,0,0:0:0:0:
182,192,1796,1,0,0:0:0:0:
329,192,1796,1,0,0:0:0:0:
475,192,1796,128,0,1816:0:0:0:0:
36,192,1796,128,0,1816:0:0:0:0:
329,192,1816,1,0,0:0:0:0:
109,192,1816,1,0,0:0:0:0:
36,192,1835,1,0,0:0:0:0:
475,192,1835,1,0,0:0:0:0:
329,192,1835,1,0,0:0:0:0:
109,192,1835,1,0,0:0:0:0:
329,192,1855,1,0,0:0:0:0:
109,192,1855,1,0,0:0:0:0:
182,192,1875,1,0,0:0:0:0:
329,192,1875,1,0,0:0:0:0:
256,192,1875,1,0,0:0:0:0:
475,192,1875,1,0,0:0:0:0:
36,192,1875,1,0,0:0:0:0:
109,192,1875,1,0,0:0:0:0:
402,192,1875,1,0,0:0:0:0:
402,192,1894,1,0,0:0:0:0:
256,192,1894,1,0,0:0:0:0:
475,192,1914,1,0,0:0:0:0:
36,192,1914,1,0,0:0:0:0:
402,192,1914,1,0,0:0:0:0:
256,192,1914,1,0,0:0:0:0:
402,192,1933,1,0,0:0:0:0:
256,192,1933,1,0,0:0:0:0:
109,192,1953,1,0,0:0:0:0:
402,192,1953,1,0,0:0:0:0:
256,192,1953,1,0,0:0:0:0:
182,192,1953,1,0,0:0:0:0:
329,192,1953,1,0,0:0:0:0:
36,192,1953,128,0,1972:0:0:0:0:
475,192,1953,128,0,1972:0:0:0:0:
182,192,1972,1,0,0:0:0:0:
329,192,1972,1,0,0:0:0:0:
402,192,1992,1,0,0:0:0:0:
109,192,1992,1,0,0:0:0:0:
182,192,1992,1,0,0:0:0:0:
329,192,1992,1,0,0:0:0:0:
182,192,2011,1,0,0:0:0:0:
329,192,2011,1,0,0:0:0:0:
182,192,2031,1,0,0:0:0:0:
329,192,2031,1,0,0:0:0:0:
36,192,2031,1,0,0:0:0:0:
475,192,2031,1,0,0:0:0:0:
256,192,2031,1,0,0:0:0:0:
402,192,2031,128,0,2050:0:0:0:0:
109,192,2031,128,0,2050:0:0:0:0:
329,192,2050,1,0,0:0:0:0:
36,192,2050,1,0,0:0:0:0:
109,192,2070,1,0,0:0:0:0:
402,192,2070,1,0,0:0:0:0:
329,192,2070,1,0,0:0:0:0:
36,192,2070,1,0,0:0:0:0:
329,192,2089,1,0,0:0:0:0:
36,192,2089,1,0,0:0:0:0:
256,192,2109,1,0,0:0:0:0:
109,192,2109,1,0,0:0:0:0:
402,192,2109,1,0,0:0:0:0:
182,192,2109,1,0,0:0:0:0:
329,192,2109,1,0,0:0:0:0:
36,192,2109,128,0,2128:0:0:0:0:
475,192,2109,128,0,2128:0:0:0:0:
182,192,2128,1,0,0:0:0:0:
402,192,2128,1,0,0:0:0:0:
475,192,2148,1,0,0:0:0:0:
36,192,2148,1,0,0:0:0:0:
182,192,2148,1,0,0:0:0:0:
402,192,2148,1,0,0:0:0:0:
182,192,2167,1,0,0:0:0:0:
402,192,2167,1,0,0:0:0:0:
36,192,2187,1,0,0:0:0:0:
329,192,2187,1,0,0:0:0:0:
475,192,2187,1,0,0:0:0:0:
182,192,2187,1,0,0:0:0:0:
256,192,2187,1,0,0:0:0:0:
109,192,2187,1,0,0:0:0:0:
402,192,2187,1,0,0:0:0:0:
329,192,2207,1,0,0:0:0:0:
109,192,2207,1,0,0:0:0:0:
36,192,2226,1,0,0:0:0:0:
475,192,2226,1,0,0:0:0:0:
329,192,2226,1,0,0:0:0:0:
109,192,2226,1,0,0:0:0:0:
329,192,2246,1,0,0:0:0:0:
109,192,2246,1,0,0:0:0:0:
402,192,2265,1,0,0:0:0:0:
109,192,2265,1,0,0:0:0:0:
256,192,2265,1,0,0:0:0:0:
182,192,2265,1,0,0:0:0:0:
329,192,2265,1,0,0:0:0:0:
36,192,2265,128,0,2285:0:0:0:0:
475,192,2265,128,0,2285:0:0:0:0:
182,192,2285,1,0,0:0:0:0:
256,192,2285,1,0,0:0:0:0:
402,192,2304,1,0,0:0:0:0:
109,192,2304,1,0,0:0:0:0:
182,192,2304,1,0,0:0:0:0:
256,192,2304,1,0,0:0:0:0:
182,192,2324,1,0,0:0:0:0:
256,192,2324,1,0,0:0:0:0:
36,192,2343,1,0,0:0:0:0:
182,192,2343,1,0,0:0:0:0:
329,192,2343,1,0,0:0:0:0:
475,192,2343,1,0,0:0:0:0:
256,192,2343,1,0,0:0:0:0:
402,192,2343,128,0,2363:0:0:0:0:
109,192,2343,128,0,2363:0:0:0:0:
329,192,2363,1,0,0:0:0:0:
36,192,2363,1,0,0:0:0:0:
109,192,2382,1,0,0:0:0:0:
402,192,2382,1,0,0:0:0:0:
329,192,2382,1,0,0:0:0:0:
36,192,2382,1,0,0:0:0:0:
329,192,2402,1,0,0:0:0:0:
36,192,2402,1,0,0:0:0:0:
256,192,2421,1,0,0:0:0:0:
109,192,2421,1,0,0:0:0:0:
402,192,2421,1,0,0:0:0:0:
182,192,2421,1,0,0:0:0:0:
329,192,2421,1,0,0:0:0:0:
36,192,2421,128,0,2441:0:0:0:0:
475,192,2421,128,0,2441:0:0:0:0:
182,192,2441,1,0,0:0:0:0:
402,192,2441,1,0,0:0:0:0:
36,192,2460,1,0,0:0:0:0:
475,192,2460,1,0,0:0:0:0:
182,192,2460,1,0,0:0:0:0:
402,192,2460,1,0,0:0:0:0:
182,192,2480,1,0,0:0:0:0:
402,192,2480,1,0,0:0:0:0:
36,192,2500,1,0,0:0:0:0:
109,192,2500,1,0,0:0:0:0:
256,192,2500,1,0,0:0:0:0:
329,192,2500,1,0,0:0:0:0:
402,192,2500,1,0,0:0:0:0:
475,192,2500,1,0,0:0:0:0:
182,192,2500,1,0,0:0:0:0:
329,192,2519,1,0,0:0:0:0:
36,192,2519,1,0,0:0:0:0:
402,192,2539,1,0,0:0:0:0:
109,192,2539,1,0,0:0:0:0:
329,192,2539,1,0,0:0:0:0:
36,192,2539,1,0,0:0:0:0:
329,192,2558,1,0,0:0:0:0:
36,192,2558,1,0,0:0:0:0:
36,192,2578,1,0,0:0:0:0:
109,192,2578,1,0,0:0:0:0:
329,192,2578,1,0,0:0:0:0:
256,192,2578,1,0,0:0:0:0:
182,192,2578,1,0,0:0:0:0:
402,192,2578,128,0,2597:0:0:0:0:
475,192,2578,128,0,2597:0:0:0:0:
182,192,2597,1,0,0:0:0:0:
256,192,2597,1,0,0:0:0:0:
475,192,2617,1,0,0:0:0:0:
36,192,2617,1,0,0:0:0:0:
182,192,2617,1,0,0:0:0:0:
256,192,2617,1,0,0:0:0:0:
182,192,2636,1,0,0:0:0:0:
256,192,2636,1,0,0:0:0:0:
109,192,2656,1,0,0:0:0:0:
182,192,2656,1,0,0:0:0:0:
402,192,2656,1,0,0:0:0:0:
329,192,2656,1,0,0:0:0:0:
256,192,2656,1,0,0:0:0:0:
475,192,2656,128,0,2675:0:0:0:0:
36,192,2656,128,0,2675:0:0:0:0:
329,192,2675,1,0,0:0:0:0:
256,192,2675,1,0,0:0:0:0:
36,192,2695,1,0,0:0:0:0:
109,192,2695,1,0,0:0:0:0:
329,192,2695,1,0,0:0:0:0:
256,192,2695,1,0,0:0:0:0:
329,192,2714,1,0,0:0:0:0:
256,192,2714,1,0,0:0:0:0:
182,192,2734,1,0,0:0:0:0:
256,192,2734,1,0,0:0:0:0:
475,192,2734,1,0,0:0:0:0:
402,192,2734,1,0,0:0:0:0:
329,192,2734,1,0,0:0:0:0:
36,192,2734,128,0,2753:0:0:0:0:
109,192,2734,128,0,2753:0:0:0:0:
402,192,2753,1,0,0:0:0:0:
475,192,2753,1,0,0:0:0:0:
109,192,2773,1,0,0:0:0:0:
182,192,2773,1,0,0:0:0:0:
402,192,2773,1,0,0:0:0:0:
475,192,2773,1,0,0:0:0:0:
402,192,2792,1,0,0:0:0:0:
475,192,2792,1,0,0:0:0:0:
256,192,2812,1,0,0:0:0:0:
329,192,2812,1,0,0:0:0:0:
36,192,2812,1,0,0:0:0:0:
109,192,2812,1,0,0:0:0:0:
182,192,2812,1,0,0:0:0:0:
402,192,2812,1,0,0:0:0:0:
475,192,2812,1,0,0:0:0:0:
109,192,2832,1,0,0:0:0:0:
36,192,2832,1,0,0:0:0:0:
475,192,2851,1,0,0:0:0:0:
402,192,2851,1,0,0:0:0:0:
109,192,2851,1,0,0:0:0:0:
36,192,2851,1,0,0:0:0:0:
109,192,2871,1,0,0:0:0:0:
36,192,2871,1,0,0:0:0:0:
329,192,2890,1,0,0:0:0:0:
402,192,2890,1,0,0:0:0:0:
109,192,2890,1,0,0:0:0:0:
182,192,2890,1,0,0:0:0:0:
256,192,2890,1,0,0:0:0:0:
36,192,2890,128,0,2910:0:0:0:0:
475,192,2890,128,0,2910:0:0:0:0:
182,192,2910,1,0,0:0:0:0:
329,192,2910,1,0,0:0:0:0:
36,192,2929,1,0,0:0:0:0:
109,192,2929,1,0,0:0:0:0:
182,192,2929,1,0,0:0:0:0:
329,192,2929,1,0,0:0:0:0:
182,192,2949,1,0,0:0:0:0:
329,192,2949,1,0,0:0:0:0:
402,192,2968,1,0,0:0:0:0:
475,192,2968,1,0,0:0:0:0:
182,192,2968,1,0,0:0:0:0:
256,192,2968,1,0,0:0:0:0:
329,192,2968,1,0,0:0:0:0:
36,192,2968,128,0,2988:0:0:0:0:
109,192,2968,128,0,2988:0:0:0:0:
256,192,2988,1,0,0:0:0:0:
402,192,2988,1,0,0:0:0:0:
109,192,3007,1,0,0:0:0:0:
182,192,3007,1,0,0:0:0:0:
256,192,3007,1,0,0:0:0:0:
402,192,3007,1,0,0:0:0:0:
256,192,3027,1,0,0:0:0:0:
402,192,3027,1,0,0:0:0:0:
329,192,3046,1,0,0:0:0:0:
402,192,3046,1,0,0:0:0:0:
256,192,3046,1,0,0:0:0:0:
475,192,3046,1,0,0:0:0:0:
182,192,3046,1,0,0:0:0:0:
109,192,3046,128,0,3066:0:0:0:0:
36,192,3046,128,0,3066:0:0:0:0:
329,192,3066,1,0,0:0:0:0:
475,192,3066,1,0,0:0:0:0:
36,192,3085,1,0,0:0:0:0:
109,192,3085,1,0,0:0:0:0:
329,192,3085,1,0,0:0:0:0:
475,192,3085,1,0,0:0:0:0:
329,192,3105,1,0,0:0:0:0:
475,192,3105,1,0,0:0:0:0:
36,192,3125,1,0,0:0:0:0:
109,192,3125,1,0,0:0:0:0:
182,192,3125,1,0,0:0:0:0:
256,192,3125,1,0,0:0:0:0:
402,192,3125,1,0,0:0:0:0:
475,192,3125,1,0,0:0:0:0:
329,192,3125,1,0,0:0:0:0:
256,192,3144,1,0,0:0:0:0:
109,192,3144,1,0,0:0:0:0:
402,192,3164,1,0,0:0:0:0:
475,192,3164,1,0,0:0:0:0:
256,192,3164,1,0,0:0:0:0:
109,192,3164,1,0,0:0:0:0:
256,192,3183,1,0,0:0:0:0:
109,192,3183,1,0,0:0:0:0:
36,192,3203,1,0,0:0:0:0:
109,192,3203,1,0,0:0:0:0:
329,192,3203,1,0,0:0:0:0:
256,192,3203,1,0,0:0:0:0:
182,192,3203,1,0,0:0:0:0:
402,192,3203,128,0,3222:0:0:0:0:
475,192,3203,128,0,3222:0:0:0:0:
182,192,3222,1,0,0:0:0:0:
329,192,3222,1,0,0:0:0:0:
475,192,3242,1,0,0:0:0:0:
36,192,3242,1,0,0:0:0:0:
182,192,3242,1,0,0:0:0:0:
329,192,3242,1,0,0:0:0:0:
182,192,3261,1,0,0:0:0:0:
329,192,3261,1,0,0:0:0:0:
109,192,3281,1,0,0:0:0:0:
182,192,3281,1,0,0:0:0:0:
402,192,3281,1,0,0:0:0:0:
329,192,3281,1,0,0:0:0:0:
256,192,3281,1,0,0:0:0:0:
475,192,3281,128,0,3300:0:0:0:0:
36,192,3281,128,0,3300:0:0:0:0:
256,192,3300,1,0,0:0:0:0:
402,192,3300,1,0,0:0:0:0:
36,192,3320,1,0,0:0:0:0:
109,192,3320,1,0,0:0:0:0:
256,192,3320,1,0,0:0:0:0:
402,192,3320,1,0,0:0:0:0:
256,192,3339,1,0,0:0:0:0:
402,192,3339,1,0,0:0:0:0:
182,192,3359,1,0,0:0:0:0:
256,192,3359,1,0,0:0:0:0:
475,192,3359,1,0,0:0:0:0:
402,192,3359,1,0,0:0:0:0:
329,192,3359,1,0,0:0:0:0:
109,192,3359,128,0,3378:0:0:0:0:
36,192,3359,128,0,3378:0:0:0:0:
329,192,3378,1,0,0:0:0:0:
475,192,3378,1,0,0:0:0:0:
109,192,3398,1,0,0:0:0:0:
182,192,3398,1,0,0:0:0:0:
329,192,3398,1,0,0:0:0:0:
475,192,3398,1,0,0:0:0:0:
329,192,3417,1,0,0:0:0:0:
475,192,3417,1,0,0:0:0:0:
256,192,3437,1,0,0:0:0:0:
329,192,3437,1,0,0:0:0:0:
36,192,3437,1,0,0:0:0:0:
109,192,3437,1,0,0:0:0:0:
182,192,3437,1,0,0:0:0:0:
402,192,3437,1,0,0:0:0:0:
475,192,3437,1,0,0:0:0:0:
402,192,3457,1,0,0:0:0:0:
256,192,3457,1,0,0:0:0:0:
36,192,3476,1,0,0:0:0:0:
475,192,3476,1,0,0:0:0:0:
402,192,3476,1,0,0:0:0:0:
256,192,3476,1,0,0:0:0:0:
402,192,3496,1,0,0:0:0:0:
256,192,3496,1,0,0:0:0:0:
329,192,3515,1,0,0:0:0:0:
402,192,3515,1,0,0:0:0:0:
109,192,3515,1,0,0:0:0:0:
182,192,3515,1,0,0:0:0:0:
256,192,3515,1,0,0:0:0:0:
475,192,3515,128,0,3535:0:0:0:0:
36,192,3515,128,0,3535:0:0:0:0:
329,192,3535,1,0,0:0:0:0:
182,192,3535,1,0,0:0:0:0:
109,192,3554,1,0,0:0:0:0:
36,192,3554,1,0,0:0:0:0:
329,192,3554,1,0,0:0:0:0:
182,192,3554,1,0,0:0:0:0:
329,192,3574,1,0,0:0:0:0:
182,192,3574,1,0,0:0:0:0:
402,192,3593,1,0,0:0:0:0:
475,192,3593,1,0,0:0:0:0:
182,192,3593,1,0,0:0:0:0:
256,192,3593,1,0,0:0:0:0:
329,192,3593,1,0,0:0:0:0:
109,192,3593,128,0,3613:0:0:0:0:
36,192,3593,128,0,3613:0:0:0:0:
256,192,3613,1,0,0:0:0:0:
402,192,3613,1,0,0:0:0:0:
182,192,3632,1,0,0:0:0:0:
109,192,3632,1,0,0:0:0:0:
256,192,3632,1,0,0:0:0:0:
402,192,3632,1,0,0:0:0:0:
256,192,3652,1,0,0:0:0:0:
402,192,3652,1,0,0:0:0:0:
329,192,3671,1,0,0:0:0:0:
402,192,3671,1,0,0:0:0:0:
256,192,3671,1,0,0:0:0:0:
475,192,3671,1,0,0:0:0:0:
182,192,3671,1,0,0:0:0:0:
109,192,3671,128,0,3691:0:0:0:0:
36,192,3671,128,0,3691:0:0:0:0:
329,192,3691,1,0,0:0:0:0:
475,192,3691,1,0,0:0:0:0:
256,192,3710,1,0,0:0:0:0:
182,192,3710,1,0,0:0:0:0:
329,192,3710,1,0,0:0:0:0:
475,192,3710,1,0,0:0:0:0:
329,192,3730,1,0,0:0:0:0:
475,192,3730,1,0,0:0:0:0:
36,192,3750,1,0,0:0:0:0:
109,192,3750,1,0,0:0:0:0:
182,192,3750,1,0,0:0:0:0:
475,192,3750,1,0,0:0:0:0:
402,192,3750,1,0,0:0:0:0:
329,192,3750,1,0,0:0:0:0:
256,192,3750,1,0,0:0:0:0:
36,192,3769,1,0,0:0:0:0:
182,192,3769,1,0,0:0:0:0:
402,192,3789,1,0,0:0:0:0:
475,192,3789,1,0,0:0:0:0:
36,192,3789,1,0,0:0:0:0:
182,192,3789,1,0,0:0:0:0:
36,192,3808,1,0,0:0:0:0:
182,192,3808,1,0,0:0:0:0:
36,192,3828,1,0,0:0:0:0:
256,192,3828,1,0,0:0:0:0:
182,192,3828,1,0,0:0:0:0:
329,192,3828,1,0,0:0:0:0:
109,192,3828,1,0,0:0:0:0:
402,192,3828,128,0,3847:0:0:0:0:
475,192,3828,128,0,3847:0:0:0:0:
109,192,3847,1,0,0:0:0:0:
256,192,3847,1,0,0:0:0:0:
475,192,3867,1,0,0:0:0:0:
36,192,3867,1,0,0:0:0:0:
109,192,3867,1,0,0:0:0:0:
256,192,3867,1,0,0:0:0:0:
109,192,3886,1,0,0:0:0:0:
256,192,3886,1,0,0:0:0:0:
109,192,3906,1,0,0:0:0:0:
329,192,3906,1,0,0:0:0:0:
256,192,3906,1,0,0:0:0:0:
402,192,3906,1,0,0:0:0:0:
182,192,3906,1,0,0:0:0:0:
475,192,3906,128,0,3925:0:0:0:0:
36,192,3906,128,0,3925:0:0:0:0:
182,192,3925,1,0,0:0:0:0:
329,192,3925,1,0,0:0:0:0:
36,192,3945,1,0,0:0:0:0:
109,192,3945,1,0,0:0:0:0:
182,192,3945,1,0,0:0:0:0:
329,192,3945,1,0,0:0:0:0:
182,192,3964,1,0,0:0:0:0:
329,192,3964,1,0,0:0:0:0:
182,192,3984,1,0,0:0:0:0:
402,192,3984,1,0,0:0:0:0:
329,192,3984,1,0,0:0:0:0:
475,192,3984,1,0,0:0:0:0:
256,192,3984,1,0,0:0:0:0:
109,192,3984,128,0,4003:0:0:0:0:
36,192,3984,128,0,4003:0:0:0:0:
256,192,4003,1,0,0:0:0:0:
402,192,4003,1,0,0:0:0:0:
109,192,4023,1,0,0:0:0:0:
182,192,4023,1,0,0:0:0:0:
256,192,4023,1,0,0:0:0:0:
402,192,4023,1,0,0:0:0:0:
256,192,4042,1,0,0:0:0:0:
402,192,4042,1,0,0:0:0:0:
256,192,4062,1,0,0:0:0:0:
402,192,4062,1,0,0:0:0:0:
475,192,4062,1,0,0:0:0:0:
36,192,4062,1,0,0:0:0:0:
329,192,4062,1,0,0:0:0:0:
109,192,4062,1,0,0:0:0:0:
182,192,4062,1,0,0:0:0:0:
329,192,4082,1,0,0:0:0:0:
109,192,4082,1,0,0:0:0:0:
182,192,4101,1,0,0:0:0:0:
256,192,4101,1,0,0:0:0:0:
329,192,4101,1,0,0:0:0:0:
109,192,4101,1,0,0:0:0:0:
329,192,4121,1,0,0:0:0:0:
109,192,4121,1,0,0:0:0:0:
36,192,4140,1,0,0:0:0:0:
182,192,4140,1,0,0:0:0:0:
329,192,4140,1,0,0:0:0:0:
109,192,4140,1,0,0:0:0:0:
256,192,4140,1,0,0:0:0:0:
402,192,4140,128,0,4160:0:0:0:0:
475,192,4140,128,0,4160:0:0:0:0:
182,192,4160,1,0,0:0:0:0:
36,192,4160,1,0,0:0:0:0:
256,192,4179,1,0,0:0:0:0:
329,192,4179,1,0,0:0:0:0:
182,192,4179,1,0,0:0:0:0:
36,192,4179,1,0,0:0:0:0:
182,192,4199,1,0,0:0:0:0:
36,192,4199,1,0,0:0:0:0:
109,192,4218,1,0,0:0:0:0:
256,192,4218,1,0,0:0:0:0:
402,192,4218,1,0,0:0:0:0:
182,192,4218,1,0,0:0:0:0:
329,192,4218,1,0,0:0:0:0:
475,192,4218,128,0,4238:0:0:0:0:
36,192,4218,128,0,4238:0:0:0:0:
256,192,4238,1,0,0:0:0:0:
109,192,4238,1,0,0:0:0:0:
329,192,4257,1,0,0:0:0:0:
402,192,4257,1,0,0:0:0:0:
256,192,4257,1,0,0:0:0:0:
109,192,4257,1,0,0:0:0:0:
256,192,4277,1,0,0:0:0:0:
109,192,4277,1,0,0:0:0:0:
182,192,4296,1,0,0:0:0:0:
329,192,4296,1,0,0:0:0:0:
475,192,4296,1,0,0:0:0:0:
256,192,4296,1,0,0:0:0:0:
402,192,4296,1,0,0:0:0:0:
36,192,4296,128,0,4316:0:0:0:0:
109,192,4296,128,0,4316:0:0:0:0:
329,192,4316,1,0,0:0:0:0:
182,192,4316,1,0,0:0:0:0:
402,192,4335,1,0,0:0:0:0:
475,192,4335,1,0,0:0:0:0:
329,192,4335,1,0,0:0:0:0:
182,192,4335,1,0,0:0:0:0:
329,192,4355,1,0,0:0:0:0:
182,192,4355,1,0,0:0:0:0:
36,192,4375,1,0,0:0:0:0:
109,192,4375,1,0,0:0:0:0:
256,192,4375,1,0,0:0:0:0:
402,192,4375,1,0,0:0:0:0:
475,192,4375,1,0,0:0:0:0:
182,192,4375,1,0,0:0:0:0:
329,192,4375,1,0,0:0:0:0:
402,192,4394,1,0,0:0:0:0:
475,192,4394,1,0,0:0:0:0:
182,192,4414,1,0,0:0:0:0:
256,192,4414,1,0,0:0:0:0:
402,192,4414,1,0,0:0:0:0:
475,192,4414,1,0,0:0:0:0:
402,192,4433,1,0,0:0:0:0:
475,192,4433,1,0,0:0:0:0:
402,192,4453,1,0,0:0:0:0:
329,192,4453,1,0,0:0:0:0:
475,192,4453,1,0,0:0:0:0:
256,192,4453,1,0,0:0:0:0:
109,192,4453,1,0,0:0:0:0:
36,192,4453,1,0,0:0:0:0:
182,192,4453,128,0,4472:0:0:0:0:
109,192,4472,1,0,0:0:0:0:
36,192,4472,1,0,0:0:0:0:
475,192,4492,1,0,0:0:0:0:
329,192,4492,1,0,0:0:0:0:
109,192,4492,1,0,0:0:0:0:
36,192,4492,1,0,0:0:0:0:
109,192,4511,1,0,0:0:0:0:
36,192,4511,1,0,0:0:0:0:
109,192,4531,1,0,0:0:0:0:
182,192,4531,1,0,0:0:0:0:
36,192,4531,1,0,0:0:0:0:
256,192,4531,1,0,0:0:0:0:
402,192,4531,1,0,0:0:0:0:
329,192,4531,1,0,0:0:0:0:
475,192,4531,128,0,4550:0:0:0:0:
256,192,4550,1,0,0:0:0:0:
329,192,4550,1,0,0:0:0:0:
36,192,4570,1,0,0:0:0:0:
182,192,4570,1,0,0:0:0:0:
256,192,4570,1,0,0:0:0:0:
329,192,4570,1,0,0:0:0:0:
256,192,4589,1,0,0:0:0:0:
329,192,4589,1,0,0:0:0:0:
256,192,4609,1,0,0:0:0:0:
329,192,4609,1,0,0:0:0:0:
402,192,4609,1,0,0:0:0:0:
475,192,4609,1,0,0:0:0:0:
109,192,4609,1,0,0:0:0:0:
182,192,4609,1,0,0:0:0:0:
36,192,4609,128,0,4628:0:0:0:0:
402,192,4628,1,0,0:0:0:0:
109,192,4628,1,0,0:0:0:0:
256,192,4648,1,0,0:0:0:0:
36,192,4648,1,0,0:0:0:0:
402,192,4648,1,0,0:0:0:0:
109,192,4648,1,0,0:0:0:0:
402,192,4667,1,0,0:0:0:0:
109,192,4667,1,0,0:0:0:0:
36,192,4687,1,0,0:0:0:0:
109,192,4687,1,0,0:0:0:0:
182,192,4687,1,0,0:0:0:0:
256,192,4687,1,0,0:0:0:0:
402,192,4687,1,0,0:0:0:0:
329,192,4687,1,0,0:0:0:0:
475,192,4687,1,0,0:0:0:0:
256,192,4707,1,0,0:0:0:0:
329,192,4707,1,0,0:0:0:0:
182,192,4726,1,0,0:0:0:0:
109,192,4726,1,0,0:0:0:0:
256,192,4726,1,0,0:0:0:0:
329,192,4726,1,0,0:0:0:0:
256,192,4746,1,0,0:0:0:0:
329,192,4746,1,0,0:0:0:0:
402,192,4765,1,0,0:0:0:0:
475,192,4765,1,0,0:0:0:0:
329,192,4765,1,0,0:0:0:0:
256,192,4765,1,0,0:0:0:0:
109,192,4765,1,0,0:0:0:0:
36,192,4765,1,0,0:0:0:0:
182,192,4765,128,0,4785:0:0:0:0:
475,192,4785,1,0,0:0:0:0:
36,192,4785,1,0,0:0:0:0:
329,192,4804,1,0,0:0:0:0:
182,192,4804,1,0,0:0:0:0:
475,192,4804,1,0,0:0:0:0:
36,192,4804,1,0,0:0:0:0:
475,192,4824,1,0,0:0:0:0:
36,192,4824,1,0,0:0:0:0:
182,192,4843,1,0,0:0:0:0:
256,192,4843,1,0,0:0:0:0:
109,192,4843,1,0,0:0:0:0:
36,192,4843,1,0,0:0:0:0:
402,192,4843,1,0,0:0:0:0:
475,192,4843,1,0,0:0:0:0:
329,192,4843,128,0,4863:0:0:0:0:
109,192,4863,1,0,0:0:0:0:
402,192,4863,1,0,0:0:0:0:
36,192,4882,1,0,0:0:0:0:
329,192,4882,1,0,0:0:0:0:
109,192,4882,1,0,0:0:0:0:
402,192,4882,1,0,0:0:0:0:
109,192,4902,1,0,0:0:0:0:
402,192,4902,1,0,0:0:0:0:
329,192,4921,1,0,0:0:0:0:
402,192,4921,1,0,0:0:0:0:
475,192,4921,1,0,0:0:0:0:
256,192,4921,1,0,0:0:0:0:
109,192,4921,1,0,0:0:0:0:
182,192,4921,1,0,0:0:0:0:
36,192,4921,1,0,0:0:0:0:
256,192,4941,1,0,0:0:0:0:
36,192,4941,1,0,0:0:0:0:
475,192,4941,1,0,0:0:0:0:
36,192,4960,1,0,0:0:0:0:
475,192,4960,1,0,0:0:0:0:
256,192,4960,1,0,0:0:0:0:
182,192,4960,1,0,0:0:0:0:
329,192,4960,1,0,0:0:0:0:
109,192,4960,128,0,4980:0:0:0:0:
402,192,4960,128,0,4980:0:0:0:0:
256,192,4980,1,0,0:0:0:0:
36,192,4980,1,0,0:0:0:0:
475,192,4980,1,0,0:0:0:0:
36,192,5000,1,0,0:0:0:0:
109,192,5000,1,0,0:0:0:0:
182,192,5000,1,0,0:0:0:0:
329,192,5000,1,0,0:0:0:0:
402,192,5000,1,0,0:0:0:0:
475,192,5000,1,0,0:0:0:0:
256,192,5000,128,0,5253:0:0:0:0:
329,192,5312,128,0,5390:0:0:0:0:
36,192,5312,128,0,5351:0:0:0:0:
182,192,5312,128,0,5390:0:0:0:0:
402,192,5312,1,0,0:0:0:0:
475,192,5312,1,0,0:0:0:0:
109,192,5312,1,0,0:0:0:0:
256,192,5312,1,0,0:0:0:0:
256,192,5332,1,0,0:0:0:0:
109,192,5351,1,0,0:0:0:0:
402,192,5351,1,0,0:0:0:0:
475,192,5351,1,0,0:0:0:0:
256,192,5351,1,0,0:0:0:0:
256,192,5371,1,0,0:0:0:0:
36,192,5371,1,0,0:0:0:0:
109,192,5390,128,0,5429:0:0:0:0:
475,192,5390,128,0,5429:0:0:0:0:
402,192,5390,1,0,0:0:0:0:
256,192,5390,1,0,0:0:0:0:
36,192,5390,1,0,0:0:0:0:
256,192,5410,1,0,0:0:0:0:
182,192,5429,1,0,0:0:0:0:
36,192,5429,1,0,0:0:0:0:
329,192,5429,1,0,0:0:0:0:
402,192,5429,1,0,0:0:0:0:
256,192,5429,1,0,0:0:0:0:
256,192,5449,1,0,0:0:0:0:
475,192,5449,1,0,0:0:0:0:
109,192,5449,1,0,0:0:0:0:
402,192,5468,128,0,5507:0:0:0:0:
36,192,5468,128,0,5507:0:0:0:0:
329,192,5468,1,0,0:0:0:0:
182,192,5468,1,0,0:0:0:0:
256,192,5468,1,0,0:0:0:0:
475,192,5468,1,0,0:0:0:0:
109,192,5468,1,0,0:0:0:0:
256,192,5488,1,0,0:0:0:0:
329,192,5507,1,0,0:0:0:0:
182,192,5507,1,0,0:0:0:0:
109,192,5507,1,0,0:0:0:0:
475,192,5507,1,0,0:0:0:0:
256,192,5507,1,0,0:0:0:0:
256,192,5527,1,0,0:0:0:0:
36,192,5527,1,0,0:0:0:0:
402,192,5527,1,0,0:0:0:0:
109,192,5546,128,0,5585:0:0:0:0:
329,192,5546,128,0,5585:0:0:0:0:
475,192,5546,1,0,0:0:0:0:
182,192,5546,128,0,5625:0:0:0:0:
256,192,5546,1,0,0:0:0:0:
36,192,5546,1,0,0:0:0:0:
402,192,5546,1,0,0:0:0:0:
256,192,5566,1,0,0:0:0:0:
402,192,5585,1,0,0:0:0:0:
475,192,5585,1,0,0:0:0:0:
36,192,5585,1,0,0:0:0:0:
256,192,5585,1,0,0:0:0:0:
256,192,5605,1,0,0:0:0:0:
329,192,5605,1,0,0:0:0:0:
109,192,5605,1,0,0:0:0:0:
475,192,5625,128,0,5703:0:0:0:0:
402,192,5625,128,0,5664:0:0:0:0:
36,192,5625,128,0,5664:0:0:0:0:
256,192,5625,1,0,0:0:0:0:
329,192,5625,1,0,0:0:0:0:
109,192,5625,1,0,0:0:0:0:
256,192,5644,1,0,0:0:0:0:
109,192,5664,1,0,0:0:0:0:
182,192,5664,1,0,0:0:0:0:
329,192,5664,1,0,0:0:0:0:
256,192,5664,1,0,0:0:0:0:
256,192,5683,1,0,0:0:0:0:
36,192,5683,1,0,0:0:0:0:
402,192,5683,1,0,0:0:0:0:
182,192,5703,128,0,5742:0:0:0:0:
329,192,5703,128,0,5742:0:0:0:0:
109,192,5703,1,0,0:0:0:0:
256,192,5703,1,0,0:0:0:0:
36,192,5703,1,0,0:0:0:0:
402,192,5703,1,0,0:0:0:0:
256,192,5722,1,0,0:0:0:0:
402,192,5742,1,0,0:0:0:0:
475,192,5742,1,0,0:0:0:0:
109,192,5742,1,0,0:0:0:0:
36,192,5742,1,0,0:0:0:0:
256,192,5742,1,0,0:0:0:0:
256,192,5761,1,0,0:0:0:0:
329,192,5761,1,0,0:0:0:0:
182,192,5761,1,0,0:0:0:0:
109,192,5781,128,0,5820:0:0:0:0:
402,192,5781,128,0,5820:0:0:0:0:
36,192,5781,1,0,0:0:0:0:
475,192,5781,1,0,0:0:0:0:
256,192,5781,1,0,0:0:0:0:
329,192,5781,1,0,0:0:0:0:
182,192,5781,1,0,0:0:0:0:
256,192,5800,1,0,0:0:0:0:
36,192,5820,1,0,0:0:0:0:
182,192,5820,1,0,0:0:0:0:
329,192,5820,1,0,0:0:0:0:
475,192,5820,1,0,0:0:0:0:
256,192,5820,1,0,0:0:0:0:
256,192,5839,1,0,0:0:0:0:
109,192,5839,1,0,0:0:0:0:
402,192,5839,1,0,0:0:0:0:
36,192,5859,128,0,5898:0:0:0:0:
329,192,5859,128,0,5937:0:0:0:0:
182,192,5859,1,0,0:0:0:0:
475,192,5859,128,0,5898:0:0:0:0:
256,192,5859,1,0,0:0:0:0:
109,192,5859,1,0,0:0:0:0:
402,192,5859,1,0,0:0:0:0:
256,192,5878,1,0,0:0:0:0:
402,192,5898,1,0,0:0:0:0:
182,192,5898,1,0,0:0:0:0:
109,192,5898,1,0,0:0:0:0:
256,192,5898,1,0,0:0:0:0:
256,192,5917,1,0,0:0:0:0:
475,192,5917,1,0,0:0:0:0:
36,192,5917,1,0,0:0:0:0:
109,192,5937,128,0,5976:0:0:0:0:
182,192,5937,128,0,6015:0:0:0:0:
402,192,5937,128,0,5976:0:0:0:0:
256,192,5937,1,0,0:0:0:0:
475,192,5937,1,0,0:0:0:0:
36,192,5937,1,0,0:0:0:0:
256,192,5957,1,0,0:0:0:0:
36,192,5976,1,0,0:0:0:0:
329,192,5976,1,0,0:0:0:0:
475,192,5976,1,0,0:0:0:0:
256,192,5976,1,0,0:0:0:0:
256,192,5996,1,0,0:0:0:0:
109,192,5996,1,0,0:0:0:0:
402,192,5996,1,0,0:0:0:0:
475,192,6015,128,0,6054:0:0:0:0:
36,192,6015,128,0,6054:0:0:0:0:
329,192,6015,1,0,0:0:0:0:
256,192,6015,1,0,0:0:0:0:
109,192,6015,1,0,0:0:0:0:
402,192,6015,1,0,0:0:0:0:
256,192,6035,1,0,0:0:0:0:
109,192,6054,1,0,0:0:0:0:
182,192,6054,1,0,0:0:0:0:
329,192,6054,1,0,0:0:0:0:
402,192,6054,1,0,0:0:0:0:
256,192,6054,1,0,0:0:0:0:
256,192,6074,1,0,0:0:0:0:
475,192,6074,1,0,0:0:0:0:
36,192,6074,1,0,0:0:0:0:
182,192,6093,128,0,6132:0:0:0:0:
329,192,6093,128,0,6132:0:0:0:0:
402,192,6093,1,0,0:0:0:0:
109,192,6093,1,0,0:0:0:0:
256,192,6093,1,0,0:0:0:0:
475,192,6093,1,0,0:0:0:0:
36,192,6093,1,0,0:0:0:0:
256,192,6113,1,0,0:0:0:0:
402,192,6132,1,0,0:0:0:0:
475,192,6132,1,0,0:0:0:0:
109,192,6132,1,0,0:0:0:0:
36,192,6132,1,0,0:0:0:0:
256,192,6132,1,0,0:0:0:0:
256,192,6152,1,0,0:0:0:0:
182,192,6152,1,0,0:0:0:0:
329,192,6152,1,0,0:0:0:0:
402,192,6171,128,0,6210:0:0:0:0:
36,192,6171,128,0,6210:0:0:0:0:
475,192,6171,1,0,0:0:0:0:
109,192,6171,1,0,0:0:0:0:
256,192,6171,1,0,0:0:0:0:
182,192,6171,1,0,0:0:0:0:
329,192,6171,1,0,0:0:0:0:
256,192,6191,1,0,0:0:0:0:
109,192,6210,1,0,0:0:0:0:
182,192,6210,1,0,0:0:0:0:
329,192,6210,1,0,0:0:0:0:
475,192,6210,1,0,0:0:0:0:
256,192,6210,1,0,0:0:0:0:
256,192,6230,1,0,0:0:0:0:
402,192,6230,1,0,0:0:0:0:
36,192,6230,1,0,0:0:0:0:
475,192,6250,128,0,6289:0:0:0:0:
182,192,6250,128,0,6289:0:0:0:0:
329,192,6250,128,0,6328:0:0:0:0:
109,192,6250,1,0,0:0:0:0:
256,192,6250,1,0,0:0:0:0:
402,192,6250,1,0,0:0:0:0:
36,192,6250,1,0,0:0:0:0:
256,192,6269,1,0,0:0:0:0:
402,192,6289,1,0,0:0:0:0:
36,192,6289,1,0,0:0:0:0:
109,192,6289,1,0,0:0:0:0:
256,192,6289,1,0,0:0:0:0:
256,192,6308,1,0,0:0:0:0:
182,192,6308,1,0,0:0:0:0:
475,192,6308,1,0,0:0:0:0:
402,192,6328,128,0,6367:0:0:0:0:
109,192,6328,128,0,6406:0:0:0:0:
36,192,6328,128,0,6367:0:0:0:0:
256,192,6328,1,0,0:0:0:0:
182,192,6328,1,0,0:0:0:0:
475,192,6328,1,0,0:0:0:0:
256,192,6347,1,0,0:0:0:0:
182,192,6367,1,0,0:0:0:0:
329,192,6367,1,0,0:0:0:0:
475,192,6367,1,0,0:0:0:0:
256,192,6367,1,0,0:0:0:0:
256,192,6386,1,0,0:0:0:0:
402,192,6386,1,0,0:0:0:0:
36,192,6386,1,0,0:0:0:0:
329,192,6406,128,0,6445:0:0:0:0:
182,192,6406,1,0,0:0:0:0:
475,192,6406,1,0,0:0:0:0:
256,192,6406,1,0,0:0:0:0:
402,192,6406,1,0,0:0:0:0:
36,192,6406,1,0,0:0:0:0:
256,192,6425,1,0,0:0:0:0:
475,192,6445,1,0,0:0:0:0:
402,192,6445,1,0,0:0:0:0:
182,192,6445,1,0,0:0:0:0:
109,192,6445,1,0,0:0:0:0:
36,192,6445,1,0,0:0:0:0:
256,192,6445,1,0,0:0:0:0:
256,192,6464,1,0,0:0:0:0:
329,192,6464,1,0,0:0:0:0:
109,192,6484,128,0,6523:0:0:0:0:
36,192,6484,1,0,0:0:0:0:
402,192,6484,1,0,0:0:0:0:
475,192,6484,1,0,0:0:0:0:
256,192,6484,1,0,0:0:0:0:
329,192,6484,1,0,0:0:0:0:
182,192,6484,1,0,0:0:0:0:
256,192,6503,1,0,0:0:0:0:
182,192,6503,1,0,0:0:0:0:
36,192,6523,1,0,0:0:0:0:
329,192,6523,1,0,0:0:0:0:
402,192,6523,1,0,0:0:0:0:
475,192,6523,1,0,0:0:0:0:
256,192,6523,1,0,0:0:0:0:
182,192,6523,1,0,0:0:0:0:
256,192,6542,1,0,0:0:0:0:
109,192,6542,1,0,0:0:0:0:
182,192,6542,1,0,0:0:0:0:
36,192,6562,128,0,6640:0:0:0:0:
329,192,6562,128,0,6640:0:0:0:0:
402,192,6562,128,0,6601:0:0:0:0:
475,192,6562,1,0,0:0:0:0:
256,192,6562,1,0,0:0:0:0:
109,192,6562,1,0,0:0:0:0:
182,192,6562,1,0,0:0:0:0:
256,192,6582,1,0,0:0:0:0:
475,192,6601,1,0,0:0:0:0:
109,192,6601,1,0,0:0:0:0:
182,192,6601,1,0,0:0:0:0:
256,192,6601,1,0,0:0:0:0:
256,192,6621,1,0,0:0:0:0:
402,192,6621,1,0,0:0:0:0:
182,192,6640,128,0,6679:0:0:0:0:
475,192,6640,128,0,6796:0:0:0:0:
109,192,6640,1,0,0:0:0:0:
256,192,6640,1,0,0:0:0:0:
402,192,6640,1,0,0:0:0:0:
256,192,6660,1,0,0:0:0:0:
329,192,6660,1,0,0:0:0:0:
109,192,6679,1,0,0:0:0:0:
36,192,6679,1,0,0:0:0:0:
402,192,6679,1,0,0:0:0:0:
256,192,6679,1,0,0:0:0:0:
329,192,6679,1,0,0:0:0:0:
256,192,6699,1,0,0:0:0:0:
182,192,6699,1,0,0:0:0:0:
329,192,6699,1,0,0:0:0:0:
36,192,6718,128,0,6796:0:0:0:0:
402,192,6718,128,0,6757:0:0:0:0:
256,192,6718,1,0,0:0:0:0:
182,192,6718,1,0,0:0:0:0:
329,192,6718,1,0,0:0:0:0:
109,192,6718,128,0,6738:0:0:0:0:
256,192,6738,1,0,0:0:0:0:
329,192,6738,1,0,0:0:0:0:
182,192,6757,1,0,0:0:0:0:
329,192,6757,1,0,0:0:0:0:
256,192,6757,1,0,0:0:0:0:
109,192,6757,128,0,6777:0:0:0:0:
256,192,6777,1,0,0:0:0:0:
402,192,6777,1,0,0:0:0:0:
329,192,6796,1,0,0:0:0:0:
182,192,6796,1,0,0:0:0:0:
256,192,6796,1,0,0:0:0:0:
402,192,6796,1,0,0:0:0:0:
109,192,6796,128,0,6816:0:0:0:0:
256,192,6816,1,0,0:0:0:0:
329,192,6835,1,0,0:0:0:0:
402,192,6835,1,0,0:0:0:0:
475,192,6835,1,0,0:0:0:0:
109,192,6835,1,0,0:0:0:0:
182,192,6835,1,0,0:0:0:0:
36,192,6835,1,0,0:0:0:0:
256,192,6835,1,0,0:0:0:0:
256,192,6855,1,0,0:0:0:0:
109,192,6875,128,0,6914:0:0:0:0:
402,192,6875,128,0,6953:0:0:0:0:
475,192,6875,128,0,6953:0:0:0:0:
329,192,6875,1,0,0:0:0:0:
36,192,6875,1,0,0:0:0:0:
256,192,6875,1,0,0:0:0:0:
182,192,6875,128,0,6894:0:0:0:0:
256,192,6894,1,0,0:0:0:0:
36,192,6914,1,0,0:0:0:0:
329,192,6914,1,0,0:0:0:0:
256,192,6914,1,0,0:0:0:0:
182,192,6914,128,0,6933:0:0:0:0:
256,192,6933,1,0,0:0:0:0:
109,192,6933,1,0,0:0:0:0:
36,192,6953,128,0,7031:0:0:0:0:
329,192,6953,128,0,6992:0:0:0:0:
256,192,6953,1,0,0:0:0:0:
109,192,6953,1,0,0:0:0:0:
182,192,6953,128,0,6972:0:0:0:0:
256,192,6972,1,0,0:0:0:0:
182,192,6992,1,0,0:0:0:0:
109,192,6992,1,0,0:0:0:0:
402,192,6992,1,0,0:0:0:0:
475,192,6992,1,0,0:0:0:0:
256,192,6992,1,0,0:0:0:0:
256,192,7011,1,0,0:0:0:0:
329,192,7011,1,0,0:0:0:0:
182,192,7031,128,0,7070:0:0:0:0:
109,192,7031,1,0,0:0:0:0:
475,192,7031,1,0,0:0:0:0:
256,192,7031,1,0,0:0:0:0:
329,192,7031,1,0,0:0:0:0:
402,192,7031,128,0,7050:0:0:0:0:
256,192,7050,1,0,0:0:0:0:
475,192,7070,1,0,0:0:0:0:
329,192,7070,1,0,0:0:0:0:
109,192,7070,1,0,0:0:0:0:
36,192,7070,1,0,0:0:0:0:
256,192,7070,1,0,0:0:0:0:
402,192,7070,128,0,7089:0:0:0:0:
256,192,7089,1,0,0:0:0:0:
182,192,7089,1,0,0:0:0:0:
329,192,7109,128,0,7187:0:0:0:0:
475,192,7109,128,0,7148:0:0:0:0:
36,192,7109,128,0,7187:0:0:0:0:
256,192,7109,1,0,0:0:0:0:
182,192,7109,1,0,0:0:0:0:
402,192,7109,128,0,7128:0:0:0:0:
109,192,7109,128,0,7128:0:0:0:0:
256,192,7128,1,0,0:0:0:0:
182,192,7148,1,0,0:0:0:0:
402,192,7148,1,0,0:0:0:0:
256,192,7148,1,0,0:0:0:0:
109,192,7148,128,0,7167:0:0:0:0:
256,192,7167,1,0,0:0:0:0:
475,192,7167,1,0,0:0:0:0:
182,192,7187,128,0,7226:0:0:0:0:
402,192,7187,128,0,7265:0:0:0:0:
256,192,7187,1,0,0:0:0:0:
475,192,7187,1,0,0:0:0:0:
109,192,7187,128,0,7207:0:0:0:0:
256,192,7207,1,0,0:0:0:0:
329,192,7226,1,0,0:0:0:0:
475,192,7226,1,0,0:0:0:0:
109,192,7226,1,0,0:0:0:0:
36,192,7226,1,0,0:0:0:0:
256,192,7226,1,0,0:0:0:0:
256,192,7246,1,0,0:0:0:0:
182,192,7246,1,0,0:0:0:0:
329,192,7265,128,0,7304:0:0:0:0:
475,192,7265,1,0,0:0:0:0:
109,192,7265,1,0,0:0:0:0:
36,192,7265,1,0,0:0:0:0:
256,192,7265,1,0,0:0:0:0:
182,192,7265,1,0,0:0:0:0:
256,192,7285,1,0,0:0:0:0:
36,192,7304,1,0,0:0:0:0:
109,192,7304,1,0,0:0:0:0:
182,192,7304,1,0,0:0:0:0:
402,192,7304,1,0,0:0:0:0:
475,192,7304,1,0,0:0:0:0:
256,192,7304,1,0,0:0:0:0:
256,192,7324,1,0,0:0:0:0:
329,192,7324,1,0,0:0:0:0:
36,192,7343,128,0,7382:0:0:0:0:
475,192,7343,128,0,7382:0:0:0:0:
109,192,7343,128,0,7421:0:0:0:0:
182,192,7343,1,0,0:0:0:0:
256,192,7343,1,0,0:0:0:0:
329,192,7343,1,0,0:0:0:0:
402,192,7343,128,0,7363:0:0:0:0:
256,192,7363,1,0,0:0:0:0:
182,192,7382,1,0,0:0:0:0:
329,192,7382,1,0,0:0:0:0:
256,192,7382,1,0,0:0:0:0:
402,192,7382,128,0,7402:0:0:0:0:
256,192,7402,1,0,0:0:0:0:
36,192,7402,1,0,0:0:0:0:
475,192,7402,1,0,0:0:0:0:
182,192,7421,1,0,0:0:0:0:
329,192,7421,1,0,0:0:0:0:
256,192,7421,1,0,0:0:0:0:
36,192,7421,1,0,0:0:0:0:
475,192,7421,1,0,0:0:0:0:
402,192,7421,1,0,0:0:0:0:
256,192,7441,1,0,0:0:0:0:
256,192,7460,1,0,0:0:0:0:
256,192,7480,1,0,0:0:0:0:
182,192,7500,1,0,0:0:0:0:
109,192,7500,1,0,0:0:0:0:
36,192,7500,1,0,0:0:0:0:
329,192,7500,1,0,0:0:0:0:
475,192,7500,1,0,0:0:0:0:
402,192,7500,1,0,0:0:0:0:
256,192,7500,1,0,0:0:0:0:
36,192,7812,1,0,0:0:0:0:
109,192,7812,1,0,0:0:0:0:
182,192,7812,1,0,0:0:0:0:
256,192,7812,1,0,0:0:0:0:
329,192,7812,1,0,0:0:0:0:
402,192,7812,1,0,0:0:0:0:
475,192,7812,1,0,0:0:0:0:
182,192,8046,1,0,0:0:0:0:
36,192,8046,1,0,0:0:0:0:
329,192,8046,1,0,0:0:0:0:
475,192,8046,1,0,0:0:0:0:
256,192,8046,1,0,0:0:0:0:
109,192,8046,1,0,0:0:0:0:
402,192,8046,1,0,0:0:0:0:
109,192,8066,1,0,0:0:0:0:
402,192,8066,1,0,0:0:0:0:
256,192,8066,1,0,0:0:0:0:
182,192,8066,128,0,8085:0:0:0:0:
329,192,8066,128,0,8085:0:0:0:0:
36,192,8066,1,0,0:0:0:0:
475,192,8066,1,0,0:0:0:0:
109,192,8085,1,0,0:0:0:0:
402,192,8085,1,0,0:0:0:0:
36,192,8085,1,0,0:0:0:0:
475,192,8085,1,0,0:0:0:0:
256,192,8085,1,0,0:0:0:0:
256,192,8105,1,0,0:0:0:0:
182,192,8105,1,0,0:0:0:0:
329,192,8105,1,0,0:0:0:0:
109,192,8105,128,0,8125:0:0:0:0:
402,192,8105,128,0,8125:0:0:0:0:
36,192,8105,1,0,0:0:0:0:
475,192,8105,1,0,0:0:0:0:
256,192,8125,1,0,0:0:0:0:
36,192,8125,1,0,0:0:0:0:
475,192,8125,1,0,0:0:0:0:
182,192,8125,1,0,0:0:0:0:
329,192,8125,1,0,0:0:0:0:
36,192,8437,128,0,8671:0:0:0:0:
182,192,8437,128,0,8671:0:0:0:0:
329,192,8437,128,0,8671:0:0:0:0:
475,192,8437,128,0,8671:0:0:0:0:
109,192,8437,1,0,0:0:0:0:
402,192,8437,1,0,0:0:0:0:
256,192,8437,1,0,0:0:0:0:
256,192,8457,1,0,0:0:0:0:
109,192,8457,1,0,0:0:0:0:
402,192,8457,1,0,0:0:0:0:
109,192,8463,1,0,0:0:0:0:
402,192,8463,1,0,0:0:0:0:
256,192,8463,1,0,0:0:0:0:
256,192,8476,1,0,0:0:0:0:
109,192,8476,1,0,0:0:0:0:
402,192,8476,1,0,0:0:0:0:
402,192,8489,1,0,0:0:0:0:
109,192,8489,1,0,0:0:0:0:
256,192,8489,1,0,0:0:0:0:
256,192,8496,1,0,0:0:0:0:
109,192,8496,1,0,0:0:0:0:
402,192,8496,1,0,0:0:0:0:
109,192,8515,1,0,0:0:0:0:
402,192,8515,1,0,0:0:0:0:
256,192,8515,1,0,0:0:0:0:
256,192,8535,1,0,0:0:0:0:
109,192,8535,1,0,0:0:0:0:
402,192,8535,1,0,0:0:0:0:
109,192,8541,1,0,0:0:0:0:
402,192,8541,1,0,0:0:0:0:
256,192,8541,1,0,0:0:0:0:
256,192,8554,1,0,0:0:0:0:
109,192,8554,1,0,0:0:0:0:
402,192,8554,1,0,0:0:0:0:
402,192,8567,1,0,0:0:0:0:
109,192,8567,1,0,0:0:0:0:
256,192,8567,1,0,0:0:0:0:
256,192,8574,1,0,0:0:0:0:
109,192,8574,1,0,0:0:0:0:
402,192,8574,1,0,0:0:0:0:
256,192,8593,1,0,0:0:0:0:
109,192,8593,1,0,0:0:0:0:
402,192,8593,1,0,0:0:0:0:
256,192,8613,1,0,0:0:0:0:
109,192,8613,1,0,0:0:0:0:
402,192,8613,1,0,0:0:0:0:
109,192,8619,1,0,0:0:0:0:
402,192,8619,1,0,0:0:0:0:
256,192,8619,1,0,0:0:0:0:
256,192,8632,1,0,0:0:0:0:
109,192,8632,1,0,0:0:0:0:
402,192,8632,1,0,0:0:0:0:
109,192,8645,1,0,0:0:0:0:
402,192,8645,1,0,0:0:0:0:
256,192,8645,1,0,0:0:0:0:
256,192,8652,1,0,0:0:0:0:
109,192,8652,1,0,0:0:0:0:
402,192,8652,1,0,0:0:0:0:
256,192,8671,1,0,0:0:0:0:
109,192,8671,1,0,0:0:0:0:
402,192,8671,1,0,0:0:0:0:
256,192,8691,1,0,0:0:0:0:
109,192,8691,1,0,0:0:0:0:
402,192,8691,1,0,0:0:0:0:
475,192,8691,1,0,0:0:0:0:
329,192,8691,1,0,0:0:0:0:
182,192,8691,1,0,0:0:0:0:
36,192,8691,1,0,0:0:0:0:
402,192,8697,1,0,0:0:0:0:
109,192,8697,1,0,0:0:0:0:
36,192,8697,1,0,0:0:0:0:
182,192,8697,1,0,0:0:0:0:
329,192,8697,1,0,0:0:0:0:
475,192,8697,1,0,0:0:0:0:
256,192,8697,1,0,0:0:0:0:
256,192,8710,1,0,0:0:0:0:
109,192,8710,1,0,0:0:0:0:
402,192,8710,1,0,0:0:0:0:
36,192,8710,1,0,0:0:0:0:
182,192,8710,1,0,0:0:0:0:
329,192,8710,1,0,0:0:0:0:
475,192,8710,1,0,0:0:0:0:
109,192,8723,1,0,0:0:0:0:
402,192,8723,1,0,0:0:0:0:
36,192,8723,1,0,0:0:0:0:
182,192,8723,1,0,0:0:0:0:
329,192,8723,1,0,0:0:0:0:
475,192,8723,1,0,0:0:0:0:
256,192,8723,1,0,0:0:0:0:
256,192,8730,1,0,0:0:0:0:
109,192,8730,1,0,0:0:0:0:
402,192,8730,1,0,0:0:0:0:
475,192,8730,1,0,0:0:0:0:
329,192,8730,1,0,0:0:0:0:
182,192,8730,1,0,0:0:0:0:
36,192,8730,1,0,0:0:0:0:
36,192,8750,1,0,0:0:0:0:
182,192,8750,1,0,0:0:0:0:
256,192,8750,1,0,0:0:0:0:
329,192,8750,1,0,0:0:0:0:
402,192,8750,1,0,0:0:0:0:
475,192,8750,1,0,0:0:0:0:
109,192,8750,1,0,0:0:0:0:
