osu file format v13

[General]
AudioFilename: Prelude in C minor.mp3
AudioLeadIn: 0
PreviewTime: -1
Countdown: 1
SampleSet: None
StackLeniency: 0.7
Mode: 3
LetterboxInBreaks: 1
SpecialStyle: 0
WidescreenStoryboard: 1

[Editor]
DistanceSpacing: 1
BeatDivisor: 16
GridSize: 8
TimelineZoom: 6.499996

[Metadata]
Title:The Wrath of ET Blocko
TitleUnicode:The Wrath of ET Blocko
Artist:iJinjin
ArtistUnicode:iJinjin
Creator:iJinjin
Version:7K ET 14+
Source:
Tags:
BeatmapID:573095
BeatmapSetID:249218

[Difficulty]
HPDrainRate:0
CircleSize:7
OverallDifficulty:10
ApproachRate:5
SliderMultiplier:1.4
SliderTickRate:1

[Events]
//Background and Video events
0,0,"blocko.png",0,0
//Break Periods
//Storyboard Layer 0 (Background)
//Storyboard Layer 1 (Fail)
//Storyboard Layer 2 (Pass)
//Storyboard Layer 3 (Foreground)
//Storyboard Sound Samples

[TimingPoints]
0,156.25,4,1,0,0,1,0

[HitObjects]
109,192,0,5,0,0:0:0:0:
256,192,0,1,0,0:0:0:0:
402,192,0,1,0,0:0:0:0:
329,192,0,1,0,0:0:0:0:
182,192,0,1,0,0:0:0:0:
36,192,0,1,0,0:0:0:0:
475,192,0,1,0,0:0:0:0:
475,192,9,1,0,0:0:0:0:
36,192,19,1,0,0:0:0:0:
109,192,19,1,0,0:0:0:0:
182,192,19,1,0,0:0:0:0:
256,192,19,1,0,0:0:0:0:
329,192,19,1,0,0:0:0:0:
402,192,19,1,0,0:0:0:0:
475,192,19,1,0,0:0:0:0:
475,192,39,1,0,0:0:0:0:
329,192,39,1,0,0:0:0:0:
256,192,39,1,0,0:0:0:0:
402,192,39,1,0,0:0:0:0:
182,192,39,1,0,0:0:0:0:
109,192,39,1,0,0:0:0:0:
36,192,39,1,0,0:0:0:0:
109,192,58,1,0,0:0:0:0:
36,192,58,1,0,0:0:0:0:
182,192,58,1,0,0:0:0:0:
256,192,58,1,0,0:0:0:0:
329,192,58,1,0,0:0:0:0:
402,192,58,1,0,0:0:0:0:
475,192,58,1,0,0:0:0:0:
475,192,78,1,0,0:0:0:0:
402,192,78,1,0,0:0:0:0:
256,192,78,1,0,0:0:0:0:
329,192,78,1,0,0:0:0:0:
109,192,78,1,0,0:0:0:0:
36,192,78,1,0,0:0:0:0:
182,192,78,1,0,0:0:0:0:
182,192,87,1,0,0:0:0:0:
109,192,97,1,0,0:0:0:0:
36,192,97,1,0,0:0:0:0:
256,192,97,1,0,0:0:0:0:
329,192,97,1,0,0:0:0:0:
402,192,97,1,0,0:0:0:0:
475,192,97,1,0,0:0:0:0:
182,192,97,1,0,0:0:0:0:
36,192,117,1,0,0:0:0:0:
109,192,117,1,0,0:0:0:0:
256,192,117,1,0,0:0:0:0:
329,192,117,1,0,0:0:0:0:
402,192,117,1,0,0:0:0:0:
475,192,117,1,0,0:0:0:0:
182,192,117,1,0,0:0:0:0:
402,192,136,1,0,0:0:0:0:
475,192,136,1,0,0:0:0:0:
329,192,136,1,0,0:0:0:0:
256,192,136,1,0,0:0:0:0:
36,192,136,1,0,0:0:0:0:
182,192,136,1,0,0:0:0:0:
109,192,136,1,0,0:0:0:0:
109,192,156,5,0,0:0:0:0:
256,192,156,1,0,0:0:0:0:
182,192,156,1,0,0:0:0:0:
36,192,156,1,0,0:0:0:0:
329,192,156,1,0,0:0:0:0:
475,192,156,1,0,0:0:0:0:
402,192,156,1,0,0:0:0:0:
402,192,166,1,0,0:0:0:0:
36,192,175,1,0,0:0:0:0:
256,192,175,1,0,0:0:0:0:
109,192,175,1,0,0:0:0:0:
329,192,175,1,0,0:0:0:0:
402,192,175,1,0,0:0:0:0:
475,192,175,1,0,0:0:0:0:
182,192,175,1,0,0:0:0:0:
475,192,195,1,0,0:0:0:0:
329,192,195,1,0,0:0:0:0:
256,192,195,1,0,0:0:0:0:
109,192,195,1,0,0:0:0:0:
36,192,195,1,0,0:0:0:0:
182,192,195,1,0,0:0:0:0:
402,192,195,1,0,0:0:0:0:
329,192,214,1,0,0:0:0:0:
36,192,214,1,0,0:0:0:0:
475,192,214,1,0,0:0:0:0:
256,192,214,1,0,0:0:0:0:
109,192,214,1,0,0:0:0:0:
182,192,214,1,0,0:0:0:0:
402,192,214,1,0,0:0:0:0:
36,192,234,1,0,0:0:0:0:
329,192,234,1,0,0:0:0:0:
182,192,234,1,0,0:0:0:0:
475,192,234,1,0,0:0:0:0:
109,192,234,1,0,0:0:0:0:
402,192,234,1,0,0:0:0:0:
256,192,234,1,0,0:0:0:0:
256,192,244,1,0,0:0:0:0:
182,192,253,1,0,0:0:0:0:
36,192,253,1,0,0:0:0:0:
402,192,253,1,0,0:0:0:0:
109,192,253,1,0,0:0:0:0:
475,192,253,1,0,0:0:0:0:
256,192,253,1,0,0:0:0:0:
329,192,253,1,0,0:0:0:0:
109,192,273,1,0,0:0:0:0:
182,192,273,1,0,0:0:0:0:
402,192,273,1,0,0:0:0:0:
329,192,273,1,0,0:0:0:0:
475,192,273,1,0,0:0:0:0:
36,192,273,1,0,0:0:0:0:
256,192,273,1,0,0:0:0:0:
402,192,292,1,0,0:0:0:0:
329,192,292,1,0,0:0:0:0:
36,192,292,1,0,0:0:0:0:
256,192,292,1,0,0:0:0:0:
475,192,292,1,0,0:0:0:0:
109,192,292,1,0,0:0:0:0:
182,192,292,1,0,0:0:0:0:
109,192,312,5,0,0:0:0:0:
329,192,312,1,0,0:0:0:0:
36,192,312,1,0,0:0:0:0:
256,192,312,1,0,0:0:0:0:
402,192,312,1,0,0:0:0:0:
182,192,312,1,0,0:0:0:0:
475,192,312,1,0,0:0:0:0:
475,192,322,1,0,0:0:0:0:
402,192,332,1,0,0:0:0:0:
475,192,332,1,0,0:0:0:0:
182,192,332,1,0,0:0:0:0:
329,192,332,1,0,0:0:0:0:
36,192,332,1,0,0:0:0:0:
256,192,332,1,0,0:0:0:0:
109,192,332,1,0,0:0:0:0:
109,192,351,1,0,0:0:0:0:
36,192,351,1,0,0:0:0:0:
475,192,351,1,0,0:0:0:0:
329,192,351,1,0,0:0:0:0:
256,192,351,1,0,0:0:0:0:
182,192,351,1,0,0:0:0:0:
402,192,351,1,0,0:0:0:0:
109,192,371,1,0,0:0:0:0:
402,192,371,1,0,0:0:0:0:
256,192,371,1,0,0:0:0:0:
329,192,371,1,0,0:0:0:0:
36,192,371,1,0,0:0:0:0:
475,192,371,1,0,0:0:0:0:
182,192,371,1,0,0:0:0:0:
475,192,390,1,0,0:0:0:0:
109,192,390,1,0,0:0:0:0:
182,192,390,1,0,0:0:0:0:
36,192,390,1,0,0:0:0:0:
329,192,390,1,0,0:0:0:0:
256,192,390,1,0,0:0:0:0:
402,192,390,1,0,0:0:0:0:
402,192,400,1,0,0:0:0:0:
475,192,410,1,0,0:0:0:0:
256,192,410,1,0,0:0:0:0:
329,192,410,1,0,0:0:0:0:
109,192,410,1,0,0:0:0:0:
182,192,410,1,0,0:0:0:0:
36,192,410,1,0,0:0:0:0:
402,192,410,1,0,0:0:0:0:
329,192,429,1,0,0:0:0:0:
475,192,429,1,0,0:0:0:0:
36,192,429,1,0,0:0:0:0:
402,192,429,1,0,0:0:0:0:
256,192,429,1,0,0:0:0:0:
182,192,429,1,0,0:0:0:0:
109,192,429,1,0,0:0:0:0:
475,192,449,1,0,0:0:0:0:
109,192,449,1,0,0:0:0:0:
182,192,449,1,0,0:0:0:0:
256,192,449,1,0,0:0:0:0:
402,192,449,1,0,0:0:0:0:
329,192,449,1,0,0:0:0:0:
36,192,449,1,0,0:0:0:0:
109,192,468,5,0,0:0:0:0:
256,192,468,1,0,0:0:0:0:
402,192,468,1,0,0:0:0:0:
182,192,468,1,0,0:0:0:0:
36,192,468,1,0,0:0:0:0:
475,192,468,1,0,0:0:0:0:
329,192,468,1,0,0:0:0:0:
329,192,478,1,0,0:0:0:0:
256,192,488,1,0,0:0:0:0:
109,192,488,1,0,0:0:0:0:
329,192,488,1,0,0:0:0:0:
402,192,488,1,0,0:0:0:0:
475,192,488,1,0,0:0:0:0:
182,192,488,1,0,0:0:0:0:
36,192,488,1,0,0:0:0:0:
475,192,507,1,0,0:0:0:0:
256,192,507,1,0,0:0:0:0:
402,192,507,1,0,0:0:0:0:
109,192,507,1,0,0:0:0:0:
182,192,507,1,0,0:0:0:0:
36,192,507,1,0,0:0:0:0:
329,192,507,1,0,0:0:0:0:
329,192,527,1,0,0:0:0:0:
36,192,527,1,0,0:0:0:0:
475,192,527,1,0,0:0:0:0:
256,192,527,1,0,0:0:0:0:
109,192,527,1,0,0:0:0:0:
182,192,527,1,0,0:0:0:0:
402,192,527,1,0,0:0:0:0:
36,192,546,1,0,0:0:0:0:
329,192,546,1,0,0:0:0:0:
182,192,546,1,0,0:0:0:0:
475,192,546,1,0,0:0:0:0:
402,192,546,1,0,0:0:0:0:
109,192,546,1,0,0:0:0:0:
256,192,546,1,0,0:0:0:0:
256,192,556,1,0,0:0:0:0:
182,192,566,1,0,0:0:0:0:
36,192,566,1,0,0:0:0:0:
402,192,566,1,0,0:0:0:0:
109,192,566,1,0,0:0:0:0:
475,192,566,1,0,0:0:0:0:
256,192,566,1,0,0:0:0:0:
329,192,566,1,0,0:0:0:0:
109,192,585,1,0,0:0:0:0:
256,192,585,1,0,0:0:0:0:
402,192,585,1,0,0:0:0:0:
329,192,585,1,0,0:0:0:0:
475,192,585,1,0,0:0:0:0:
36,192,585,1,0,0:0:0:0:
182,192,585,1,0,0:0:0:0:
402,192,605,1,0,0:0:0:0:
329,192,605,1,0,0:0:0:0:
36,192,605,1,0,0:0:0:0:
256,192,605,1,0,0:0:0:0:
475,192,605,1,0,0:0:0:0:
109,192,605,1,0,0:0:0:0:
182,192,605,1,0,0:0:0:0:
109,192,625,5,0,0:0:0:0:
329,192,625,1,0,0:0:0:0:
475,192,625,1,0,0:0:0:0:
36,192,625,1,0,0:0:0:0:
256,192,625,1,0,0:0:0:0:
182,192,625,1,0,0:0:0:0:
402,192,625,1,0,0:0:0:0:
402,192,634,1,0,0:0:0:0:
402,192,644,1,0,0:0:0:0:
475,192,644,1,0,0:0:0:0:
182,192,644,1,0,0:0:0:0:
329,192,644,1,0,0:0:0:0:
36,192,644,1,0,0:0:0:0:
256,192,644,1,0,0:0:0:0:
109,192,644,1,0,0:0:0:0:
109,192,664,1,0,0:0:0:0:
36,192,664,1,0,0:0:0:0:
182,192,664,1,0,0:0:0:0:
402,192,664,1,0,0:0:0:0:
475,192,664,1,0,0:0:0:0:
329,192,664,1,0,0:0:0:0:
256,192,664,1,0,0:0:0:0:
109,192,683,1,0,0:0:0:0:
182,192,683,1,0,0:0:0:0:
402,192,683,1,0,0:0:0:0:
256,192,683,1,0,0:0:0:0:
329,192,683,1,0,0:0:0:0:
36,192,683,1,0,0:0:0:0:
475,192,683,1,0,0:0:0:0:
475,192,703,1,0,0:0:0:0:
109,192,703,1,0,0:0:0:0:
402,192,703,1,0,0:0:0:0:
182,192,703,1,0,0:0:0:0:
36,192,703,1,0,0:0:0:0:
256,192,703,1,0,0:0:0:0:
329,192,703,1,0,0:0:0:0:
329,192,712,1,0,0:0:0:0:
475,192,722,1,0,0:0:0:0:
256,192,722,1,0,0:0:0:0:
329,192,722,1,0,0:0:0:0:
109,192,722,1,0,0:0:0:0:
182,192,722,1,0,0:0:0:0:
36,192,722,1,0,0:0:0:0:
402,192,722,1,0,0:0:0:0:
329,192,742,1,0,0:0:0:0:
475,192,742,1,0,0:0:0:0:
36,192,742,1,0,0:0:0:0:
402,192,742,1,0,0:0:0:0:
109,192,742,1,0,0:0:0:0:
256,192,742,1,0,0:0:0:0:
182,192,742,1,0,0:0:0:0:
475,192,761,1,0,0:0:0:0:
109,192,761,1,0,0:0:0:0:
182,192,761,1,0,0:0:0:0:
402,192,761,1,0,0:0:0:0:
329,192,761,1,0,0:0:0:0:
36,192,761,1,0,0:0:0:0:
256,192,761,1,0,0:0:0:0:
109,192,781,5,0,0:0:0:0:
402,192,781,1,0,0:0:0:0:
182,192,781,1,0,0:0:0:0:
36,192,781,1,0,0:0:0:0:
329,192,781,1,0,0:0:0:0:
475,192,781,1,0,0:0:0:0:
256,192,781,1,0,0:0:0:0:
256,192,791,1,0,0:0:0:0:
36,192,800,1,0,0:0:0:0:
256,192,800,1,0,0:0:0:0:
109,192,800,1,0,0:0:0:0:
329,192,800,1,0,0:0:0:0:
402,192,800,1,0,0:0:0:0:
475,192,800,1,0,0:0:0:0:
182,192,800,1,0,0:0:0:0:
475,192,820,1,0,0:0:0:0:
329,192,820,1,0,0:0:0:0:
256,192,820,1,0,0:0:0:0:
402,192,820,1,0,0:0:0:0:
109,192,820,1,0,0:0:0:0:
36,192,820,1,0,0:0:0:0:
182,192,820,1,0,0:0:0:0:
329,192,839,1,0,0:0:0:0:
36,192,839,1,0,0:0:0:0:
475,192,839,1,0,0:0:0:0:
256,192,839,1,0,0:0:0:0:
109,192,839,1,0,0:0:0:0:
402,192,839,1,0,0:0:0:0:
182,192,839,1,0,0:0:0:0:
36,192,859,1,0,0:0:0:0:
329,192,859,1,0,0:0:0:0:
256,192,859,1,0,0:0:0:0:
475,192,859,1,0,0:0:0:0:
109,192,859,1,0,0:0:0:0:
402,192,859,1,0,0:0:0:0:
182,192,859,1,0,0:0:0:0:
182,192,869,1,0,0:0:0:0:
182,192,878,1,0,0:0:0:0:
36,192,878,1,0,0:0:0:0:
402,192,878,1,0,0:0:0:0:
109,192,878,1,0,0:0:0:0:
475,192,878,1,0,0:0:0:0:
256,192,878,1,0,0:0:0:0:
329,192,878,1,0,0:0:0:0:
109,192,898,1,0,0:0:0:0:
256,192,898,1,0,0:0:0:0:
182,192,898,1,0,0:0:0:0:
402,192,898,1,0,0:0:0:0:
329,192,898,1,0,0:0:0:0:
475,192,898,1,0,0:0:0:0:
36,192,898,1,0,0:0:0:0:
402,192,917,1,0,0:0:0:0:
329,192,917,1,0,0:0:0:0:
36,192,917,1,0,0:0:0:0:
256,192,917,1,0,0:0:0:0:
475,192,917,1,0,0:0:0:0:
109,192,917,1,0,0:0:0:0:
182,192,917,1,0,0:0:0:0:
475,192,937,1,0,0:0:0:0:
36,192,937,1,0,0:0:0:0:
256,192,937,1,0,0:0:0:0:
402,192,937,1,0,0:0:0:0:
182,192,937,1,0,0:0:0:0:
109,192,937,1,0,0:0:0:0:
329,192,937,1,0,0:0:0:0:
329,192,947,1,0,0:0:0:0:
402,192,957,1,0,0:0:0:0:
475,192,957,1,0,0:0:0:0:
182,192,957,1,0,0:0:0:0:
329,192,957,1,0,0:0:0:0:
36,192,957,1,0,0:0:0:0:
256,192,957,1,0,0:0:0:0:
109,192,957,1,0,0:0:0:0:
109,192,976,1,0,0:0:0:0:
36,192,976,1,0,0:0:0:0:
182,192,976,1,0,0:0:0:0:
402,192,976,1,0,0:0:0:0:
475,192,976,1,0,0:0:0:0:
329,192,976,1,0,0:0:0:0:
256,192,976,1,0,0:0:0:0:
109,192,996,1,0,0:0:0:0:
182,192,996,1,0,0:0:0:0:
402,192,996,1,0,0:0:0:0:
256,192,996,1,0,0:0:0:0:
329,192,996,1,0,0:0:0:0:
36,192,996,1,0,0:0:0:0:
475,192,996,1,0,0:0:0:0:
475,192,1015,1,0,0:0:0:0:
109,192,1015,1,0,0:0:0:0:
402,192,1015,1,0,0:0:0:0:
182,192,1015,1,0,0:0:0:0:
36,192,1015,1,0,0:0:0:0:
329,192,1015,1,0,0:0:0:0:
256,192,1015,1,0,0:0:0:0:
256,192,1025,1,0,0:0:0:0:
475,192,1035,1,0,0:0:0:0:
256,192,1035,1,0,0:0:0:0:
329,192,1035,1,0,0:0:0:0:
109,192,1035,1,0,0:0:0:0:
182,192,1035,1,0,0:0:0:0:
36,192,1035,1,0,0:0:0:0:
402,192,1035,1,0,0:0:0:0:
329,192,1054,1,0,0:0:0:0:
475,192,1054,1,0,0:0:0:0:
36,192,1054,1,0,0:0:0:0:
402,192,1054,1,0,0:0:0:0:
109,192,1054,1,0,0:0:0:0:
256,192,1054,1,0,0:0:0:0:
182,192,1054,1,0,0:0:0:0:
475,192,1074,1,0,0:0:0:0:
109,192,1074,1,0,0:0:0:0:
182,192,1074,1,0,0:0:0:0:
256,192,1074,1,0,0:0:0:0:
402,192,1074,1,0,0:0:0:0:
329,192,1074,1,0,0:0:0:0:
36,192,1074,1,0,0:0:0:0:
109,192,1093,5,0,0:0:0:0:
256,192,1093,1,0,0:0:0:0:
402,192,1093,1,0,0:0:0:0:
36,192,1093,1,0,0:0:0:0:
329,192,1093,1,0,0:0:0:0:
475,192,1093,1,0,0:0:0:0:
182,192,1093,1,0,0:0:0:0:
182,192,1103,1,0,0:0:0:0:
36,192,1113,1,0,0:0:0:0:
256,192,1113,1,0,0:0:0:0:
109,192,1113,1,0,0:0:0:0:
329,192,1113,1,0,0:0:0:0:
402,192,1113,1,0,0:0:0:0:
475,192,1113,1,0,0:0:0:0:
182,192,1113,1,0,0:0:0:0:
475,192,1132,1,0,0:0:0:0:
329,192,1132,1,0,0:0:0:0:
256,192,1132,1,0,0:0:0:0:
402,192,1132,1,0,0:0:0:0:
109,192,1132,1,0,0:0:0:0:
36,192,1132,1,0,0:0:0:0:
182,192,1132,1,0,0:0:0:0:
329,192,1152,1,0,0:0:0:0:
36,192,1152,1,0,0:0:0:0:
475,192,1152,1,0,0:0:0:0:
256,192,1152,1,0,0:0:0:0:
109,192,1152,1,0,0:0:0:0:
182,192,1152,1,0,0:0:0:0:
402,192,1152,1,0,0:0:0:0:
36,192,1171,1,0,0:0:0:0:
329,192,1171,1,0,0:0:0:0:
182,192,1171,1,0,0:0:0:0:
475,192,1171,1,0,0:0:0:0:
402,192,1171,1,0,0:0:0:0:
109,192,1171,1,0,0:0:0:0:
256,192,1171,1,0,0:0:0:0:
256,192,1181,1,0,0:0:0:0:
182,192,1191,1,0,0:0:0:0:
36,192,1191,1,0,0:0:0:0:
402,192,1191,1,0,0:0:0:0:
109,192,1191,1,0,0:0:0:0:
475,192,1191,1,0,0:0:0:0:
256,192,1191,1,0,0:0:0:0:
329,192,1191,1,0,0:0:0:0:
109,192,1210,1,0,0:0:0:0:
256,192,1210,1,0,0:0:0:0:
182,192,1210,1,0,0:0:0:0:
402,192,1210,1,0,0:0:0:0:
329,192,1210,1,0,0:0:0:0:
475,192,1210,1,0,0:0:0:0:
36,192,1210,1,0,0:0:0:0:
402,192,1230,1,0,0:0:0:0:
329,192,1230,1,0,0:0:0:0:
36,192,1230,1,0,0:0:0:0:
256,192,1230,1,0,0:0:0:0:
475,192,1230,1,0,0:0:0:0:
109,192,1230,1,0,0:0:0:0:
182,192,1230,1,0,0:0:0:0:
182,192,1250,1,0,0:0:0:0:
36,192,1250,1,0,0:0:0:0:
402,192,1250,1,0,0:0:0:0:
475,192,1250,1,0,0:0:0:0:
329,192,1250,1,0,0:0:0:0:
256,192,1250,1,0,0:0:0:0:
109,192,1250,1,0,0:0:0:0:
256,192,1269,1,0,0:0:0:0:
109,192,1269,1,0,0:0:0:0:
329,192,1269,1,0,0:0:0:0:
402,192,1269,1,0,0:0:0:0:
182,192,1269,1,0,0:0:0:0:
36,192,1269,1,0,0:0:0:0:
475,192,1269,1,0,0:0:0:0:
475,192,1279,1,0,0:0:0:0:
402,192,1289,1,0,0:0:0:0:
329,192,1289,1,0,0:0:0:0:
256,192,1289,1,0,0:0:0:0:
36,192,1289,1,0,0:0:0:0:
182,192,1289,1,0,0:0:0:0:
475,192,1289,1,0,0:0:0:0:
109,192,1289,1,0,0:0:0:0:
109,192,1308,5,0,0:0:0:0:
36,192,1308,1,0,0:0:0:0:
402,192,1308,1,0,0:0:0:0:
329,192,1308,1,0,0:0:0:0:
182,192,1308,1,0,0:0:0:0:
256,192,1308,1,0,0:0:0:0:
475,192,1308,1,0,0:0:0:0:
182,192,1328,1,0,0:0:0:0:
36,192,1328,1,0,0:0:0:0:
109,192,1328,1,0,0:0:0:0:
402,192,1328,1,0,0:0:0:0:
329,192,1328,1,0,0:0:0:0:
475,192,1328,1,0,0:0:0:0:
256,192,1328,1,0,0:0:0:0:
256,192,1337,1,0,0:0:0:0:
329,192,1347,1,0,0:0:0:0:
182,192,1347,1,0,0:0:0:0:
109,192,1347,1,0,0:0:0:0:
256,192,1347,1,0,0:0:0:0:
475,192,1347,1,0,0:0:0:0:
402,192,1347,1,0,0:0:0:0:
36,192,1347,1,0,0:0:0:0:
182,192,1367,1,0,0:0:0:0:
36,192,1367,1,0,0:0:0:0:
256,192,1367,1,0,0:0:0:0:
329,192,1367,1,0,0:0:0:0:
402,192,1367,1,0,0:0:0:0:
475,192,1367,1,0,0:0:0:0:
109,192,1367,1,0,0:0:0:0:
36,192,1386,1,0,0:0:0:0:
256,192,1386,1,0,0:0:0:0:
109,192,1386,1,0,0:0:0:0:
329,192,1386,1,0,0:0:0:0:
475,192,1386,1,0,0:0:0:0:
402,192,1386,1,0,0:0:0:0:
182,192,1386,1,0,0:0:0:0:
36,192,1406,1,0,0:0:0:0:
109,192,1406,1,0,0:0:0:0:
256,192,1406,1,0,0:0:0:0:
475,192,1406,1,0,0:0:0:0:
182,192,1406,1,0,0:0:0:0:
329,192,1406,1,0,0:0:0:0:
402,192,1406,1,0,0:0:0:0:
402,192,1416,1,0,0:0:0:0:
182,192,1425,1,0,0:0:0:0:
109,192,1425,1,0,0:0:0:0:
36,192,1425,1,0,0:0:0:0:
329,192,1425,1,0,0:0:0:0:
256,192,1425,1,0,0:0:0:0:
402,192,1425,1,0,0:0:0:0:
475,192,1425,1,0,0:0:0:0:
109,192,1445,1,0,0:0:0:0:
329,192,1445,1,0,0:0:0:0:
256,192,1445,1,0,0:0:0:0:
402,192,1445,1,0,0:0:0:0:
182,192,1445,1,0,0:0:0:0:
475,192,1445,1,0,0:0:0:0:
36,192,1445,1,0,0:0:0:0:
109,192,1464,5,0,0:0:0:0:
402,192,1464,1,0,0:0:0:0:
475,192,1464,1,0,0:0:0:0:
36,192,1464,1,0,0:0:0:0:
182,192,1464,1,0,0:0:0:0:
256,192,1464,1,0,0:0:0:0:
329,192,1464,1,0,0:0:0:0:
109,192,1484,1,0,0:0:0:0:
36,192,1484,1,0,0:0:0:0:
402,192,1484,1,0,0:0:0:0:
182,192,1484,1,0,0:0:0:0:
256,192,1484,1,0,0:0:0:0:
475,192,1484,1,0,0:0:0:0:
329,192,1484,1,0,0:0:0:0:
329,192,1494,1,0,0:0:0:0:
36,192,1503,1,0,0:0:0:0:
402,192,1503,1,0,0:0:0:0:
329,192,1503,1,0,0:0:0:0:
475,192,1503,1,0,0:0:0:0:
182,192,1503,1,0,0:0:0:0:
109,192,1503,1,0,0:0:0:0:
256,192,1503,1,0,0:0:0:0:
402,192,1523,1,0,0:0:0:0:
109,192,1523,1,0,0:0:0:0:
475,192,1523,1,0,0:0:0:0:
329,192,1523,1,0,0:0:0:0:
256,192,1523,1,0,0:0:0:0:
182,192,1523,1,0,0:0:0:0:
36,192,1523,1,0,0:0:0:0:
182,192,1542,1,0,0:0:0:0:
109,192,1542,1,0,0:0:0:0:
329,192,1542,1,0,0:0:0:0:
36,192,1542,1,0,0:0:0:0:
402,192,1542,1,0,0:0:0:0:
475,192,1542,1,0,0:0:0:0:
256,192,1542,1,0,0:0:0:0:
329,192,1562,1,0,0:0:0:0:
475,192,1562,1,0,0:0:0:0:
402,192,1562,1,0,0:0:0:0:
182,192,1562,1,0,0:0:0:0:
109,192,1562,1,0,0:0:0:0:
36,192,1562,1,0,0:0:0:0:
256,192,1562,1,0,0:0:0:0:
256,192,1572,1,0,0:0:0:0:
182,192,1582,1,0,0:0:0:0:
36,192,1582,1,0,0:0:0:0:
109,192,1582,1,0,0:0:0:0:
329,192,1582,1,0,0:0:0:0:
256,192,1582,1,0,0:0:0:0:
402,192,1582,1,0,0:0:0:0:
475,192,1582,1,0,0:0:0:0:
402,192,1601,1,0,0:0:0:0:
36,192,1601,1,0,0:0:0:0:
475,192,1601,1,0,0:0:0:0:
329,192,1601,1,0,0:0:0:0:
109,192,1601,1,0,0:0:0:0:
182,192,1601,1,0,0:0:0:0:
256,192,1601,1,0,0:0:0:0:
329,192,1621,1,0,0:0:0:0:
256,192,1621,1,0,0:0:0:0:
109,192,1621,1,0,0:0:0:0:
475,192,1621,1,0,0:0:0:0:
182,192,1621,1,0,0:0:0:0:
36,192,1621,1,0,0:0:0:0:
402,192,1621,1,0,0:0:0:0:
402,192,1640,1,0,0:0:0:0:
36,192,1640,1,0,0:0:0:0:
329,192,1640,1,0,0:0:0:0:
475,192,1640,1,0,0:0:0:0:
256,192,1640,1,0,0:0:0:0:
109,192,1640,1,0,0:0:0:0:
182,192,1640,1,0,0:0:0:0:
182,192,1650,1,0,0:0:0:0:
182,192,1660,1,0,0:0:0:0:
475,192,1660,1,0,0:0:0:0:
109,192,1660,1,0,0:0:0:0:
36,192,1660,1,0,0:0:0:0:
402,192,1660,1,0,0:0:0:0:
329,192,1660,1,0,0:0:0:0:
256,192,1660,1,0,0:0:0:0:
109,192,1679,5,0,0:0:0:0:
256,192,1679,1,0,0:0:0:0:
475,192,1679,1,0,0:0:0:0:
182,192,1679,1,0,0:0:0:0:
36,192,1679,1,0,0:0:0:0:
402,192,1679,1,0,0:0:0:0:
329,192,1679,1,0,0:0:0:0:
329,192,1699,1,0,0:0:0:0:
475,192,1699,1,0,0:0:0:0:
256,192,1699,1,0,0:0:0:0:
402,192,1699,1,0,0:0:0:0:
182,192,1699,1,0,0:0:0:0:
36,192,1699,1,0,0:0:0:0:
109,192,1699,1,0,0:0:0:0:
475,192,1718,1,0,0:0:0:0:
402,192,1718,1,0,0:0:0:0:
36,192,1718,1,0,0:0:0:0:
256,192,1718,1,0,0:0:0:0:
182,192,1718,1,0,0:0:0:0:
109,192,1718,1,0,0:0:0:0:
329,192,1718,1,0,0:0:0:0:
329,192,1728,1,0,0:0:0:0:
402,192,1738,1,0,0:0:0:0:
475,192,1738,1,0,0:0:0:0:
109,192,1738,1,0,0:0:0:0:
329,192,1738,1,0,0:0:0:0:
182,192,1738,1,0,0:0:0:0:
36,192,1738,1,0,0:0:0:0:
256,192,1738,1,0,0:0:0:0:
475,192,1757,1,0,0:0:0:0:
402,192,1757,1,0,0:0:0:0:
182,192,1757,1,0,0:0:0:0:
329,192,1757,1,0,0:0:0:0:
36,192,1757,1,0,0:0:0:0:
256,192,1757,1,0,0:0:0:0:
109,192,1757,1,0,0:0:0:0:
182,192,1777,1,0,0:0:0:0:
402,192,1777,1,0,0:0:0:0:
329,192,1777,1,0,0:0:0:0:
475,192,1777,1,0,0:0:0:0:
36,192,1777,1,0,0:0:0:0:
109,192,1777,1,0,0:0:0:0:
256,192,1777,1,0,0:0:0:0:
256,192,1796,1,0,0:0:0:0:
402,192,1796,1,0,0:0:0:0:
475,192,1796,1,0,0:0:0:0:
329,192,1796,1,0,0:0:0:0:
109,192,1796,1,0,0:0:0:0:
36,192,1796,1,0,0:0:0:0:
182,192,1796,1,0,0:0:0:0:
182,192,1806,1,0,0:0:0:0:
182,192,1816,1,0,0:0:0:0:
475,192,1816,1,0,0:0:0:0:
36,192,1816,1,0,0:0:0:0:
402,192,1816,1,0,0:0:0:0:
109,192,1816,1,0,0:0:0:0:
329,192,1816,1,0,0:0:0:0:
256,192,1816,1,0,0:0:0:0:
109,192,1835,5,0,0:0:0:0:
256,192,1835,1,0,0:0:0:0:
329,192,1835,1,0,0:0:0:0:
182,192,1835,1,0,0:0:0:0:
402,192,1835,1,0,0:0:0:0:
475,192,1835,1,0,0:0:0:0:
36,192,1835,1,0,0:0:0:0:
256,192,1855,1,0,0:0:0:0:
329,192,1855,1,0,0:0:0:0:
475,192,1855,1,0,0:0:0:0:
182,192,1855,1,0,0:0:0:0:
109,192,1855,1,0,0:0:0:0:
36,192,1855,1,0,0:0:0:0:
402,192,1855,1,0,0:0:0:0:
182,192,1875,1,0,0:0:0:0:
109,192,1875,1,0,0:0:0:0:
256,192,1875,1,0,0:0:0:0:
475,192,1875,1,0,0:0:0:0:
36,192,1875,1,0,0:0:0:0:
329,192,1875,1,0,0:0:0:0:
402,192,1875,1,0,0:0:0:0:
402,192,1884,1,0,0:0:0:0:
256,192,1894,1,0,0:0:0:0:
182,192,1894,1,0,0:0:0:0:
36,192,1894,1,0,0:0:0:0:
329,192,1894,1,0,0:0:0:0:
402,192,1894,1,0,0:0:0:0:
109,192,1894,1,0,0:0:0:0:
475,192,1894,1,0,0:0:0:0:
402,192,1914,1,0,0:0:0:0:
475,192,1914,1,0,0:0:0:0:
256,192,1914,1,0,0:0:0:0:
36,192,1914,1,0,0:0:0:0:
182,192,1914,1,0,0:0:0:0:
109,192,1914,1,0,0:0:0:0:
329,192,1914,1,0,0:0:0:0:
256,192,1933,1,0,0:0:0:0:
109,192,1933,1,0,0:0:0:0:
36,192,1933,1,0,0:0:0:0:
182,192,1933,1,0,0:0:0:0:
329,192,1933,1,0,0:0:0:0:
475,192,1933,1,0,0:0:0:0:
402,192,1933,1,0,0:0:0:0:
256,192,1953,1,0,0:0:0:0:
402,192,1953,1,0,0:0:0:0:
475,192,1953,1,0,0:0:0:0:
182,192,1953,1,0,0:0:0:0:
36,192,1953,1,0,0:0:0:0:
109,192,1953,1,0,0:0:0:0:
329,192,1953,1,0,0:0:0:0:
329,192,1962,1,0,0:0:0:0:
109,192,1972,1,0,0:0:0:0:
182,192,1972,1,0,0:0:0:0:
256,192,1972,1,0,0:0:0:0:
329,192,1972,1,0,0:0:0:0:
402,192,1972,1,0,0:0:0:0:
36,192,1972,1,0,0:0:0:0:
475,192,1972,1,0,0:0:0:0:
182,192,1992,1,0,0:0:0:0:
36,192,1992,1,0,0:0:0:0:
402,192,1992,1,0,0:0:0:0:
475,192,1992,1,0,0:0:0:0:
329,192,1992,1,0,0:0:0:0:
256,192,1992,1,0,0:0:0:0:
109,192,1992,1,0,0:0:0:0:
475,192,2011,1,0,0:0:0:0:
256,192,2011,1,0,0:0:0:0:
109,192,2011,1,0,0:0:0:0:
329,192,2011,1,0,0:0:0:0:
402,192,2011,1,0,0:0:0:0:
182,192,2011,1,0,0:0:0:0:
36,192,2011,1,0,0:0:0:0:
402,192,2031,1,0,0:0:0:0:
329,192,2031,1,0,0:0:0:0:
36,192,2031,1,0,0:0:0:0:
182,192,2031,1,0,0:0:0:0:
475,192,2031,1,0,0:0:0:0:
109,192,2031,1,0,0:0:0:0:
256,192,2031,1,0,0:0:0:0:
256,192,2041,1,0,0:0:0:0:
109,192,2050,5,0,0:0:0:0:
36,192,2050,1,0,0:0:0:0:
402,192,2050,1,0,0:0:0:0:
329,192,2050,1,0,0:0:0:0:
182,192,2050,1,0,0:0:0:0:
256,192,2050,1,0,0:0:0:0:
475,192,2050,1,0,0:0:0:0:
182,192,2070,1,0,0:0:0:0:
36,192,2070,1,0,0:0:0:0:
109,192,2070,1,0,0:0:0:0:
402,192,2070,1,0,0:0:0:0:
329,192,2070,1,0,0:0:0:0:
475,192,2070,1,0,0:0:0:0:
256,192,2070,1,0,0:0:0:0:
329,192,2089,1,0,0:0:0:0:
182,192,2089,1,0,0:0:0:0:
109,192,2089,1,0,0:0:0:0:
256,192,2089,1,0,0:0:0:0:
475,192,2089,1,0,0:0:0:0:
402,192,2089,1,0,0:0:0:0:
36,192,2089,1,0,0:0:0:0:
36,192,2109,1,0,0:0:0:0:
256,192,2109,1,0,0:0:0:0:
329,192,2109,1,0,0:0:0:0:
402,192,2109,1,0,0:0:0:0:
475,192,2109,1,0,0:0:0:0:
109,192,2109,1,0,0:0:0:0:
182,192,2109,1,0,0:0:0:0:
182,192,2119,1,0,0:0:0:0:
36,192,2128,1,0,0:0:0:0:
256,192,2128,1,0,0:0:0:0:
109,192,2128,1,0,0:0:0:0:
329,192,2128,1,0,0:0:0:0:
475,192,2128,1,0,0:0:0:0:
402,192,2128,1,0,0:0:0:0:
182,192,2128,1,0,0:0:0:0:
36,192,2148,1,0,0:0:0:0:
109,192,2148,1,0,0:0:0:0:
256,192,2148,1,0,0:0:0:0:
475,192,2148,1,0,0:0:0:0:
182,192,2148,1,0,0:0:0:0:
402,192,2148,1,0,0:0:0:0:
329,192,2148,1,0,0:0:0:0:
182,192,2167,1,0,0:0:0:0:
109,192,2167,1,0,0:0:0:0:
36,192,2167,1,0,0:0:0:0:
329,192,2167,1,0,0:0:0:0:
256,192,2167,1,0,0:0:0:0:
402,192,2167,1,0,0:0:0:0:
475,192,2167,1,0,0:0:0:0:
109,192,2187,1,0,0:0:0:0:
329,192,2187,1,0,0:0:0:0:
402,192,2187,1,0,0:0:0:0:
182,192,2187,1,0,0:0:0:0:
475,192,2187,1,0,0:0:0:0:
36,192,2187,1,0,0:0:0:0:
256,192,2187,1,0,0:0:0:0:
256,192,2197,1,0,0:0:0:0:
109,192,2207,5,0,0:0:0:0:
402,192,2207,1,0,0:0:0:0:
475,192,2207,1,0,0:0:0:0:
36,192,2207,1,0,0:0:0:0:
182,192,2207,1,0,0:0:0:0:
256,192,2207,1,0,0:0:0:0:
329,192,2207,1,0,0:0:0:0:
109,192,2226,1,0,0:0:0:0:
36,192,2226,1,0,0:0:0:0:
402,192,2226,1,0,0:0:0:0:
182,192,2226,1,0,0:0:0:0:
256,192,2226,1,0,0:0:0:0:
329,192,2226,1,0,0:0:0:0:
475,192,2226,1,0,0:0:0:0:
36,192,2246,1,0,0:0:0:0:
402,192,2246,1,0,0:0:0:0:
329,192,2246,1,0,0:0:0:0:
475,192,2246,1,0,0:0:0:0:
182,192,2246,1,0,0:0:0:0:
109,192,2246,1,0,0:0:0:0:
256,192,2246,1,0,0:0:0:0:
402,192,2265,1,0,0:0:0:0:
109,192,2265,1,0,0:0:0:0:
475,192,2265,1,0,0:0:0:0:
329,192,2265,1,0,0:0:0:0:
256,192,2265,1,0,0:0:0:0:
36,192,2265,1,0,0:0:0:0:
182,192,2265,1,0,0:0:0:0:
182,192,2275,1,0,0:0:0:0:
182,192,2285,1,0,0:0:0:0:
109,192,2285,1,0,0:0:0:0:
329,192,2285,1,0,0:0:0:0:
36,192,2285,1,0,0:0:0:0:
402,192,2285,1,0,0:0:0:0:
475,192,2285,1,0,0:0:0:0:
256,192,2285,1,0,0:0:0:0:
329,192,2304,1,0,0:0:0:0:
475,192,2304,1,0,0:0:0:0:
402,192,2304,1,0,0:0:0:0:
182,192,2304,1,0,0:0:0:0:
256,192,2304,1,0,0:0:0:0:
109,192,2304,1,0,0:0:0:0:
36,192,2304,1,0,0:0:0:0:
182,192,2324,1,0,0:0:0:0:
36,192,2324,1,0,0:0:0:0:
109,192,2324,1,0,0:0:0:0:
329,192,2324,1,0,0:0:0:0:
256,192,2324,1,0,0:0:0:0:
402,192,2324,1,0,0:0:0:0:
475,192,2324,1,0,0:0:0:0:
402,192,2343,1,0,0:0:0:0:
36,192,2343,1,0,0:0:0:0:
475,192,2343,1,0,0:0:0:0:
329,192,2343,1,0,0:0:0:0:
182,192,2343,1,0,0:0:0:0:
256,192,2343,1,0,0:0:0:0:
109,192,2343,1,0,0:0:0:0:
109,192,2353,1,0,0:0:0:0:
329,192,2363,1,0,0:0:0:0:
256,192,2363,1,0,0:0:0:0:
109,192,2363,1,0,0:0:0:0:
475,192,2363,1,0,0:0:0:0:
182,192,2363,1,0,0:0:0:0:
36,192,2363,1,0,0:0:0:0:
402,192,2363,1,0,0:0:0:0:
402,192,2382,1,0,0:0:0:0:
182,192,2382,1,0,0:0:0:0:
36,192,2382,1,0,0:0:0:0:
329,192,2382,1,0,0:0:0:0:
475,192,2382,1,0,0:0:0:0:
256,192,2382,1,0,0:0:0:0:
109,192,2382,1,0,0:0:0:0:
182,192,2402,1,0,0:0:0:0:
475,192,2402,1,0,0:0:0:0:
109,192,2402,1,0,0:0:0:0:
36,192,2402,1,0,0:0:0:0:
402,192,2402,1,0,0:0:0:0:
329,192,2402,1,0,0:0:0:0:
256,192,2402,1,0,0:0:0:0:
109,192,2421,5,0,0:0:0:0:
256,192,2421,1,0,0:0:0:0:
475,192,2421,1,0,0:0:0:0:
182,192,2421,1,0,0:0:0:0:
402,192,2421,1,0,0:0:0:0:
329,192,2421,1,0,0:0:0:0:
36,192,2421,1,0,0:0:0:0:
36,192,2431,1,0,0:0:0:0:
329,192,2441,1,0,0:0:0:0:
475,192,2441,1,0,0:0:0:0:
256,192,2441,1,0,0:0:0:0:
402,192,2441,1,0,0:0:0:0:
182,192,2441,1,0,0:0:0:0:
36,192,2441,1,0,0:0:0:0:
109,192,2441,1,0,0:0:0:0:
475,192,2460,1,0,0:0:0:0:
402,192,2460,1,0,0:0:0:0:
36,192,2460,1,0,0:0:0:0:
256,192,2460,1,0,0:0:0:0:
329,192,2460,1,0,0:0:0:0:
182,192,2460,1,0,0:0:0:0:
109,192,2460,1,0,0:0:0:0:
402,192,2480,1,0,0:0:0:0:
475,192,2480,1,0,0:0:0:0:
109,192,2480,1,0,0:0:0:0:
329,192,2480,1,0,0:0:0:0:
182,192,2480,1,0,0:0:0:0:
36,192,2480,1,0,0:0:0:0:
256,192,2480,1,0,0:0:0:0:
402,192,2500,1,0,0:0:0:0:
182,192,2500,1,0,0:0:0:0:
329,192,2500,1,0,0:0:0:0:
256,192,2500,1,0,0:0:0:0:
109,192,2500,1,0,0:0:0:0:
36,192,2500,1,0,0:0:0:0:
475,192,2500,1,0,0:0:0:0:
36,192,2509,1,0,0:0:0:0:
475,192,2509,1,0,0:0:0:0:
182,192,2519,1,0,0:0:0:0:
402,192,2519,1,0,0:0:0:0:
329,192,2519,1,0,0:0:0:0:
475,192,2519,1,0,0:0:0:0:
109,192,2519,1,0,0:0:0:0:
256,192,2519,1,0,0:0:0:0:
36,192,2519,1,0,0:0:0:0:
256,192,2539,1,0,0:0:0:0:
402,192,2539,1,0,0:0:0:0:
475,192,2539,1,0,0:0:0:0:
329,192,2539,1,0,0:0:0:0:
182,192,2539,1,0,0:0:0:0:
109,192,2539,1,0,0:0:0:0:
36,192,2539,1,0,0:0:0:0:
182,192,2558,1,0,0:0:0:0:
475,192,2558,1,0,0:0:0:0:
36,192,2558,1,0,0:0:0:0:
402,192,2558,1,0,0:0:0:0:
109,192,2558,1,0,0:0:0:0:
329,192,2558,1,0,0:0:0:0:
256,192,2558,1,0,0:0:0:0:
256,192,2578,1,0,0:0:0:0:
329,192,2578,1,0,0:0:0:0:
182,192,2578,1,0,0:0:0:0:
402,192,2578,1,0,0:0:0:0:
475,192,2578,1,0,0:0:0:0:
36,192,2578,1,0,0:0:0:0:
109,192,2578,1,0,0:0:0:0:
109,192,2587,1,0,0:0:0:0:
256,192,2597,1,0,0:0:0:0:
329,192,2597,1,0,0:0:0:0:
475,192,2597,1,0,0:0:0:0:
182,192,2597,1,0,0:0:0:0:
36,192,2597,1,0,0:0:0:0:
402,192,2597,1,0,0:0:0:0:
109,192,2597,1,0,0:0:0:0:
182,192,2617,1,0,0:0:0:0:
109,192,2617,1,0,0:0:0:0:
256,192,2617,1,0,0:0:0:0:
475,192,2617,1,0,0:0:0:0:
36,192,2617,1,0,0:0:0:0:
402,192,2617,1,0,0:0:0:0:
329,192,2617,1,0,0:0:0:0:
256,192,2636,1,0,0:0:0:0:
182,192,2636,1,0,0:0:0:0:
36,192,2636,1,0,0:0:0:0:
329,192,2636,1,0,0:0:0:0:
402,192,2636,1,0,0:0:0:0:
109,192,2636,1,0,0:0:0:0:
475,192,2636,1,0,0:0:0:0:
402,192,2656,1,0,0:0:0:0:
475,192,2656,1,0,0:0:0:0:
256,192,2656,1,0,0:0:0:0:
36,192,2656,1,0,0:0:0:0:
109,192,2656,1,0,0:0:0:0:
329,192,2656,1,0,0:0:0:0:
182,192,2656,1,0,0:0:0:0:
182,192,2666,1,0,0:0:0:0:
256,192,2675,1,0,0:0:0:0:
109,192,2675,1,0,0:0:0:0:
36,192,2675,1,0,0:0:0:0:
182,192,2675,1,0,0:0:0:0:
329,192,2675,1,0,0:0:0:0:
475,192,2675,1,0,0:0:0:0:
402,192,2675,1,0,0:0:0:0:
256,192,2695,1,0,0:0:0:0:
402,192,2695,1,0,0:0:0:0:
475,192,2695,1,0,0:0:0:0:
329,192,2695,1,0,0:0:0:0:
182,192,2695,1,0,0:0:0:0:
36,192,2695,1,0,0:0:0:0:
109,192,2695,1,0,0:0:0:0:
109,192,2714,1,0,0:0:0:0:
182,192,2714,1,0,0:0:0:0:
256,192,2714,1,0,0:0:0:0:
329,192,2714,1,0,0:0:0:0:
402,192,2714,1,0,0:0:0:0:
36,192,2714,1,0,0:0:0:0:
475,192,2714,1,0,0:0:0:0:
182,192,2734,1,0,0:0:0:0:
36,192,2734,1,0,0:0:0:0:
402,192,2734,1,0,0:0:0:0:
475,192,2734,1,0,0:0:0:0:
329,192,2734,1,0,0:0:0:0:
109,192,2734,1,0,0:0:0:0:
256,192,2734,1,0,0:0:0:0:
256,192,2744,1,0,0:0:0:0:
475,192,2753,1,0,0:0:0:0:
256,192,2753,1,0,0:0:0:0:
109,192,2753,1,0,0:0:0:0:
329,192,2753,1,0,0:0:0:0:
402,192,2753,1,0,0:0:0:0:
182,192,2753,1,0,0:0:0:0:
36,192,2753,1,0,0:0:0:0:
402,192,2773,1,0,0:0:0:0:
329,192,2773,1,0,0:0:0:0:
256,192,2773,1,0,0:0:0:0:
36,192,2773,1,0,0:0:0:0:
182,192,2773,1,0,0:0:0:0:
475,192,2773,1,0,0:0:0:0:
109,192,2773,1,0,0:0:0:0:
109,192,2792,5,0,0:0:0:0:
36,192,2792,1,0,0:0:0:0:
402,192,2792,1,0,0:0:0:0:
329,192,2792,1,0,0:0:0:0:
182,192,2792,1,0,0:0:0:0:
256,192,2792,1,0,0:0:0:0:
475,192,2792,1,0,0:0:0:0:
182,192,2812,1,0,0:0:0:0:
36,192,2812,1,0,0:0:0:0:
109,192,2812,1,0,0:0:0:0:
402,192,2812,1,0,0:0:0:0:
475,192,2812,1,0,0:0:0:0:
256,192,2812,1,0,0:0:0:0:
329,192,2812,1,0,0:0:0:0:
329,192,2822,1,0,0:0:0:0:
329,192,2832,1,0,0:0:0:0:
182,192,2832,1,0,0:0:0:0:
109,192,2832,1,0,0:0:0:0:
256,192,2832,1,0,0:0:0:0:
475,192,2832,1,0,0:0:0:0:
402,192,2832,1,0,0:0:0:0:
36,192,2832,1,0,0:0:0:0:
182,192,2851,1,0,0:0:0:0:
36,192,2851,1,0,0:0:0:0:
256,192,2851,1,0,0:0:0:0:
329,192,2851,1,0,0:0:0:0:
402,192,2851,1,0,0:0:0:0:
475,192,2851,1,0,0:0:0:0:
109,192,2851,1,0,0:0:0:0:
36,192,2871,1,0,0:0:0:0:
256,192,2871,1,0,0:0:0:0:
109,192,2871,1,0,0:0:0:0:
329,192,2871,1,0,0:0:0:0:
475,192,2871,1,0,0:0:0:0:
402,192,2871,1,0,0:0:0:0:
182,192,2871,1,0,0:0:0:0:
36,192,2890,1,0,0:0:0:0:
109,192,2890,1,0,0:0:0:0:
256,192,2890,1,0,0:0:0:0:
475,192,2890,1,0,0:0:0:0:
182,192,2890,1,0,0:0:0:0:
329,192,2890,1,0,0:0:0:0:
402,192,2890,1,0,0:0:0:0:
402,192,2900,1,0,0:0:0:0:
182,192,2910,1,0,0:0:0:0:
109,192,2910,1,0,0:0:0:0:
36,192,2910,1,0,0:0:0:0:
329,192,2910,1,0,0:0:0:0:
256,192,2910,1,0,0:0:0:0:
402,192,2910,1,0,0:0:0:0:
475,192,2910,1,0,0:0:0:0:
109,192,2929,1,0,0:0:0:0:
329,192,2929,1,0,0:0:0:0:
256,192,2929,1,0,0:0:0:0:
402,192,2929,1,0,0:0:0:0:
182,192,2929,1,0,0:0:0:0:
475,192,2929,1,0,0:0:0:0:
36,192,2929,1,0,0:0:0:0:
109,192,2949,5,0,0:0:0:0:
402,192,2949,1,0,0:0:0:0:
475,192,2949,1,0,0:0:0:0:
36,192,2949,1,0,0:0:0:0:
182,192,2949,1,0,0:0:0:0:
256,192,2949,1,0,0:0:0:0:
329,192,2949,1,0,0:0:0:0:
109,192,2968,1,0,0:0:0:0:
36,192,2968,1,0,0:0:0:0:
402,192,2968,1,0,0:0:0:0:
182,192,2968,1,0,0:0:0:0:
256,192,2968,1,0,0:0:0:0:
329,192,2968,1,0,0:0:0:0:
475,192,2968,1,0,0:0:0:0:
475,192,2978,1,0,0:0:0:0:
36,192,2988,1,0,0:0:0:0:
402,192,2988,1,0,0:0:0:0:
329,192,2988,1,0,0:0:0:0:
475,192,2988,1,0,0:0:0:0:
182,192,2988,1,0,0:0:0:0:
109,192,2988,1,0,0:0:0:0:
256,192,2988,1,0,0:0:0:0:
402,192,3007,1,0,0:0:0:0:
109,192,3007,1,0,0:0:0:0:
475,192,3007,1,0,0:0:0:0:
329,192,3007,1,0,0:0:0:0:
256,192,3007,1,0,0:0:0:0:
182,192,3007,1,0,0:0:0:0:
36,192,3007,1,0,0:0:0:0:
182,192,3027,1,0,0:0:0:0:
109,192,3027,1,0,0:0:0:0:
329,192,3027,1,0,0:0:0:0:
36,192,3027,1,0,0:0:0:0:
402,192,3027,1,0,0:0:0:0:
475,192,3027,1,0,0:0:0:0:
256,192,3027,1,0,0:0:0:0:
329,192,3046,1,0,0:0:0:0:
402,192,3046,1,0,0:0:0:0:
182,192,3046,1,0,0:0:0:0:
256,192,3046,1,0,0:0:0:0:
109,192,3046,1,0,0:0:0:0:
36,192,3046,1,0,0:0:0:0:
475,192,3046,1,0,0:0:0:0:
475,192,3056,1,0,0:0:0:0:
182,192,3066,1,0,0:0:0:0:
36,192,3066,1,0,0:0:0:0:
109,192,3066,1,0,0:0:0:0:
329,192,3066,1,0,0:0:0:0:
256,192,3066,1,0,0:0:0:0:
402,192,3066,1,0,0:0:0:0:
475,192,3066,1,0,0:0:0:0:
402,192,3085,1,0,0:0:0:0:
36,192,3085,1,0,0:0:0:0:
475,192,3085,1,0,0:0:0:0:
329,192,3085,1,0,0:0:0:0:
109,192,3085,1,0,0:0:0:0:
182,192,3085,1,0,0:0:0:0:
256,192,3085,1,0,0:0:0:0:
329,192,3105,1,0,0:0:0:0:
256,192,3105,1,0,0:0:0:0:
109,192,3105,1,0,0:0:0:0:
475,192,3105,1,0,0:0:0:0:
182,192,3105,1,0,0:0:0:0:
36,192,3105,1,0,0:0:0:0:
402,192,3105,1,0,0:0:0:0:
402,192,3125,1,0,0:0:0:0:
182,192,3125,1,0,0:0:0:0:
329,192,3125,1,0,0:0:0:0:
256,192,3125,1,0,0:0:0:0:
109,192,3125,1,0,0:0:0:0:
475,192,3125,1,0,0:0:0:0:
36,192,3125,1,0,0:0:0:0:
475,192,3134,1,0,0:0:0:0:
36,192,3134,1,0,0:0:0:0:
182,192,3144,1,0,0:0:0:0:
475,192,3144,1,0,0:0:0:0:
109,192,3144,1,0,0:0:0:0:
36,192,3144,1,0,0:0:0:0:
402,192,3144,1,0,0:0:0:0:
329,192,3144,1,0,0:0:0:0:
256,192,3144,1,0,0:0:0:0:
109,192,3164,5,0,0:0:0:0:
256,192,3164,1,0,0:0:0:0:
475,192,3164,1,0,0:0:0:0:
182,192,3164,1,0,0:0:0:0:
36,192,3164,1,0,0:0:0:0:
402,192,3164,1,0,0:0:0:0:
329,192,3164,1,0,0:0:0:0:
329,192,3183,1,0,0:0:0:0:
475,192,3183,1,0,0:0:0:0:
256,192,3183,1,0,0:0:0:0:
402,192,3183,1,0,0:0:0:0:
182,192,3183,1,0,0:0:0:0:
36,192,3183,1,0,0:0:0:0:
109,192,3183,1,0,0:0:0:0:
475,192,3203,1,0,0:0:0:0:
402,192,3203,1,0,0:0:0:0:
256,192,3203,1,0,0:0:0:0:
329,192,3203,1,0,0:0:0:0:
182,192,3203,1,0,0:0:0:0:
109,192,3203,1,0,0:0:0:0:
36,192,3203,1,0,0:0:0:0:
36,192,3212,1,0,0:0:0:0:
402,192,3222,1,0,0:0:0:0:
475,192,3222,1,0,0:0:0:0:
109,192,3222,1,0,0:0:0:0:
329,192,3222,1,0,0:0:0:0:
182,192,3222,1,0,0:0:0:0:
36,192,3222,1,0,0:0:0:0:
256,192,3222,1,0,0:0:0:0:
475,192,3242,1,0,0:0:0:0:
402,192,3242,1,0,0:0:0:0:
182,192,3242,1,0,0:0:0:0:
329,192,3242,1,0,0:0:0:0:
36,192,3242,1,0,0:0:0:0:
256,192,3242,1,0,0:0:0:0:
109,192,3242,1,0,0:0:0:0:
182,192,3261,1,0,0:0:0:0:
402,192,3261,1,0,0:0:0:0:
329,192,3261,1,0,0:0:0:0:
475,192,3261,1,0,0:0:0:0:
36,192,3261,1,0,0:0:0:0:
256,192,3261,1,0,0:0:0:0:
109,192,3261,1,0,0:0:0:0:
256,192,3281,1,0,0:0:0:0:
402,192,3281,1,0,0:0:0:0:
475,192,3281,1,0,0:0:0:0:
329,192,3281,1,0,0:0:0:0:
182,192,3281,1,0,0:0:0:0:
36,192,3281,1,0,0:0:0:0:
109,192,3281,1,0,0:0:0:0:
109,192,3291,1,0,0:0:0:0:
182,192,3300,1,0,0:0:0:0:
475,192,3300,1,0,0:0:0:0:
36,192,3300,1,0,0:0:0:0:
402,192,3300,1,0,0:0:0:0:
109,192,3300,1,0,0:0:0:0:
329,192,3300,1,0,0:0:0:0:
256,192,3300,1,0,0:0:0:0:
109,192,3320,5,0,0:0:0:0:
256,192,3320,1,0,0:0:0:0:
329,192,3320,1,0,0:0:0:0:
182,192,3320,1,0,0:0:0:0:
402,192,3320,1,0,0:0:0:0:
475,192,3320,1,0,0:0:0:0:
36,192,3320,1,0,0:0:0:0:
256,192,3339,1,0,0:0:0:0:
329,192,3339,1,0,0:0:0:0:
475,192,3339,1,0,0:0:0:0:
182,192,3339,1,0,0:0:0:0:
109,192,3339,1,0,0:0:0:0:
36,192,3339,1,0,0:0:0:0:
402,192,3339,1,0,0:0:0:0:
109,192,3359,1,0,0:0:0:0:
256,192,3359,1,0,0:0:0:0:
475,192,3359,1,0,0:0:0:0:
36,192,3359,1,0,0:0:0:0:
402,192,3359,1,0,0:0:0:0:
329,192,3359,1,0,0:0:0:0:
182,192,3359,1,0,0:0:0:0:
182,192,3369,1,0,0:0:0:0:
256,192,3378,1,0,0:0:0:0:
182,192,3378,1,0,0:0:0:0:
36,192,3378,1,0,0:0:0:0:
329,192,3378,1,0,0:0:0:0:
402,192,3378,1,0,0:0:0:0:
109,192,3378,1,0,0:0:0:0:
475,192,3378,1,0,0:0:0:0:
402,192,3398,1,0,0:0:0:0:
475,192,3398,1,0,0:0:0:0:
256,192,3398,1,0,0:0:0:0:
36,192,3398,1,0,0:0:0:0:
182,192,3398,1,0,0:0:0:0:
109,192,3398,1,0,0:0:0:0:
329,192,3398,1,0,0:0:0:0:
256,192,3417,1,0,0:0:0:0:
109,192,3417,1,0,0:0:0:0:
36,192,3417,1,0,0:0:0:0:
182,192,3417,1,0,0:0:0:0:
329,192,3417,1,0,0:0:0:0:
475,192,3417,1,0,0:0:0:0:
402,192,3417,1,0,0:0:0:0:
402,192,3437,1,0,0:0:0:0:
475,192,3437,1,0,0:0:0:0:
329,192,3437,1,0,0:0:0:0:
182,192,3437,1,0,0:0:0:0:
36,192,3437,1,0,0:0:0:0:
109,192,3437,1,0,0:0:0:0:
256,192,3437,1,0,0:0:0:0:
256,192,3447,1,0,0:0:0:0:
109,192,3457,1,0,0:0:0:0:
182,192,3457,1,0,0:0:0:0:
256,192,3457,1,0,0:0:0:0:
329,192,3457,1,0,0:0:0:0:
402,192,3457,1,0,0:0:0:0:
36,192,3457,1,0,0:0:0:0:
475,192,3457,1,0,0:0:0:0:
182,192,3476,1,0,0:0:0:0:
36,192,3476,1,0,0:0:0:0:
402,192,3476,1,0,0:0:0:0:
475,192,3476,1,0,0:0:0:0:
329,192,3476,1,0,0:0:0:0:
256,192,3476,1,0,0:0:0:0:
109,192,3476,1,0,0:0:0:0:
475,192,3496,1,0,0:0:0:0:
256,192,3496,1,0,0:0:0:0:
109,192,3496,1,0,0:0:0:0:
329,192,3496,1,0,0:0:0:0:
402,192,3496,1,0,0:0:0:0:
182,192,3496,1,0,0:0:0:0:
36,192,3496,1,0,0:0:0:0:
402,192,3515,1,0,0:0:0:0:
256,192,3515,1,0,0:0:0:0:
36,192,3515,1,0,0:0:0:0:
182,192,3515,1,0,0:0:0:0:
475,192,3515,1,0,0:0:0:0:
109,192,3515,1,0,0:0:0:0:
329,192,3515,1,0,0:0:0:0:
329,192,3525,1,0,0:0:0:0:
109,192,3535,5,0,0:0:0:0:
36,192,3535,1,0,0:0:0:0:
402,192,3535,1,0,0:0:0:0:
329,192,3535,1,0,0:0:0:0:
182,192,3535,1,0,0:0:0:0:
256,192,3535,1,0,0:0:0:0:
475,192,3535,1,0,0:0:0:0:
182,192,3554,1,0,0:0:0:0:
36,192,3554,1,0,0:0:0:0:
109,192,3554,1,0,0:0:0:0:
402,192,3554,1,0,0:0:0:0:
329,192,3554,1,0,0:0:0:0:
475,192,3554,1,0,0:0:0:0:
256,192,3554,1,0,0:0:0:0:
329,192,3574,1,0,0:0:0:0:
182,192,3574,1,0,0:0:0:0:
109,192,3574,1,0,0:0:0:0:
256,192,3574,1,0,0:0:0:0:
475,192,3574,1,0,0:0:0:0:
402,192,3574,1,0,0:0:0:0:
36,192,3574,1,0,0:0:0:0:
182,192,3593,1,0,0:0:0:0:
36,192,3593,1,0,0:0:0:0:
256,192,3593,1,0,0:0:0:0:
329,192,3593,1,0,0:0:0:0:
475,192,3593,1,0,0:0:0:0:
109,192,3593,1,0,0:0:0:0:
402,192,3593,1,0,0:0:0:0:
402,192,3603,1,0,0:0:0:0:
36,192,3613,1,0,0:0:0:0:
256,192,3613,1,0,0:0:0:0:
109,192,3613,1,0,0:0:0:0:
329,192,3613,1,0,0:0:0:0:
475,192,3613,1,0,0:0:0:0:
402,192,3613,1,0,0:0:0:0:
182,192,3613,1,0,0:0:0:0:
36,192,3632,1,0,0:0:0:0:
109,192,3632,1,0,0:0:0:0:
256,192,3632,1,0,0:0:0:0:
475,192,3632,1,0,0:0:0:0:
182,192,3632,1,0,0:0:0:0:
402,192,3632,1,0,0:0:0:0:
329,192,3632,1,0,0:0:0:0:
182,192,3652,1,0,0:0:0:0:
109,192,3652,1,0,0:0:0:0:
36,192,3652,1,0,0:0:0:0:
329,192,3652,1,0,0:0:0:0:
256,192,3652,1,0,0:0:0:0:
402,192,3652,1,0,0:0:0:0:
475,192,3652,1,0,0:0:0:0:
109,192,3671,1,0,0:0:0:0:
329,192,3671,1,0,0:0:0:0:
256,192,3671,1,0,0:0:0:0:
402,192,3671,1,0,0:0:0:0:
182,192,3671,1,0,0:0:0:0:
36,192,3671,1,0,0:0:0:0:
475,192,3671,1,0,0:0:0:0:
475,192,3681,1,0,0:0:0:0:
109,192,3691,5,0,0:0:0:0:
402,192,3691,1,0,0:0:0:0:
475,192,3691,1,0,0:0:0:0:
36,192,3691,1,0,0:0:0:0:
182,192,3691,1,0,0:0:0:0:
256,192,3691,1,0,0:0:0:0:
329,192,3691,1,0,0:0:0:0:
109,192,3710,1,0,0:0:0:0:
36,192,3710,1,0,0:0:0:0:
402,192,3710,1,0,0:0:0:0:
182,192,3710,1,0,0:0:0:0:
256,192,3710,1,0,0:0:0:0:
329,192,3710,1,0,0:0:0:0:
475,192,3710,1,0,0:0:0:0:
36,192,3730,1,0,0:0:0:0:
402,192,3730,1,0,0:0:0:0:
329,192,3730,1,0,0:0:0:0:
475,192,3730,1,0,0:0:0:0:
182,192,3730,1,0,0:0:0:0:
109,192,3730,1,0,0:0:0:0:
256,192,3730,1,0,0:0:0:0:
402,192,3750,1,0,0:0:0:0:
109,192,3750,1,0,0:0:0:0:
329,192,3750,1,0,0:0:0:0:
256,192,3750,1,0,0:0:0:0:
182,192,3750,1,0,0:0:0:0:
36,192,3750,1,0,0:0:0:0:
475,192,3750,1,0,0:0:0:0:
36,192,3759,1,0,0:0:0:0:
475,192,3759,1,0,0:0:0:0:
182,192,3769,1,0,0:0:0:0:
109,192,3769,1,0,0:0:0:0:
329,192,3769,1,0,0:0:0:0:
36,192,3769,1,0,0:0:0:0:
402,192,3769,1,0,0:0:0:0:
475,192,3769,1,0,0:0:0:0:
256,192,3769,1,0,0:0:0:0:
329,192,3789,1,0,0:0:0:0:
475,192,3789,1,0,0:0:0:0:
402,192,3789,1,0,0:0:0:0:
182,192,3789,1,0,0:0:0:0:
256,192,3789,1,0,0:0:0:0:
109,192,3789,1,0,0:0:0:0:
36,192,3789,1,0,0:0:0:0:
182,192,3808,1,0,0:0:0:0:
36,192,3808,1,0,0:0:0:0:
109,192,3808,1,0,0:0:0:0:
329,192,3808,1,0,0:0:0:0:
256,192,3808,1,0,0:0:0:0:
402,192,3808,1,0,0:0:0:0:
475,192,3808,1,0,0:0:0:0:
402,192,3828,1,0,0:0:0:0:
36,192,3828,1,0,0:0:0:0:
475,192,3828,1,0,0:0:0:0:
329,192,3828,1,0,0:0:0:0:
182,192,3828,1,0,0:0:0:0:
256,192,3828,1,0,0:0:0:0:
109,192,3828,1,0,0:0:0:0:
109,192,3837,1,0,0:0:0:0:
329,192,3847,1,0,0:0:0:0:
256,192,3847,1,0,0:0:0:0:
109,192,3847,1,0,0:0:0:0:
475,192,3847,1,0,0:0:0:0:
182,192,3847,1,0,0:0:0:0:
36,192,3847,1,0,0:0:0:0:
402,192,3847,1,0,0:0:0:0:
402,192,3867,1,0,0:0:0:0:
182,192,3867,1,0,0:0:0:0:
36,192,3867,1,0,0:0:0:0:
329,192,3867,1,0,0:0:0:0:
475,192,3867,1,0,0:0:0:0:
256,192,3867,1,0,0:0:0:0:
109,192,3867,1,0,0:0:0:0:
182,192,3886,1,0,0:0:0:0:
475,192,3886,1,0,0:0:0:0:
109,192,3886,1,0,0:0:0:0:
36,192,3886,1,0,0:0:0:0:
329,192,3886,1,0,0:0:0:0:
256,192,3886,1,0,0:0:0:0:
402,192,3886,1,0,0:0:0:0:
109,192,3906,5,0,0:0:0:0:
256,192,3906,1,0,0:0:0:0:
475,192,3906,1,0,0:0:0:0:
182,192,3906,1,0,0:0:0:0:
36,192,3906,1,0,0:0:0:0:
329,192,3906,1,0,0:0:0:0:
402,192,3906,1,0,0:0:0:0:
402,192,3916,1,0,0:0:0:0:
329,192,3925,1,0,0:0:0:0:
475,192,3925,1,0,0:0:0:0:
256,192,3925,1,0,0:0:0:0:
402,192,3925,1,0,0:0:0:0:
182,192,3925,1,0,0:0:0:0:
36,192,3925,1,0,0:0:0:0:
109,192,3925,1,0,0:0:0:0:
475,192,3945,1,0,0:0:0:0:
402,192,3945,1,0,0:0:0:0:
36,192,3945,1,0,0:0:0:0:
256,192,3945,1,0,0:0:0:0:
329,192,3945,1,0,0:0:0:0:
182,192,3945,1,0,0:0:0:0:
109,192,3945,1,0,0:0:0:0:
402,192,3964,1,0,0:0:0:0:
475,192,3964,1,0,0:0:0:0:
109,192,3964,1,0,0:0:0:0:
329,192,3964,1,0,0:0:0:0:
182,192,3964,1,0,0:0:0:0:
36,192,3964,1,0,0:0:0:0:
256,192,3964,1,0,0:0:0:0:
475,192,3984,1,0,0:0:0:0:
402,192,3984,1,0,0:0:0:0:
329,192,3984,1,0,0:0:0:0:
36,192,3984,1,0,0:0:0:0:
256,192,3984,1,0,0:0:0:0:
109,192,3984,1,0,0:0:0:0:
182,192,3984,1,0,0:0:0:0:
182,192,3994,1,0,0:0:0:0:
182,192,4003,1,0,0:0:0:0:
402,192,4003,1,0,0:0:0:0:
329,192,4003,1,0,0:0:0:0:
475,192,4003,1,0,0:0:0:0:
36,192,4003,1,0,0:0:0:0:
109,192,4003,1,0,0:0:0:0:
256,192,4003,1,0,0:0:0:0:
256,192,4023,1,0,0:0:0:0:
402,192,4023,1,0,0:0:0:0:
475,192,4023,1,0,0:0:0:0:
329,192,4023,1,0,0:0:0:0:
182,192,4023,1,0,0:0:0:0:
109,192,4023,1,0,0:0:0:0:
36,192,4023,1,0,0:0:0:0:
182,192,4042,1,0,0:0:0:0:
475,192,4042,1,0,0:0:0:0:
36,192,4042,1,0,0:0:0:0:
402,192,4042,1,0,0:0:0:0:
109,192,4042,1,0,0:0:0:0:
329,192,4042,1,0,0:0:0:0:
256,192,4042,1,0,0:0:0:0:
109,192,4062,5,0,0:0:0:0:
256,192,4062,1,0,0:0:0:0:
182,192,4062,1,0,0:0:0:0:
402,192,4062,1,0,0:0:0:0:
475,192,4062,1,0,0:0:0:0:
36,192,4062,1,0,0:0:0:0:
329,192,4062,1,0,0:0:0:0:
329,192,4072,1,0,0:0:0:0:
256,192,4082,1,0,0:0:0:0:
329,192,4082,1,0,0:0:0:0:
475,192,4082,1,0,0:0:0:0:
182,192,4082,1,0,0:0:0:0:
109,192,4082,1,0,0:0:0:0:
36,192,4082,1,0,0:0:0:0:
402,192,4082,1,0,0:0:0:0:
182,192,4101,1,0,0:0:0:0:
109,192,4101,1,0,0:0:0:0:
256,192,4101,1,0,0:0:0:0:
475,192,4101,1,0,0:0:0:0:
36,192,4101,1,0,0:0:0:0:
402,192,4101,1,0,0:0:0:0:
329,192,4101,1,0,0:0:0:0:
256,192,4121,1,0,0:0:0:0:
182,192,4121,1,0,0:0:0:0:
36,192,4121,1,0,0:0:0:0:
329,192,4121,1,0,0:0:0:0:
402,192,4121,1,0,0:0:0:0:
109,192,4121,1,0,0:0:0:0:
475,192,4121,1,0,0:0:0:0:
402,192,4140,1,0,0:0:0:0:
475,192,4140,1,0,0:0:0:0:
36,192,4140,1,0,0:0:0:0:
182,192,4140,1,0,0:0:0:0:
109,192,4140,1,0,0:0:0:0:
329,192,4140,1,0,0:0:0:0:
256,192,4140,1,0,0:0:0:0:
256,192,4150,1,0,0:0:0:0:
256,192,4160,1,0,0:0:0:0:
109,192,4160,1,0,0:0:0:0:
36,192,4160,1,0,0:0:0:0:
182,192,4160,1,0,0:0:0:0:
329,192,4160,1,0,0:0:0:0:
475,192,4160,1,0,0:0:0:0:
402,192,4160,1,0,0:0:0:0:
256,192,4179,1,0,0:0:0:0:
402,192,4179,1,0,0:0:0:0:
475,192,4179,1,0,0:0:0:0:
329,192,4179,1,0,0:0:0:0:
182,192,4179,1,0,0:0:0:0:
36,192,4179,1,0,0:0:0:0:
109,192,4179,1,0,0:0:0:0:
109,192,4199,1,0,0:0:0:0:
182,192,4199,1,0,0:0:0:0:
256,192,4199,1,0,0:0:0:0:
329,192,4199,1,0,0:0:0:0:
402,192,4199,1,0,0:0:0:0:
36,192,4199,1,0,0:0:0:0:
475,192,4199,1,0,0:0:0:0:
182,192,4218,1,0,0:0:0:0:
36,192,4218,1,0,0:0:0:0:
402,192,4218,1,0,0:0:0:0:
475,192,4218,1,0,0:0:0:0:
256,192,4218,1,0,0:0:0:0:
109,192,4218,1,0,0:0:0:0:
329,192,4218,1,0,0:0:0:0:
329,192,4228,1,0,0:0:0:0:
475,192,4238,1,0,0:0:0:0:
256,192,4238,1,0,0:0:0:0:
109,192,4238,1,0,0:0:0:0:
329,192,4238,1,0,0:0:0:0:
402,192,4238,1,0,0:0:0:0:
182,192,4238,1,0,0:0:0:0:
36,192,4238,1,0,0:0:0:0:
402,192,4257,1,0,0:0:0:0:
329,192,4257,1,0,0:0:0:0:
256,192,4257,1,0,0:0:0:0:
36,192,4257,1,0,0:0:0:0:
182,192,4257,1,0,0:0:0:0:
475,192,4257,1,0,0:0:0:0:
109,192,4257,1,0,0:0:0:0:
109,192,4277,5,0,0:0:0:0:
36,192,4277,1,0,0:0:0:0:
402,192,4277,1,0,0:0:0:0:
329,192,4277,1,0,0:0:0:0:
182,192,4277,1,0,0:0:0:0:
256,192,4277,1,0,0:0:0:0:
475,192,4277,1,0,0:0:0:0:
36,192,4296,1,0,0:0:0:0:
109,192,4296,1,0,0:0:0:0:
402,192,4296,1,0,0:0:0:0:
329,192,4296,1,0,0:0:0:0:
475,192,4296,1,0,0:0:0:0:
256,192,4296,1,0,0:0:0:0:
182,192,4296,1,0,0:0:0:0:
182,192,4306,1,0,0:0:0:0:
329,192,4316,1,0,0:0:0:0:
182,192,4316,1,0,0:0:0:0:
109,192,4316,1,0,0:0:0:0:
256,192,4316,1,0,0:0:0:0:
475,192,4316,1,0,0:0:0:0:
402,192,4316,1,0,0:0:0:0:
36,192,4316,1,0,0:0:0:0:
182,192,4335,1,0,0:0:0:0:
36,192,4335,1,0,0:0:0:0:
256,192,4335,1,0,0:0:0:0:
329,192,4335,1,0,0:0:0:0:
402,192,4335,1,0,0:0:0:0:
475,192,4335,1,0,0:0:0:0:
109,192,4335,1,0,0:0:0:0:
36,192,4355,1,0,0:0:0:0:
256,192,4355,1,0,0:0:0:0:
109,192,4355,1,0,0:0:0:0:
329,192,4355,1,0,0:0:0:0:
475,192,4355,1,0,0:0:0:0:
402,192,4355,1,0,0:0:0:0:
182,192,4355,1,0,0:0:0:0:
109,192,4375,1,0,0:0:0:0:
256,192,4375,1,0,0:0:0:0:
182,192,4375,1,0,0:0:0:0:
402,192,4375,1,0,0:0:0:0:
329,192,4375,1,0,0:0:0:0:
475,192,4375,1,0,0:0:0:0:
36,192,4375,1,0,0:0:0:0:
475,192,4384,1,0,0:0:0:0:
36,192,4384,1,0,0:0:0:0:
182,192,4394,1,0,0:0:0:0:
109,192,4394,1,0,0:0:0:0:
36,192,4394,1,0,0:0:0:0:
329,192,4394,1,0,0:0:0:0:
256,192,4394,1,0,0:0:0:0:
402,192,4394,1,0,0:0:0:0:
475,192,4394,1,0,0:0:0:0:
109,192,4414,1,0,0:0:0:0:
329,192,4414,1,0,0:0:0:0:
256,192,4414,1,0,0:0:0:0:
402,192,4414,1,0,0:0:0:0:
182,192,4414,1,0,0:0:0:0:
475,192,4414,1,0,0:0:0:0:
36,192,4414,1,0,0:0:0:0:
109,192,4433,5,0,0:0:0:0:
402,192,4433,1,0,0:0:0:0:
475,192,4433,1,0,0:0:0:0:
36,192,4433,1,0,0:0:0:0:
182,192,4433,1,0,0:0:0:0:
256,192,4433,1,0,0:0:0:0:
329,192,4433,1,0,0:0:0:0:
109,192,4453,1,0,0:0:0:0:
36,192,4453,1,0,0:0:0:0:
182,192,4453,1,0,0:0:0:0:
256,192,4453,1,0,0:0:0:0:
329,192,4453,1,0,0:0:0:0:
475,192,4453,1,0,0:0:0:0:
402,192,4453,1,0,0:0:0:0:
402,192,4462,1,0,0:0:0:0:
36,192,4472,1,0,0:0:0:0:
402,192,4472,1,0,0:0:0:0:
329,192,4472,1,0,0:0:0:0:
475,192,4472,1,0,0:0:0:0:
182,192,4472,1,0,0:0:0:0:
109,192,4472,1,0,0:0:0:0:
256,192,4472,1,0,0:0:0:0:
402,192,4492,1,0,0:0:0:0:
109,192,4492,1,0,0:0:0:0:
475,192,4492,1,0,0:0:0:0:
329,192,4492,1,0,0:0:0:0:
256,192,4492,1,0,0:0:0:0:
182,192,4492,1,0,0:0:0:0:
36,192,4492,1,0,0:0:0:0:
182,192,4511,1,0,0:0:0:0:
109,192,4511,1,0,0:0:0:0:
329,192,4511,1,0,0:0:0:0:
36,192,4511,1,0,0:0:0:0:
402,192,4511,1,0,0:0:0:0:
475,192,4511,1,0,0:0:0:0:
256,192,4511,1,0,0:0:0:0:
475,192,4531,1,0,0:0:0:0:
402,192,4531,1,0,0:0:0:0:
182,192,4531,1,0,0:0:0:0:
256,192,4531,1,0,0:0:0:0:
109,192,4531,1,0,0:0:0:0:
36,192,4531,1,0,0:0:0:0:
329,192,4531,1,0,0:0:0:0:
329,192,4541,1,0,0:0:0:0:
182,192,4550,1,0,0:0:0:0:
36,192,4550,1,0,0:0:0:0:
109,192,4550,1,0,0:0:0:0:
329,192,4550,1,0,0:0:0:0:
256,192,4550,1,0,0:0:0:0:
402,192,4550,1,0,0:0:0:0:
475,192,4550,1,0,0:0:0:0:
402,192,4570,1,0,0:0:0:0:
36,192,4570,1,0,0:0:0:0:
475,192,4570,1,0,0:0:0:0:
329,192,4570,1,0,0:0:0:0:
109,192,4570,1,0,0:0:0:0:
182,192,4570,1,0,0:0:0:0:
256,192,4570,1,0,0:0:0:0:
329,192,4589,1,0,0:0:0:0:
256,192,4589,1,0,0:0:0:0:
109,192,4589,1,0,0:0:0:0:
475,192,4589,1,0,0:0:0:0:
182,192,4589,1,0,0:0:0:0:
36,192,4589,1,0,0:0:0:0:
402,192,4589,1,0,0:0:0:0:
402,192,4609,1,0,0:0:0:0:
182,192,4609,1,0,0:0:0:0:
36,192,4609,1,0,0:0:0:0:
329,192,4609,1,0,0:0:0:0:
475,192,4609,1,0,0:0:0:0:
109,192,4609,1,0,0:0:0:0:
256,192,4609,1,0,0:0:0:0:
256,192,4619,1,0,0:0:0:0:
182,192,4628,1,0,0:0:0:0:
475,192,4628,1,0,0:0:0:0:
109,192,4628,1,0,0:0:0:0:
36,192,4628,1,0,0:0:0:0:
402,192,4628,1,0,0:0:0:0:
329,192,4628,1,0,0:0:0:0:
256,192,4628,1,0,0:0:0:0:
109,192,4648,5,0,0:0:0:0:
256,192,4648,1,0,0:0:0:0:
475,192,4648,1,0,0:0:0:0:
182,192,4648,1,0,0:0:0:0:
36,192,4648,1,0,0:0:0:0:
402,192,4648,1,0,0:0:0:0:
329,192,4648,1,0,0:0:0:0:
329,192,4667,1,0,0:0:0:0:
475,192,4667,1,0,0:0:0:0:
256,192,4667,1,0,0:0:0:0:
402,192,4667,1,0,0:0:0:0:
182,192,4667,1,0,0:0:0:0:
36,192,4667,1,0,0:0:0:0:
109,192,4667,1,0,0:0:0:0:
475,192,4687,1,0,0:0:0:0:
402,192,4687,1,0,0:0:0:0:
36,192,4687,1,0,0:0:0:0:
329,192,4687,1,0,0:0:0:0:
182,192,4687,1,0,0:0:0:0:
109,192,4687,1,0,0:0:0:0:
256,192,4687,1,0,0:0:0:0:
256,192,4697,1,0,0:0:0:0:
402,192,4707,1,0,0:0:0:0:
475,192,4707,1,0,0:0:0:0:
109,192,4707,1,0,0:0:0:0:
329,192,4707,1,0,0:0:0:0:
182,192,4707,1,0,0:0:0:0:
36,192,4707,1,0,0:0:0:0:
256,192,4707,1,0,0:0:0:0:
475,192,4726,1,0,0:0:0:0:
402,192,4726,1,0,0:0:0:0:
182,192,4726,1,0,0:0:0:0:
329,192,4726,1,0,0:0:0:0:
36,192,4726,1,0,0:0:0:0:
256,192,4726,1,0,0:0:0:0:
109,192,4726,1,0,0:0:0:0:
182,192,4746,1,0,0:0:0:0:
402,192,4746,1,0,0:0:0:0:
329,192,4746,1,0,0:0:0:0:
475,192,4746,1,0,0:0:0:0:
36,192,4746,1,0,0:0:0:0:
109,192,4746,1,0,0:0:0:0:
256,192,4746,1,0,0:0:0:0:
256,192,4765,1,0,0:0:0:0:
402,192,4765,1,0,0:0:0:0:
475,192,4765,1,0,0:0:0:0:
329,192,4765,1,0,0:0:0:0:
109,192,4765,1,0,0:0:0:0:
36,192,4765,1,0,0:0:0:0:
182,192,4765,1,0,0:0:0:0:
182,192,4775,1,0,0:0:0:0:
182,192,4785,1,0,0:0:0:0:
475,192,4785,1,0,0:0:0:0:
36,192,4785,1,0,0:0:0:0:
402,192,4785,1,0,0:0:0:0:
109,192,4785,1,0,0:0:0:0:
329,192,4785,1,0,0:0:0:0:
256,192,4785,1,0,0:0:0:0:
109,192,4804,5,0,0:0:0:0:
256,192,4804,1,0,0:0:0:0:
329,192,4804,1,0,0:0:0:0:
182,192,4804,1,0,0:0:0:0:
402,192,4804,1,0,0:0:0:0:
475,192,4804,1,0,0:0:0:0:
36,192,4804,1,0,0:0:0:0:
256,192,4824,1,0,0:0:0:0:
329,192,4824,1,0,0:0:0:0:
475,192,4824,1,0,0:0:0:0:
182,192,4824,1,0,0:0:0:0:
109,192,4824,1,0,0:0:0:0:
36,192,4824,1,0,0:0:0:0:
402,192,4824,1,0,0:0:0:0:
182,192,4843,1,0,0:0:0:0:
256,192,4843,1,0,0:0:0:0:
475,192,4843,1,0,0:0:0:0:
36,192,4843,1,0,0:0:0:0:
402,192,4843,1,0,0:0:0:0:
329,192,4843,1,0,0:0:0:0:
109,192,4843,1,0,0:0:0:0:
109,192,4853,1,0,0:0:0:0:
256,192,4863,1,0,0:0:0:0:
182,192,4863,1,0,0:0:0:0:
36,192,4863,1,0,0:0:0:0:
329,192,4863,1,0,0:0:0:0:
402,192,4863,1,0,0:0:0:0:
109,192,4863,1,0,0:0:0:0:
475,192,4863,1,0,0:0:0:0:
402,192,4882,1,0,0:0:0:0:
475,192,4882,1,0,0:0:0:0:
256,192,4882,1,0,0:0:0:0:
36,192,4882,1,0,0:0:0:0:
182,192,4882,1,0,0:0:0:0:
109,192,4882,1,0,0:0:0:0:
329,192,4882,1,0,0:0:0:0:
256,192,4902,1,0,0:0:0:0:
109,192,4902,1,0,0:0:0:0:
36,192,4902,1,0,0:0:0:0:
182,192,4902,1,0,0:0:0:0:
329,192,4902,1,0,0:0:0:0:
475,192,4902,1,0,0:0:0:0:
402,192,4902,1,0,0:0:0:0:
256,192,4921,1,0,0:0:0:0:
402,192,4921,1,0,0:0:0:0:
475,192,4921,1,0,0:0:0:0:
329,192,4921,1,0,0:0:0:0:
182,192,4921,1,0,0:0:0:0:
109,192,4921,1,0,0:0:0:0:
36,192,4921,1,0,0:0:0:0:
36,192,4931,1,0,0:0:0:0:
109,192,4941,1,0,0:0:0:0:
182,192,4941,1,0,0:0:0:0:
256,192,4941,1,0,0:0:0:0:
329,192,4941,1,0,0:0:0:0:
402,192,4941,1,0,0:0:0:0:
36,192,4941,1,0,0:0:0:0:
475,192,4941,1,0,0:0:0:0:
182,192,4960,1,0,0:0:0:0:
36,192,4960,1,0,0:0:0:0:
402,192,4960,1,0,0:0:0:0:
475,192,4960,1,0,0:0:0:0:
329,192,4960,1,0,0:0:0:0:
256,192,4960,1,0,0:0:0:0:
109,192,4960,1,0,0:0:0:0:
475,192,4980,1,0,0:0:0:0:
256,192,4980,1,0,0:0:0:0:
109,192,4980,1,0,0:0:0:0:
329,192,4980,1,0,0:0:0:0:
402,192,4980,1,0,0:0:0:0:
182,192,4980,1,0,0:0:0:0:
36,192,4980,1,0,0:0:0:0:
402,192,5000,1,0,0:0:0:0:
329,192,5000,1,0,0:0:0:0:
256,192,5000,1,0,0:0:0:0:
182,192,5000,1,0,0:0:0:0:
109,192,5000,1,0,0:0:0:0:
36,192,5000,1,0,0:0:0:0:
475,192,5000,1,0,0:0:0:0:
36,192,5009,1,0,0:0:0:0:
475,192,5009,1,0,0:0:0:0:
109,192,5019,5,0,0:0:0:0:
402,192,5019,1,0,0:0:0:0:
329,192,5019,1,0,0:0:0:0:
182,192,5019,1,0,0:0:0:0:
256,192,5019,1,0,0:0:0:0:
475,192,5019,1,0,0:0:0:0:
36,192,5019,1,0,0:0:0:0:
182,192,5039,1,0,0:0:0:0:
36,192,5039,1,0,0:0:0:0:
109,192,5039,1,0,0:0:0:0:
402,192,5039,1,0,0:0:0:0:
329,192,5039,1,0,0:0:0:0:
475,192,5039,1,0,0:0:0:0:
256,192,5039,1,0,0:0:0:0:
329,192,5058,1,0,0:0:0:0:
182,192,5058,1,0,0:0:0:0:
109,192,5058,1,0,0:0:0:0:
256,192,5058,1,0,0:0:0:0:
475,192,5058,1,0,0:0:0:0:
402,192,5058,1,0,0:0:0:0:
36,192,5058,1,0,0:0:0:0:
182,192,5078,1,0,0:0:0:0:
36,192,5078,1,0,0:0:0:0:
256,192,5078,1,0,0:0:0:0:
329,192,5078,1,0,0:0:0:0:
402,192,5078,1,0,0:0:0:0:
475,192,5078,1,0,0:0:0:0:
109,192,5078,1,0,0:0:0:0:
36,192,5097,1,0,0:0:0:0:
256,192,5097,1,0,0:0:0:0:
109,192,5097,1,0,0:0:0:0:
329,192,5097,1,0,0:0:0:0:
475,192,5097,1,0,0:0:0:0:
402,192,5097,1,0,0:0:0:0:
182,192,5097,1,0,0:0:0:0:
36,192,5117,1,0,0:0:0:0:
109,192,5117,1,0,0:0:0:0:
256,192,5117,1,0,0:0:0:0:
475,192,5117,1,0,0:0:0:0:
182,192,5117,1,0,0:0:0:0:
402,192,5117,1,0,0:0:0:0:
329,192,5117,1,0,0:0:0:0:
182,192,5136,1,0,0:0:0:0:
109,192,5136,1,0,0:0:0:0:
36,192,5136,1,0,0:0:0:0:
329,192,5136,1,0,0:0:0:0:
256,192,5136,1,0,0:0:0:0:
402,192,5136,1,0,0:0:0:0:
475,192,5136,1,0,0:0:0:0:
109,192,5156,1,0,0:0:0:0:
329,192,5156,1,0,0:0:0:0:
256,192,5156,1,0,0:0:0:0:
402,192,5156,1,0,0:0:0:0:
182,192,5156,1,0,0:0:0:0:
475,192,5156,1,0,0:0:0:0:
36,192,5156,1,0,0:0:0:0:
109,192,5175,5,0,0:0:0:0:
402,192,5175,1,0,0:0:0:0:
475,192,5175,1,0,0:0:0:0:
36,192,5175,1,0,0:0:0:0:
182,192,5175,1,0,0:0:0:0:
256,192,5175,1,0,0:0:0:0:
329,192,5175,1,0,0:0:0:0:
109,192,5195,1,0,0:0:0:0:
36,192,5195,1,0,0:0:0:0:
402,192,5195,1,0,0:0:0:0:
182,192,5195,1,0,0:0:0:0:
256,192,5195,1,0,0:0:0:0:
329,192,5195,1,0,0:0:0:0:
475,192,5195,1,0,0:0:0:0:
36,192,5214,1,0,0:0:0:0:
402,192,5214,1,0,0:0:0:0:
329,192,5214,1,0,0:0:0:0:
475,192,5214,1,0,0:0:0:0:
182,192,5214,1,0,0:0:0:0:
109,192,5214,1,0,0:0:0:0:
256,192,5214,1,0,0:0:0:0:
402,192,5234,1,0,0:0:0:0:
109,192,5234,1,0,0:0:0:0:
475,192,5234,1,0,0:0:0:0:
329,192,5234,1,0,0:0:0:0:
256,192,5234,1,0,0:0:0:0:
182,192,5234,1,0,0:0:0:0:
36,192,5234,1,0,0:0:0:0:
182,192,5253,1,0,0:0:0:0:
109,192,5253,1,0,0:0:0:0:
329,192,5253,1,0,0:0:0:0:
36,192,5253,1,0,0:0:0:0:
402,192,5253,1,0,0:0:0:0:
475,192,5253,1,0,0:0:0:0:
256,192,5253,1,0,0:0:0:0:
329,192,5273,1,0,0:0:0:0:
475,192,5273,1,0,0:0:0:0:
402,192,5273,1,0,0:0:0:0:
182,192,5273,1,0,0:0:0:0:
256,192,5273,1,0,0:0:0:0:
109,192,5273,1,0,0:0:0:0:
36,192,5273,1,0,0:0:0:0:
182,192,5292,1,0,0:0:0:0:
36,192,5292,1,0,0:0:0:0:
109,192,5292,1,0,0:0:0:0:
329,192,5292,1,0,0:0:0:0:
256,192,5292,1,0,0:0:0:0:
402,192,5292,1,0,0:0:0:0:
475,192,5292,1,0,0:0:0:0:
36,192,5312,1,0,0:0:0:0:
475,192,5312,1,0,0:0:0:0:
329,192,5312,1,0,0:0:0:0:
182,192,5312,1,0,0:0:0:0:
256,192,5312,1,0,0:0:0:0:
109,192,5312,1,0,0:0:0:0:
402,192,5312,1,0,0:0:0:0:
109,192,5322,1,0,0:0:0:0:
402,192,5322,1,0,0:0:0:0:
329,192,5332,1,0,0:0:0:0:
256,192,5332,1,0,0:0:0:0:
109,192,5332,1,0,0:0:0:0:
475,192,5332,1,0,0:0:0:0:
182,192,5332,1,0,0:0:0:0:
36,192,5332,1,0,0:0:0:0:
402,192,5332,1,0,0:0:0:0:
402,192,5351,1,0,0:0:0:0:
182,192,5351,1,0,0:0:0:0:
36,192,5351,1,0,0:0:0:0:
329,192,5351,1,0,0:0:0:0:
475,192,5351,1,0,0:0:0:0:
256,192,5351,1,0,0:0:0:0:
109,192,5351,1,0,0:0:0:0:
182,192,5371,1,0,0:0:0:0:
475,192,5371,1,0,0:0:0:0:
109,192,5371,1,0,0:0:0:0:
36,192,5371,1,0,0:0:0:0:
402,192,5371,1,0,0:0:0:0:
329,192,5371,1,0,0:0:0:0:
256,192,5371,1,0,0:0:0:0:
109,192,5390,5,0,0:0:0:0:
475,192,5390,1,0,0:0:0:0:
182,192,5390,1,0,0:0:0:0:
36,192,5390,1,0,0:0:0:0:
402,192,5390,1,0,0:0:0:0:
329,192,5390,1,0,0:0:0:0:
256,192,5390,1,0,0:0:0:0:
256,192,5400,1,0,0:0:0:0:
329,192,5410,1,0,0:0:0:0:
475,192,5410,1,0,0:0:0:0:
256,192,5410,1,0,0:0:0:0:
402,192,5410,1,0,0:0:0:0:
182,192,5410,1,0,0:0:0:0:
36,192,5410,1,0,0:0:0:0:
109,192,5410,1,0,0:0:0:0:
475,192,5429,1,0,0:0:0:0:
402,192,5429,1,0,0:0:0:0:
36,192,5429,1,0,0:0:0:0:
256,192,5429,1,0,0:0:0:0:
329,192,5429,1,0,0:0:0:0:
182,192,5429,1,0,0:0:0:0:
109,192,5429,1,0,0:0:0:0:
402,192,5449,1,0,0:0:0:0:
475,192,5449,1,0,0:0:0:0:
109,192,5449,1,0,0:0:0:0:
329,192,5449,1,0,0:0:0:0:
182,192,5449,1,0,0:0:0:0:
36,192,5449,1,0,0:0:0:0:
256,192,5449,1,0,0:0:0:0:
475,192,5468,1,0,0:0:0:0:
182,192,5468,1,0,0:0:0:0:
329,192,5468,1,0,0:0:0:0:
36,192,5468,1,0,0:0:0:0:
256,192,5468,1,0,0:0:0:0:
109,192,5468,1,0,0:0:0:0:
402,192,5468,1,0,0:0:0:0:
109,192,5478,1,0,0:0:0:0:
402,192,5478,1,0,0:0:0:0:
182,192,5488,1,0,0:0:0:0:
402,192,5488,1,0,0:0:0:0:
329,192,5488,1,0,0:0:0:0:
475,192,5488,1,0,0:0:0:0:
36,192,5488,1,0,0:0:0:0:
256,192,5488,1,0,0:0:0:0:
109,192,5488,1,0,0:0:0:0:
256,192,5507,1,0,0:0:0:0:
402,192,5507,1,0,0:0:0:0:
475,192,5507,1,0,0:0:0:0:
329,192,5507,1,0,0:0:0:0:
182,192,5507,1,0,0:0:0:0:
109,192,5507,1,0,0:0:0:0:
36,192,5507,1,0,0:0:0:0:
182,192,5527,1,0,0:0:0:0:
475,192,5527,1,0,0:0:0:0:
36,192,5527,1,0,0:0:0:0:
402,192,5527,1,0,0:0:0:0:
109,192,5527,1,0,0:0:0:0:
329,192,5527,1,0,0:0:0:0:
256,192,5527,1,0,0:0:0:0:
109,192,5546,5,0,0:0:0:0:
329,192,5546,1,0,0:0:0:0:
182,192,5546,1,0,0:0:0:0:
402,192,5546,1,0,0:0:0:0:
475,192,5546,1,0,0:0:0:0:
36,192,5546,1,0,0:0:0:0:
256,192,5546,1,0,0:0:0:0:
256,192,5556,1,0,0:0:0:0:
256,192,5566,1,0,0:0:0:0:
329,192,5566,1,0,0:0:0:0:
475,192,5566,1,0,0:0:0:0:
182,192,5566,1,0,0:0:0:0:
109,192,5566,1,0,0:0:0:0:
36,192,5566,1,0,0:0:0:0:
402,192,5566,1,0,0:0:0:0:
182,192,5585,1,0,0:0:0:0:
109,192,5585,1,0,0:0:0:0:
256,192,5585,1,0,0:0:0:0:
475,192,5585,1,0,0:0:0:0:
36,192,5585,1,0,0:0:0:0:
402,192,5585,1,0,0:0:0:0:
329,192,5585,1,0,0:0:0:0:
256,192,5605,1,0,0:0:0:0:
182,192,5605,1,0,0:0:0:0:
36,192,5605,1,0,0:0:0:0:
329,192,5605,1,0,0:0:0:0:
402,192,5605,1,0,0:0:0:0:
109,192,5605,1,0,0:0:0:0:
475,192,5605,1,0,0:0:0:0:
402,192,5625,1,0,0:0:0:0:
256,192,5625,1,0,0:0:0:0:
182,192,5625,1,0,0:0:0:0:
109,192,5625,1,0,0:0:0:0:
329,192,5625,1,0,0:0:0:0:
36,192,5625,1,0,0:0:0:0:
475,192,5625,1,0,0:0:0:0:
36,192,5634,1,0,0:0:0:0:
475,192,5634,1,0,0:0:0:0:
256,192,5644,1,0,0:0:0:0:
109,192,5644,1,0,0:0:0:0:
36,192,5644,1,0,0:0:0:0:
182,192,5644,1,0,0:0:0:0:
329,192,5644,1,0,0:0:0:0:
475,192,5644,1,0,0:0:0:0:
402,192,5644,1,0,0:0:0:0:
256,192,5664,1,0,0:0:0:0:
402,192,5664,1,0,0:0:0:0:
475,192,5664,1,0,0:0:0:0:
329,192,5664,1,0,0:0:0:0:
182,192,5664,1,0,0:0:0:0:
36,192,5664,1,0,0:0:0:0:
109,192,5664,1,0,0:0:0:0:
109,192,5683,1,0,0:0:0:0:
182,192,5683,1,0,0:0:0:0:
256,192,5683,1,0,0:0:0:0:
329,192,5683,1,0,0:0:0:0:
402,192,5683,1,0,0:0:0:0:
36,192,5683,1,0,0:0:0:0:
475,192,5683,1,0,0:0:0:0:
182,192,5703,1,0,0:0:0:0:
36,192,5703,1,0,0:0:0:0:
402,192,5703,1,0,0:0:0:0:
475,192,5703,1,0,0:0:0:0:
329,192,5703,1,0,0:0:0:0:
109,192,5703,1,0,0:0:0:0:
256,192,5703,1,0,0:0:0:0:
256,192,5712,1,0,0:0:0:0:
475,192,5722,1,0,0:0:0:0:
256,192,5722,1,0,0:0:0:0:
109,192,5722,1,0,0:0:0:0:
329,192,5722,1,0,0:0:0:0:
402,192,5722,1,0,0:0:0:0:
182,192,5722,1,0,0:0:0:0:
36,192,5722,1,0,0:0:0:0:
402,192,5742,1,0,0:0:0:0:
329,192,5742,1,0,0:0:0:0:
256,192,5742,1,0,0:0:0:0:
36,192,5742,1,0,0:0:0:0:
182,192,5742,1,0,0:0:0:0:
475,192,5742,1,0,0:0:0:0:
109,192,5742,1,0,0:0:0:0:
109,192,5761,5,0,0:0:0:0:
36,192,5761,1,0,0:0:0:0:
402,192,5761,1,0,0:0:0:0:
329,192,5761,1,0,0:0:0:0:
182,192,5761,1,0,0:0:0:0:
256,192,5761,1,0,0:0:0:0:
475,192,5761,1,0,0:0:0:0:
182,192,5781,1,0,0:0:0:0:
109,192,5781,1,0,0:0:0:0:
402,192,5781,1,0,0:0:0:0:
329,192,5781,1,0,0:0:0:0:
256,192,5781,1,0,0:0:0:0:
36,192,5781,1,0,0:0:0:0:
475,192,5781,1,0,0:0:0:0:
36,192,5791,1,0,0:0:0:0:
475,192,5791,1,0,0:0:0:0:
329,192,5800,1,0,0:0:0:0:
182,192,5800,1,0,0:0:0:0:
109,192,5800,1,0,0:0:0:0:
256,192,5800,1,0,0:0:0:0:
475,192,5800,1,0,0:0:0:0:
402,192,5800,1,0,0:0:0:0:
36,192,5800,1,0,0:0:0:0:
182,192,5820,1,0,0:0:0:0:
36,192,5820,1,0,0:0:0:0:
256,192,5820,1,0,0:0:0:0:
329,192,5820,1,0,0:0:0:0:
402,192,5820,1,0,0:0:0:0:
475,192,5820,1,0,0:0:0:0:
109,192,5820,1,0,0:0:0:0:
36,192,5839,1,0,0:0:0:0:
256,192,5839,1,0,0:0:0:0:
109,192,5839,1,0,0:0:0:0:
329,192,5839,1,0,0:0:0:0:
475,192,5839,1,0,0:0:0:0:
402,192,5839,1,0,0:0:0:0:
182,192,5839,1,0,0:0:0:0:
36,192,5859,1,0,0:0:0:0:
109,192,5859,1,0,0:0:0:0:
475,192,5859,1,0,0:0:0:0:
182,192,5859,1,0,0:0:0:0:
402,192,5859,1,0,0:0:0:0:
329,192,5859,1,0,0:0:0:0:
256,192,5859,1,0,0:0:0:0:
256,192,5869,1,0,0:0:0:0:
182,192,5878,1,0,0:0:0:0:
109,192,5878,1,0,0:0:0:0:
36,192,5878,1,0,0:0:0:0:
329,192,5878,1,0,0:0:0:0:
256,192,5878,1,0,0:0:0:0:
402,192,5878,1,0,0:0:0:0:
475,192,5878,1,0,0:0:0:0:
109,192,5898,1,0,0:0:0:0:
329,192,5898,1,0,0:0:0:0:
256,192,5898,1,0,0:0:0:0:
402,192,5898,1,0,0:0:0:0:
182,192,5898,1,0,0:0:0:0:
475,192,5898,1,0,0:0:0:0:
36,192,5898,1,0,0:0:0:0:
109,192,5917,5,0,0:0:0:0:
402,192,5917,1,0,0:0:0:0:
475,192,5917,1,0,0:0:0:0:
36,192,5917,1,0,0:0:0:0:
182,192,5917,1,0,0:0:0:0:
256,192,5917,1,0,0:0:0:0:
329,192,5917,1,0,0:0:0:0:
36,192,5937,1,0,0:0:0:0:
182,192,5937,1,0,0:0:0:0:
256,192,5937,1,0,0:0:0:0:
329,192,5937,1,0,0:0:0:0:
475,192,5937,1,0,0:0:0:0:
109,192,5937,1,0,0:0:0:0:
402,192,5937,1,0,0:0:0:0:
109,192,5947,1,0,0:0:0:0:
402,192,5947,1,0,0:0:0:0:
36,192,5957,1,0,0:0:0:0:
402,192,5957,1,0,0:0:0:0:
329,192,5957,1,0,0:0:0:0:
475,192,5957,1,0,0:0:0:0:
182,192,5957,1,0,0:0:0:0:
109,192,5957,1,0,0:0:0:0:
256,192,5957,1,0,0:0:0:0:
402,192,5976,1,0,0:0:0:0:
109,192,5976,1,0,0:0:0:0:
475,192,5976,1,0,0:0:0:0:
329,192,5976,1,0,0:0:0:0:
256,192,5976,1,0,0:0:0:0:
182,192,5976,1,0,0:0:0:0:
36,192,5976,1,0,0:0:0:0:
182,192,5996,1,0,0:0:0:0:
109,192,5996,1,0,0:0:0:0:
329,192,5996,1,0,0:0:0:0:
36,192,5996,1,0,0:0:0:0:
402,192,5996,1,0,0:0:0:0:
475,192,5996,1,0,0:0:0:0:
256,192,5996,1,0,0:0:0:0:
329,192,6015,1,0,0:0:0:0:
475,192,6015,1,0,0:0:0:0:
402,192,6015,1,0,0:0:0:0:
182,192,6015,1,0,0:0:0:0:
109,192,6015,1,0,0:0:0:0:
36,192,6015,1,0,0:0:0:0:
256,192,6015,1,0,0:0:0:0:
256,192,6025,1,0,0:0:0:0:
182,192,6035,1,0,0:0:0:0:
36,192,6035,1,0,0:0:0:0:
109,192,6035,1,0,0:0:0:0:
329,192,6035,1,0,0:0:0:0:
256,192,6035,1,0,0:0:0:0:
402,192,6035,1,0,0:0:0:0:
475,192,6035,1,0,0:0:0:0:
402,192,6054,1,0,0:0:0:0:
36,192,6054,1,0,0:0:0:0:
475,192,6054,1,0,0:0:0:0:
329,192,6054,1,0,0:0:0:0:
109,192,6054,1,0,0:0:0:0:
182,192,6054,1,0,0:0:0:0:
256,192,6054,1,0,0:0:0:0:
329,192,6074,1,0,0:0:0:0:
256,192,6074,1,0,0:0:0:0:
475,192,6074,1,0,0:0:0:0:
182,192,6074,1,0,0:0:0:0:
36,192,6074,1,0,0:0:0:0:
402,192,6074,1,0,0:0:0:0:
109,192,6074,1,0,0:0:0:0:
182,192,6093,1,0,0:0:0:0:
36,192,6093,1,0,0:0:0:0:
329,192,6093,1,0,0:0:0:0:
475,192,6093,1,0,0:0:0:0:
256,192,6093,1,0,0:0:0:0:
109,192,6093,1,0,0:0:0:0:
402,192,6093,1,0,0:0:0:0:
109,192,6103,1,0,0:0:0:0:
402,192,6103,1,0,0:0:0:0:
182,192,6113,1,0,0:0:0:0:
475,192,6113,1,0,0:0:0:0:
109,192,6113,1,0,0:0:0:0:
36,192,6113,1,0,0:0:0:0:
402,192,6113,1,0,0:0:0:0:
329,192,6113,1,0,0:0:0:0:
256,192,6113,1,0,0:0:0:0:
109,192,6132,5,0,0:0:0:0:
256,192,6132,1,0,0:0:0:0:
475,192,6132,1,0,0:0:0:0:
182,192,6132,1,0,0:0:0:0:
36,192,6132,1,0,0:0:0:0:
402,192,6132,1,0,0:0:0:0:
329,192,6132,1,0,0:0:0:0:
329,192,6152,1,0,0:0:0:0:
475,192,6152,1,0,0:0:0:0:
256,192,6152,1,0,0:0:0:0:
402,192,6152,1,0,0:0:0:0:
182,192,6152,1,0,0:0:0:0:
36,192,6152,1,0,0:0:0:0:
109,192,6152,1,0,0:0:0:0:
475,192,6171,1,0,0:0:0:0:
402,192,6171,1,0,0:0:0:0:
36,192,6171,1,0,0:0:0:0:
329,192,6171,1,0,0:0:0:0:
182,192,6171,1,0,0:0:0:0:
109,192,6171,1,0,0:0:0:0:
256,192,6171,1,0,0:0:0:0:
256,192,6181,1,0,0:0:0:0:
402,192,6191,1,0,0:0:0:0:
475,192,6191,1,0,0:0:0:0:
109,192,6191,1,0,0:0:0:0:
329,192,6191,1,0,0:0:0:0:
182,192,6191,1,0,0:0:0:0:
36,192,6191,1,0,0:0:0:0:
256,192,6191,1,0,0:0:0:0:
475,192,6210,1,0,0:0:0:0:
402,192,6210,1,0,0:0:0:0:
182,192,6210,1,0,0:0:0:0:
329,192,6210,1,0,0:0:0:0:
36,192,6210,1,0,0:0:0:0:
256,192,6210,1,0,0:0:0:0:
109,192,6210,1,0,0:0:0:0:
182,192,6230,1,0,0:0:0:0:
402,192,6230,1,0,0:0:0:0:
329,192,6230,1,0,0:0:0:0:
475,192,6230,1,0,0:0:0:0:
36,192,6230,1,0,0:0:0:0:
109,192,6230,1,0,0:0:0:0:
256,192,6230,1,0,0:0:0:0:
256,192,6250,1,0,0:0:0:0:
475,192,6250,1,0,0:0:0:0:
329,192,6250,1,0,0:0:0:0:
182,192,6250,1,0,0:0:0:0:
36,192,6250,1,0,0:0:0:0:
109,192,6250,1,0,0:0:0:0:
402,192,6250,1,0,0:0:0:0:
109,192,6259,1,0,0:0:0:0:
402,192,6259,1,0,0:0:0:0:
182,192,6269,1,0,0:0:0:0:
475,192,6269,1,0,0:0:0:0:
36,192,6269,1,0,0:0:0:0:
402,192,6269,1,0,0:0:0:0:
329,192,6269,1,0,0:0:0:0:
256,192,6269,1,0,0:0:0:0:
109,192,6269,1,0,0:0:0:0:
109,192,6289,5,0,0:0:0:0:
256,192,6289,1,0,0:0:0:0:
329,192,6289,1,0,0:0:0:0:
182,192,6289,1,0,0:0:0:0:
402,192,6289,1,0,0:0:0:0:
475,192,6289,1,0,0:0:0:0:
36,192,6289,1,0,0:0:0:0:
256,192,6308,1,0,0:0:0:0:
329,192,6308,1,0,0:0:0:0:
475,192,6308,1,0,0:0:0:0:
182,192,6308,1,0,0:0:0:0:
109,192,6308,1,0,0:0:0:0:
36,192,6308,1,0,0:0:0:0:
402,192,6308,1,0,0:0:0:0:
182,192,6328,1,0,0:0:0:0:
109,192,6328,1,0,0:0:0:0:
475,192,6328,1,0,0:0:0:0:
36,192,6328,1,0,0:0:0:0:
402,192,6328,1,0,0:0:0:0:
329,192,6328,1,0,0:0:0:0:
256,192,6328,1,0,0:0:0:0:
256,192,6337,1,0,0:0:0:0:
256,192,6347,1,0,0:0:0:0:
182,192,6347,1,0,0:0:0:0:
36,192,6347,1,0,0:0:0:0:
329,192,6347,1,0,0:0:0:0:
402,192,6347,1,0,0:0:0:0:
109,192,6347,1,0,0:0:0:0:
475,192,6347,1,0,0:0:0:0:
402,192,6367,1,0,0:0:0:0:
475,192,6367,1,0,0:0:0:0:
256,192,6367,1,0,0:0:0:0:
36,192,6367,1,0,0:0:0:0:
182,192,6367,1,0,0:0:0:0:
109,192,6367,1,0,0:0:0:0:
329,192,6367,1,0,0:0:0:0:
256,192,6386,1,0,0:0:0:0:
109,192,6386,1,0,0:0:0:0:
36,192,6386,1,0,0:0:0:0:
182,192,6386,1,0,0:0:0:0:
329,192,6386,1,0,0:0:0:0:
475,192,6386,1,0,0:0:0:0:
402,192,6386,1,0,0:0:0:0:
256,192,6406,1,0,0:0:0:0:
475,192,6406,1,0,0:0:0:0:
329,192,6406,1,0,0:0:0:0:
182,192,6406,1,0,0:0:0:0:
36,192,6406,1,0,0:0:0:0:
109,192,6406,1,0,0:0:0:0:
402,192,6406,1,0,0:0:0:0:
109,192,6416,1,0,0:0:0:0:
402,192,6416,1,0,0:0:0:0:
109,192,6425,1,0,0:0:0:0:
182,192,6425,1,0,0:0:0:0:
256,192,6425,1,0,0:0:0:0:
329,192,6425,1,0,0:0:0:0:
402,192,6425,1,0,0:0:0:0:
36,192,6425,1,0,0:0:0:0:
475,192,6425,1,0,0:0:0:0:
182,192,6445,1,0,0:0:0:0:
36,192,6445,1,0,0:0:0:0:
402,192,6445,1,0,0:0:0:0:
475,192,6445,1,0,0:0:0:0:
329,192,6445,1,0,0:0:0:0:
256,192,6445,1,0,0:0:0:0:
109,192,6445,1,0,0:0:0:0:
475,192,6464,1,0,0:0:0:0:
256,192,6464,1,0,0:0:0:0:
109,192,6464,1,0,0:0:0:0:
329,192,6464,1,0,0:0:0:0:
402,192,6464,1,0,0:0:0:0:
182,192,6464,1,0,0:0:0:0:
36,192,6464,1,0,0:0:0:0:
402,192,6484,1,0,0:0:0:0:
329,192,6484,1,0,0:0:0:0:
36,192,6484,1,0,0:0:0:0:
182,192,6484,1,0,0:0:0:0:
475,192,6484,1,0,0:0:0:0:
109,192,6484,1,0,0:0:0:0:
256,192,6484,1,0,0:0:0:0:
256,192,6494,1,0,0:0:0:0:
109,192,6503,5,0,0:0:0:0:
36,192,6503,1,0,0:0:0:0:
402,192,6503,1,0,0:0:0:0:
329,192,6503,1,0,0:0:0:0:
182,192,6503,1,0,0:0:0:0:
256,192,6503,1,0,0:0:0:0:
475,192,6503,1,0,0:0:0:0:
182,192,6523,1,0,0:0:0:0:
36,192,6523,1,0,0:0:0:0:
109,192,6523,1,0,0:0:0:0:
402,192,6523,1,0,0:0:0:0:
329,192,6523,1,0,0:0:0:0:
475,192,6523,1,0,0:0:0:0:
256,192,6523,1,0,0:0:0:0:
329,192,6542,1,0,0:0:0:0:
182,192,6542,1,0,0:0:0:0:
109,192,6542,1,0,0:0:0:0:
256,192,6542,1,0,0:0:0:0:
475,192,6542,1,0,0:0:0:0:
402,192,6542,1,0,0:0:0:0:
36,192,6542,1,0,0:0:0:0:
182,192,6562,1,0,0:0:0:0:
256,192,6562,1,0,0:0:0:0:
329,192,6562,1,0,0:0:0:0:
402,192,6562,1,0,0:0:0:0:
109,192,6562,1,0,0:0:0:0:
36,192,6562,1,0,0:0:0:0:
475,192,6562,1,0,0:0:0:0:
36,192,6572,1,0,0:0:0:0:
475,192,6572,1,0,0:0:0:0:
256,192,6582,1,0,0:0:0:0:
109,192,6582,1,0,0:0:0:0:
329,192,6582,1,0,0:0:0:0:
475,192,6582,1,0,0:0:0:0:
402,192,6582,1,0,0:0:0:0:
182,192,6582,1,0,0:0:0:0:
36,192,6582,1,0,0:0:0:0:
36,192,6601,1,0,0:0:0:0:
109,192,6601,1,0,0:0:0:0:
256,192,6601,1,0,0:0:0:0:
475,192,6601,1,0,0:0:0:0:
182,192,6601,1,0,0:0:0:0:
402,192,6601,1,0,0:0:0:0:
329,192,6601,1,0,0:0:0:0:
182,192,6621,1,0,0:0:0:0:
109,192,6621,1,0,0:0:0:0:
36,192,6621,1,0,0:0:0:0:
329,192,6621,1,0,0:0:0:0:
256,192,6621,1,0,0:0:0:0:
402,192,6621,1,0,0:0:0:0:
475,192,6621,1,0,0:0:0:0:
109,192,6640,1,0,0:0:0:0:
329,192,6640,1,0,0:0:0:0:
402,192,6640,1,0,0:0:0:0:
182,192,6640,1,0,0:0:0:0:
475,192,6640,1,0,0:0:0:0:
36,192,6640,1,0,0:0:0:0:
256,192,6640,1,0,0:0:0:0:
256,192,6650,1,0,0:0:0:0:
109,192,6660,5,0,0:0:0:0:
402,192,6660,1,0,0:0:0:0:
475,192,6660,1,0,0:0:0:0:
36,192,6660,1,0,0:0:0:0:
182,192,6660,1,0,0:0:0:0:
256,192,6660,1,0,0:0:0:0:
329,192,6660,1,0,0:0:0:0:
109,192,6679,1,0,0:0:0:0:
36,192,6679,1,0,0:0:0:0:
402,192,6679,1,0,0:0:0:0:
182,192,6679,1,0,0:0:0:0:
256,192,6679,1,0,0:0:0:0:
329,192,6679,1,0,0:0:0:0:
475,192,6679,1,0,0:0:0:0:
36,192,6699,1,0,0:0:0:0:
402,192,6699,1,0,0:0:0:0:
329,192,6699,1,0,0:0:0:0:
475,192,6699,1,0,0:0:0:0:
182,192,6699,1,0,0:0:0:0:
109,192,6699,1,0,0:0:0:0:
256,192,6699,1,0,0:0:0:0:
402,192,6718,1,0,0:0:0:0:
109,192,6718,1,0,0:0:0:0:
329,192,6718,1,0,0:0:0:0:
256,192,6718,1,0,0:0:0:0:
182,192,6718,1,0,0:0:0:0:
475,192,6718,1,0,0:0:0:0:
36,192,6718,1,0,0:0:0:0:
475,192,6728,1,0,0:0:0:0:
36,192,6728,1,0,0:0:0:0:
182,192,6738,1,0,0:0:0:0:
109,192,6738,1,0,0:0:0:0:
329,192,6738,1,0,0:0:0:0:
36,192,6738,1,0,0:0:0:0:
402,192,6738,1,0,0:0:0:0:
475,192,6738,1,0,0:0:0:0:
256,192,6738,1,0,0:0:0:0:
329,192,6757,1,0,0:0:0:0:
475,192,6757,1,0,0:0:0:0:
402,192,6757,1,0,0:0:0:0:
182,192,6757,1,0,0:0:0:0:
256,192,6757,1,0,0:0:0:0:
109,192,6757,1,0,0:0:0:0:
36,192,6757,1,0,0:0:0:0:
182,192,6777,1,0,0:0:0:0:
36,192,6777,1,0,0:0:0:0:
109,192,6777,1,0,0:0:0:0:
329,192,6777,1,0,0:0:0:0:
256,192,6777,1,0,0:0:0:0:
402,192,6777,1,0,0:0:0:0:
475,192,6777,1,0,0:0:0:0:
402,192,6796,1,0,0:0:0:0:
36,192,6796,1,0,0:0:0:0:
475,192,6796,1,0,0:0:0:0:
329,192,6796,1,0,0:0:0:0:
109,192,6796,1,0,0:0:0:0:
182,192,6796,1,0,0:0:0:0:
256,192,6796,1,0,0:0:0:0:
256,192,6806,1,0,0:0:0:0:
329,192,6816,1,0,0:0:0:0:
256,192,6816,1,0,0:0:0:0:
109,192,6816,1,0,0:0:0:0:
475,192,6816,1,0,0:0:0:0:
182,192,6816,1,0,0:0:0:0:
36,192,6816,1,0,0:0:0:0:
402,192,6816,1,0,0:0:0:0:
402,192,6835,1,0,0:0:0:0:
182,192,6835,1,0,0:0:0:0:
36,192,6835,1,0,0:0:0:0:
329,192,6835,1,0,0:0:0:0:
475,192,6835,1,0,0:0:0:0:
256,192,6835,1,0,0:0:0:0:
109,192,6835,1,0,0:0:0:0:
182,192,6855,1,0,0:0:0:0:
475,192,6855,1,0,0:0:0:0:
109,192,6855,1,0,0:0:0:0:
36,192,6855,1,0,0:0:0:0:
402,192,6855,1,0,0:0:0:0:
329,192,6855,1,0,0:0:0:0:
256,192,6855,1,0,0:0:0:0:
109,192,6875,5,0,0:0:0:0:
256,192,6875,1,0,0:0:0:0:
182,192,6875,1,0,0:0:0:0:
402,192,6875,1,0,0:0:0:0:
329,192,6875,1,0,0:0:0:0:
36,192,6875,1,0,0:0:0:0:
475,192,6875,1,0,0:0:0:0:
36,192,6884,1,0,0:0:0:0:
475,192,6884,1,0,0:0:0:0:
329,192,6894,1,0,0:0:0:0:
475,192,6894,1,0,0:0:0:0:
256,192,6894,1,0,0:0:0:0:
402,192,6894,1,0,0:0:0:0:
182,192,6894,1,0,0:0:0:0:
36,192,6894,1,0,0:0:0:0:
109,192,6894,1,0,0:0:0:0:
475,192,6914,1,0,0:0:0:0:
402,192,6914,1,0,0:0:0:0:
36,192,6914,1,0,0:0:0:0:
256,192,6914,1,0,0:0:0:0:
329,192,6914,1,0,0:0:0:0:
182,192,6914,1,0,0:0:0:0:
109,192,6914,1,0,0:0:0:0:
402,192,6933,1,0,0:0:0:0:
475,192,6933,1,0,0:0:0:0:
109,192,6933,1,0,0:0:0:0:
329,192,6933,1,0,0:0:0:0:
182,192,6933,1,0,0:0:0:0:
36,192,6933,1,0,0:0:0:0:
256,192,6933,1,0,0:0:0:0:
475,192,6953,1,0,0:0:0:0:
402,192,6953,1,0,0:0:0:0:
182,192,6953,1,0,0:0:0:0:
329,192,6953,1,0,0:0:0:0:
36,192,6953,1,0,0:0:0:0:
109,192,6953,1,0,0:0:0:0:
256,192,6953,1,0,0:0:0:0:
256,192,6962,1,0,0:0:0:0:
182,192,6972,1,0,0:0:0:0:
402,192,6972,1,0,0:0:0:0:
329,192,6972,1,0,0:0:0:0:
475,192,6972,1,0,0:0:0:0:
36,192,6972,1,0,0:0:0:0:
109,192,6972,1,0,0:0:0:0:
256,192,6972,1,0,0:0:0:0:
256,192,6992,1,0,0:0:0:0:
402,192,6992,1,0,0:0:0:0:
475,192,6992,1,0,0:0:0:0:
329,192,6992,1,0,0:0:0:0:
182,192,6992,1,0,0:0:0:0:
109,192,6992,1,0,0:0:0:0:
36,192,6992,1,0,0:0:0:0:
182,192,7011,1,0,0:0:0:0:
475,192,7011,1,0,0:0:0:0:
36,192,7011,1,0,0:0:0:0:
402,192,7011,1,0,0:0:0:0:
109,192,7011,1,0,0:0:0:0:
329,192,7011,1,0,0:0:0:0:
256,192,7011,1,0,0:0:0:0:
109,192,7031,5,0,0:0:0:0:
256,192,7031,1,0,0:0:0:0:
329,192,7031,1,0,0:0:0:0:
182,192,7031,1,0,0:0:0:0:
402,192,7031,1,0,0:0:0:0:
475,192,7031,1,0,0:0:0:0:
36,192,7031,1,0,0:0:0:0:
475,192,7041,1,0,0:0:0:0:
36,192,7041,1,0,0:0:0:0:
256,192,7050,1,0,0:0:0:0:
329,192,7050,1,0,0:0:0:0:
475,192,7050,1,0,0:0:0:0:
182,192,7050,1,0,0:0:0:0:
109,192,7050,1,0,0:0:0:0:
36,192,7050,1,0,0:0:0:0:
402,192,7050,1,0,0:0:0:0:
182,192,7070,1,0,0:0:0:0:
109,192,7070,1,0,0:0:0:0:
256,192,7070,1,0,0:0:0:0:
475,192,7070,1,0,0:0:0:0:
36,192,7070,1,0,0:0:0:0:
402,192,7070,1,0,0:0:0:0:
329,192,7070,1,0,0:0:0:0:
256,192,7089,1,0,0:0:0:0:
182,192,7089,1,0,0:0:0:0:
36,192,7089,1,0,0:0:0:0:
329,192,7089,1,0,0:0:0:0:
402,192,7089,1,0,0:0:0:0:
109,192,7089,1,0,0:0:0:0:
475,192,7089,1,0,0:0:0:0:
402,192,7109,1,0,0:0:0:0:
475,192,7109,1,0,0:0:0:0:
36,192,7109,1,0,0:0:0:0:
182,192,7109,1,0,0:0:0:0:
109,192,7109,1,0,0:0:0:0:
329,192,7109,1,0,0:0:0:0:
256,192,7109,1,0,0:0:0:0:
256,192,7119,1,0,0:0:0:0:
256,192,7128,1,0,0:0:0:0:
109,192,7128,1,0,0:0:0:0:
36,192,7128,1,0,0:0:0:0:
182,192,7128,1,0,0:0:0:0:
329,192,7128,1,0,0:0:0:0:
475,192,7128,1,0,0:0:0:0:
402,192,7128,1,0,0:0:0:0:
256,192,7148,1,0,0:0:0:0:
402,192,7148,1,0,0:0:0:0:
475,192,7148,1,0,0:0:0:0:
329,192,7148,1,0,0:0:0:0:
182,192,7148,1,0,0:0:0:0:
36,192,7148,1,0,0:0:0:0:
109,192,7148,1,0,0:0:0:0:
109,192,7167,1,0,0:0:0:0:
182,192,7167,1,0,0:0:0:0:
256,192,7167,1,0,0:0:0:0:
329,192,7167,1,0,0:0:0:0:
402,192,7167,1,0,0:0:0:0:
36,192,7167,1,0,0:0:0:0:
475,192,7167,1,0,0:0:0:0:
182,192,7187,1,0,0:0:0:0:
36,192,7187,1,0,0:0:0:0:
475,192,7187,1,0,0:0:0:0:
329,192,7187,1,0,0:0:0:0:
256,192,7187,1,0,0:0:0:0:
402,192,7187,1,0,0:0:0:0:
109,192,7187,1,0,0:0:0:0:
402,192,7197,1,0,0:0:0:0:
109,192,7197,1,0,0:0:0:0:
475,192,7207,1,0,0:0:0:0:
256,192,7207,1,0,0:0:0:0:
109,192,7207,1,0,0:0:0:0:
329,192,7207,1,0,0:0:0:0:
402,192,7207,1,0,0:0:0:0:
182,192,7207,1,0,0:0:0:0:
36,192,7207,1,0,0:0:0:0:
402,192,7226,1,0,0:0:0:0:
329,192,7226,1,0,0:0:0:0:
256,192,7226,1,0,0:0:0:0:
36,192,7226,1,0,0:0:0:0:
182,192,7226,1,0,0:0:0:0:
475,192,7226,1,0,0:0:0:0:
109,192,7226,1,0,0:0:0:0:
109,192,7246,5,0,0:0:0:0:
36,192,7246,1,0,0:0:0:0:
402,192,7246,1,0,0:0:0:0:
329,192,7246,1,0,0:0:0:0:
182,192,7246,1,0,0:0:0:0:
256,192,7246,1,0,0:0:0:0:
475,192,7246,1,0,0:0:0:0:
182,192,7265,1,0,0:0:0:0:
36,192,7265,1,0,0:0:0:0:
109,192,7265,1,0,0:0:0:0:
402,192,7265,1,0,0:0:0:0:
329,192,7265,1,0,0:0:0:0:
475,192,7265,1,0,0:0:0:0:
256,192,7265,1,0,0:0:0:0:
256,192,7275,1,0,0:0:0:0:
329,192,7285,1,0,0:0:0:0:
182,192,7285,1,0,0:0:0:0:
109,192,7285,1,0,0:0:0:0:
256,192,7285,1,0,0:0:0:0:
475,192,7285,1,0,0:0:0:0:
402,192,7285,1,0,0:0:0:0:
36,192,7285,1,0,0:0:0:0:
182,192,7304,1,0,0:0:0:0:
36,192,7304,1,0,0:0:0:0:
256,192,7304,1,0,0:0:0:0:
329,192,7304,1,0,0:0:0:0:
402,192,7304,1,0,0:0:0:0:
475,192,7304,1,0,0:0:0:0:
109,192,7304,1,0,0:0:0:0:
36,192,7324,1,0,0:0:0:0:
256,192,7324,1,0,0:0:0:0:
109,192,7324,1,0,0:0:0:0:
329,192,7324,1,0,0:0:0:0:
475,192,7324,1,0,0:0:0:0:
402,192,7324,1,0,0:0:0:0:
182,192,7324,1,0,0:0:0:0:
36,192,7343,1,0,0:0:0:0:
256,192,7343,1,0,0:0:0:0:
475,192,7343,1,0,0:0:0:0:
182,192,7343,1,0,0:0:0:0:
329,192,7343,1,0,0:0:0:0:
109,192,7343,1,0,0:0:0:0:
402,192,7343,1,0,0:0:0:0:
109,192,7353,1,0,0:0:0:0:
402,192,7353,1,0,0:0:0:0:
182,192,7363,1,0,0:0:0:0:
109,192,7363,1,0,0:0:0:0:
36,192,7363,1,0,0:0:0:0:
329,192,7363,1,0,0:0:0:0:
256,192,7363,1,0,0:0:0:0:
402,192,7363,1,0,0:0:0:0:
475,192,7363,1,0,0:0:0:0:
109,192,7382,1,0,0:0:0:0:
329,192,7382,1,0,0:0:0:0:
256,192,7382,1,0,0:0:0:0:
402,192,7382,1,0,0:0:0:0:
182,192,7382,1,0,0:0:0:0:
475,192,7382,1,0,0:0:0:0:
36,192,7382,1,0,0:0:0:0:
109,192,7402,5,0,0:0:0:0:
402,192,7402,1,0,0:0:0:0:
475,192,7402,1,0,0:0:0:0:
36,192,7402,1,0,0:0:0:0:
182,192,7402,1,0,0:0:0:0:
256,192,7402,1,0,0:0:0:0:
329,192,7402,1,0,0:0:0:0:
109,192,7421,1,0,0:0:0:0:
36,192,7421,1,0,0:0:0:0:
402,192,7421,1,0,0:0:0:0:
182,192,7421,1,0,0:0:0:0:
329,192,7421,1,0,0:0:0:0:
475,192,7421,1,0,0:0:0:0:
256,192,7421,1,0,0:0:0:0:
256,192,7431,1,0,0:0:0:0:
36,192,7441,1,0,0:0:0:0:
402,192,7441,1,0,0:0:0:0:
329,192,7441,1,0,0:0:0:0:
475,192,7441,1,0,0:0:0:0:
182,192,7441,1,0,0:0:0:0:
109,192,7441,1,0,0:0:0:0:
256,192,7441,1,0,0:0:0:0:
402,192,7460,1,0,0:0:0:0:
109,192,7460,1,0,0:0:0:0:
475,192,7460,1,0,0:0:0:0:
329,192,7460,1,0,0:0:0:0:
256,192,7460,1,0,0:0:0:0:
182,192,7460,1,0,0:0:0:0:
36,192,7460,1,0,0:0:0:0:
182,192,7480,1,0,0:0:0:0:
109,192,7480,1,0,0:0:0:0:
329,192,7480,1,0,0:0:0:0:
36,192,7480,1,0,0:0:0:0:
402,192,7480,1,0,0:0:0:0:
475,192,7480,1,0,0:0:0:0:
256,192,7480,1,0,0:0:0:0:
329,192,7500,1,0,0:0:0:0:
402,192,7500,1,0,0:0:0:0:
182,192,7500,1,0,0:0:0:0:
109,192,7500,1,0,0:0:0:0:
256,192,7500,1,0,0:0:0:0:
36,192,7500,1,0,0:0:0:0:
475,192,7500,1,0,0:0:0:0:
256,192,7509,1,0,0:0:0:0:
36,192,7509,1,0,0:0:0:0:
475,192,7509,1,0,0:0:0:0:
182,192,7519,1,0,0:0:0:0:
109,192,7519,1,0,0:0:0:0:
329,192,7519,1,0,0:0:0:0:
256,192,7519,1,0,0:0:0:0:
402,192,7519,1,0,0:0:0:0:
475,192,7519,1,0,0:0:0:0:
36,192,7519,1,0,0:0:0:0:
402,192,7539,1,0,0:0:0:0:
36,192,7539,1,0,0:0:0:0:
475,192,7539,1,0,0:0:0:0:
329,192,7539,1,0,0:0:0:0:
109,192,7539,1,0,0:0:0:0:
182,192,7539,1,0,0:0:0:0:
256,192,7539,1,0,0:0:0:0:
329,192,7558,1,0,0:0:0:0:
256,192,7558,1,0,0:0:0:0:
109,192,7558,1,0,0:0:0:0:
475,192,7558,1,0,0:0:0:0:
182,192,7558,1,0,0:0:0:0:
36,192,7558,1,0,0:0:0:0:
402,192,7558,1,0,0:0:0:0:
402,192,7578,1,0,0:0:0:0:
182,192,7578,1,0,0:0:0:0:
36,192,7578,1,0,0:0:0:0:
329,192,7578,1,0,0:0:0:0:
475,192,7578,1,0,0:0:0:0:
256,192,7578,1,0,0:0:0:0:
109,192,7578,1,0,0:0:0:0:
182,192,7597,1,0,0:0:0:0:
475,192,7597,1,0,0:0:0:0:
109,192,7597,1,0,0:0:0:0:
36,192,7597,1,0,0:0:0:0:
402,192,7597,1,0,0:0:0:0:
329,192,7597,1,0,0:0:0:0:
256,192,7597,1,0,0:0:0:0:
109,192,7617,5,0,0:0:0:0:
256,192,7617,1,0,0:0:0:0:
475,192,7617,1,0,0:0:0:0:
182,192,7617,1,0,0:0:0:0:
36,192,7617,1,0,0:0:0:0:
402,192,7617,1,0,0:0:0:0:
329,192,7617,1,0,0:0:0:0:
329,192,7636,1,0,0:0:0:0:
475,192,7636,1,0,0:0:0:0:
256,192,7636,1,0,0:0:0:0:
402,192,7636,1,0,0:0:0:0:
182,192,7636,1,0,0:0:0:0:
36,192,7636,1,0,0:0:0:0:
109,192,7636,1,0,0:0:0:0:
475,192,7656,1,0,0:0:0:0:
402,192,7656,1,0,0:0:0:0:
36,192,7656,1,0,0:0:0:0:
256,192,7656,1,0,0:0:0:0:
329,192,7656,1,0,0:0:0:0:
182,192,7656,1,0,0:0:0:0:
109,192,7656,1,0,0:0:0:0:
402,192,7675,1,0,0:0:0:0:
475,192,7675,1,0,0:0:0:0:
109,192,7675,1,0,0:0:0:0:
329,192,7675,1,0,0:0:0:0:
182,192,7675,1,0,0:0:0:0:
36,192,7675,1,0,0:0:0:0:
256,192,7675,1,0,0:0:0:0:
475,192,7695,1,0,0:0:0:0:
402,192,7695,1,0,0:0:0:0:
182,192,7695,1,0,0:0:0:0:
329,192,7695,1,0,0:0:0:0:
36,192,7695,1,0,0:0:0:0:
256,192,7695,1,0,0:0:0:0:
109,192,7695,1,0,0:0:0:0:
182,192,7714,1,0,0:0:0:0:
402,192,7714,1,0,0:0:0:0:
329,192,7714,1,0,0:0:0:0:
475,192,7714,1,0,0:0:0:0:
36,192,7714,1,0,0:0:0:0:
109,192,7714,1,0,0:0:0:0:
256,192,7714,1,0,0:0:0:0:
256,192,7734,1,0,0:0:0:0:
402,192,7734,1,0,0:0:0:0:
475,192,7734,1,0,0:0:0:0:
329,192,7734,1,0,0:0:0:0:
182,192,7734,1,0,0:0:0:0:
109,192,7734,1,0,0:0:0:0:
36,192,7734,1,0,0:0:0:0:
182,192,7753,1,0,0:0:0:0:
475,192,7753,1,0,0:0:0:0:
36,192,7753,1,0,0:0:0:0:
402,192,7753,1,0,0:0:0:0:
109,192,7753,1,0,0:0:0:0:
329,192,7753,1,0,0:0:0:0:
256,192,7753,1,0,0:0:0:0:
109,192,7773,5,0,0:0:0:0:
256,192,7773,1,0,0:0:0:0:
329,192,7773,1,0,0:0:0:0:
182,192,7773,1,0,0:0:0:0:
402,192,7773,1,0,0:0:0:0:
475,192,7773,1,0,0:0:0:0:
36,192,7773,1,0,0:0:0:0:
256,192,7792,1,0,0:0:0:0:
329,192,7792,1,0,0:0:0:0:
475,192,7792,1,0,0:0:0:0:
182,192,7792,1,0,0:0:0:0:
109,192,7792,1,0,0:0:0:0:
36,192,7792,1,0,0:0:0:0:
402,192,7792,1,0,0:0:0:0:
182,192,7812,1,0,0:0:0:0:
475,192,7812,1,0,0:0:0:0:
36,192,7812,1,0,0:0:0:0:
329,192,7812,1,0,0:0:0:0:
109,192,7812,1,0,0:0:0:0:
256,192,7812,1,0,0:0:0:0:
402,192,7812,1,0,0:0:0:0:
109,192,7822,1,0,0:0:0:0:
256,192,7822,1,0,0:0:0:0:
402,192,7822,1,0,0:0:0:0:
256,192,7832,1,0,0:0:0:0:
182,192,7832,1,0,0:0:0:0:
36,192,7832,1,0,0:0:0:0:
329,192,7832,1,0,0:0:0:0:
402,192,7832,1,0,0:0:0:0:
109,192,7832,1,0,0:0:0:0:
475,192,7832,1,0,0:0:0:0:
402,192,7851,1,0,0:0:0:0:
475,192,7851,1,0,0:0:0:0:
256,192,7851,1,0,0:0:0:0:
36,192,7851,1,0,0:0:0:0:
182,192,7851,1,0,0:0:0:0:
109,192,7851,1,0,0:0:0:0:
329,192,7851,1,0,0:0:0:0:
256,192,7871,1,0,0:0:0:0:
109,192,7871,1,0,0:0:0:0:
36,192,7871,1,0,0:0:0:0:
182,192,7871,1,0,0:0:0:0:
329,192,7871,1,0,0:0:0:0:
475,192,7871,1,0,0:0:0:0:
402,192,7871,1,0,0:0:0:0:
256,192,7890,1,0,0:0:0:0:
402,192,7890,1,0,0:0:0:0:
475,192,7890,1,0,0:0:0:0:
329,192,7890,1,0,0:0:0:0:
182,192,7890,1,0,0:0:0:0:
36,192,7890,1,0,0:0:0:0:
109,192,7890,1,0,0:0:0:0:
109,192,7910,1,0,0:0:0:0:
182,192,7910,1,0,0:0:0:0:
256,192,7910,1,0,0:0:0:0:
329,192,7910,1,0,0:0:0:0:
402,192,7910,1,0,0:0:0:0:
36,192,7910,1,0,0:0:0:0:
475,192,7910,1,0,0:0:0:0:
182,192,7929,1,0,0:0:0:0:
36,192,7929,1,0,0:0:0:0:
402,192,7929,1,0,0:0:0:0:
475,192,7929,1,0,0:0:0:0:
329,192,7929,1,0,0:0:0:0:
256,192,7929,1,0,0:0:0:0:
109,192,7929,1,0,0:0:0:0:
475,192,7949,1,0,0:0:0:0:
256,192,7949,1,0,0:0:0:0:
109,192,7949,1,0,0:0:0:0:
329,192,7949,1,0,0:0:0:0:
402,192,7949,1,0,0:0:0:0:
182,192,7949,1,0,0:0:0:0:
36,192,7949,1,0,0:0:0:0:
402,192,7968,1,0,0:0:0:0:
329,192,7968,1,0,0:0:0:0:
256,192,7968,1,0,0:0:0:0:
36,192,7968,1,0,0:0:0:0:
182,192,7968,1,0,0:0:0:0:
475,192,7968,1,0,0:0:0:0:
109,192,7968,1,0,0:0:0:0:
109,192,7988,5,0,0:0:0:0:
36,192,7988,1,0,0:0:0:0:
402,192,7988,1,0,0:0:0:0:
329,192,7988,1,0,0:0:0:0:
182,192,7988,1,0,0:0:0:0:
256,192,7988,1,0,0:0:0:0:
475,192,7988,1,0,0:0:0:0:
182,192,8007,1,0,0:0:0:0:
36,192,8007,1,0,0:0:0:0:
109,192,8007,1,0,0:0:0:0:
402,192,8007,1,0,0:0:0:0:
329,192,8007,1,0,0:0:0:0:
475,192,8007,1,0,0:0:0:0:
256,192,8007,1,0,0:0:0:0:
329,192,8027,1,0,0:0:0:0:
182,192,8027,1,0,0:0:0:0:
109,192,8027,1,0,0:0:0:0:
256,192,8027,1,0,0:0:0:0:
475,192,8027,1,0,0:0:0:0:
402,192,8027,1,0,0:0:0:0:
36,192,8027,1,0,0:0:0:0:
182,192,8046,1,0,0:0:0:0:
36,192,8046,1,0,0:0:0:0:
329,192,8046,1,0,0:0:0:0:
475,192,8046,1,0,0:0:0:0:
109,192,8046,1,0,0:0:0:0:
256,192,8046,1,0,0:0:0:0:
402,192,8046,1,0,0:0:0:0:
109,192,8056,1,0,0:0:0:0:
256,192,8056,1,0,0:0:0:0:
402,192,8056,1,0,0:0:0:0:
36,192,8066,1,0,0:0:0:0:
256,192,8066,1,0,0:0:0:0:
109,192,8066,1,0,0:0:0:0:
329,192,8066,1,0,0:0:0:0:
475,192,8066,1,0,0:0:0:0:
402,192,8066,1,0,0:0:0:0:
182,192,8066,1,0,0:0:0:0:
36,192,8085,1,0,0:0:0:0:
109,192,8085,1,0,0:0:0:0:
256,192,8085,1,0,0:0:0:0:
475,192,8085,1,0,0:0:0:0:
182,192,8085,1,0,0:0:0:0:
402,192,8085,1,0,0:0:0:0:
329,192,8085,1,0,0:0:0:0:
182,192,8105,1,0,0:0:0:0:
109,192,8105,1,0,0:0:0:0:
36,192,8105,1,0,0:0:0:0:
329,192,8105,1,0,0:0:0:0:
256,192,8105,1,0,0:0:0:0:
402,192,8105,1,0,0:0:0:0:
475,192,8105,1,0,0:0:0:0:
109,192,8125,1,0,0:0:0:0:
329,192,8125,1,0,0:0:0:0:
402,192,8125,1,0,0:0:0:0:
182,192,8125,1,0,0:0:0:0:
475,192,8125,1,0,0:0:0:0:
256,192,8125,1,0,0:0:0:0:
36,192,8125,1,0,0:0:0:0:
475,192,8134,1,0,0:0:0:0:
256,192,8134,1,0,0:0:0:0:
36,192,8134,1,0,0:0:0:0:
109,192,8144,5,0,0:0:0:0:
402,192,8144,1,0,0:0:0:0:
475,192,8144,1,0,0:0:0:0:
36,192,8144,1,0,0:0:0:0:
182,192,8144,1,0,0:0:0:0:
256,192,8144,1,0,0:0:0:0:
329,192,8144,1,0,0:0:0:0:
109,192,8164,1,0,0:0:0:0:
36,192,8164,1,0,0:0:0:0:
402,192,8164,1,0,0:0:0:0:
182,192,8164,1,0,0:0:0:0:
256,192,8164,1,0,0:0:0:0:
329,192,8164,1,0,0:0:0:0:
475,192,8164,1,0,0:0:0:0:
36,192,8183,1,0,0:0:0:0:
402,192,8183,1,0,0:0:0:0:
329,192,8183,1,0,0:0:0:0:
475,192,8183,1,0,0:0:0:0:
182,192,8183,1,0,0:0:0:0:
109,192,8183,1,0,0:0:0:0:
256,192,8183,1,0,0:0:0:0:
402,192,8203,1,0,0:0:0:0:
109,192,8203,1,0,0:0:0:0:
475,192,8203,1,0,0:0:0:0:
329,192,8203,1,0,0:0:0:0:
256,192,8203,1,0,0:0:0:0:
182,192,8203,1,0,0:0:0:0:
36,192,8203,1,0,0:0:0:0:
182,192,8222,1,0,0:0:0:0:
109,192,8222,1,0,0:0:0:0:
329,192,8222,1,0,0:0:0:0:
36,192,8222,1,0,0:0:0:0:
402,192,8222,1,0,0:0:0:0:
475,192,8222,1,0,0:0:0:0:
256,192,8222,1,0,0:0:0:0:
329,192,8242,1,0,0:0:0:0:
475,192,8242,1,0,0:0:0:0:
402,192,8242,1,0,0:0:0:0:
182,192,8242,1,0,0:0:0:0:
256,192,8242,1,0,0:0:0:0:
109,192,8242,1,0,0:0:0:0:
36,192,8242,1,0,0:0:0:0:
182,192,8261,1,0,0:0:0:0:
36,192,8261,1,0,0:0:0:0:
109,192,8261,1,0,0:0:0:0:
329,192,8261,1,0,0:0:0:0:
256,192,8261,1,0,0:0:0:0:
402,192,8261,1,0,0:0:0:0:
475,192,8261,1,0,0:0:0:0:
402,192,8281,1,0,0:0:0:0:
36,192,8281,1,0,0:0:0:0:
475,192,8281,1,0,0:0:0:0:
329,192,8281,1,0,0:0:0:0:
109,192,8281,1,0,0:0:0:0:
182,192,8281,1,0,0:0:0:0:
256,192,8281,1,0,0:0:0:0:
329,192,8300,1,0,0:0:0:0:
256,192,8300,1,0,0:0:0:0:
109,192,8300,1,0,0:0:0:0:
475,192,8300,1,0,0:0:0:0:
182,192,8300,1,0,0:0:0:0:
36,192,8300,1,0,0:0:0:0:
402,192,8300,1,0,0:0:0:0:
402,192,8320,1,0,0:0:0:0:
182,192,8320,1,0,0:0:0:0:
36,192,8320,1,0,0:0:0:0:
329,192,8320,1,0,0:0:0:0:
475,192,8320,1,0,0:0:0:0:
256,192,8320,1,0,0:0:0:0:
109,192,8320,1,0,0:0:0:0:
182,192,8339,1,0,0:0:0:0:
475,192,8339,1,0,0:0:0:0:
109,192,8339,1,0,0:0:0:0:
36,192,8339,1,0,0:0:0:0:
402,192,8339,1,0,0:0:0:0:
329,192,8339,1,0,0:0:0:0:
256,192,8339,1,0,0:0:0:0:
109,192,8359,5,0,0:0:0:0:
256,192,8359,1,0,0:0:0:0:
475,192,8359,1,0,0:0:0:0:
182,192,8359,1,0,0:0:0:0:
36,192,8359,1,0,0:0:0:0:
402,192,8359,1,0,0:0:0:0:
329,192,8359,1,0,0:0:0:0:
329,192,8378,1,0,0:0:0:0:
475,192,8378,1,0,0:0:0:0:
256,192,8378,1,0,0:0:0:0:
402,192,8378,1,0,0:0:0:0:
182,192,8378,1,0,0:0:0:0:
36,192,8378,1,0,0:0:0:0:
109,192,8378,1,0,0:0:0:0:
475,192,8398,1,0,0:0:0:0:
402,192,8398,1,0,0:0:0:0:
36,192,8398,1,0,0:0:0:0:
256,192,8398,1,0,0:0:0:0:
329,192,8398,1,0,0:0:0:0:
182,192,8398,1,0,0:0:0:0:
109,192,8398,1,0,0:0:0:0:
402,192,8417,1,0,0:0:0:0:
475,192,8417,1,0,0:0:0:0:
109,192,8417,1,0,0:0:0:0:
329,192,8417,1,0,0:0:0:0:
182,192,8417,1,0,0:0:0:0:
36,192,8417,1,0,0:0:0:0:
256,192,8417,1,0,0:0:0:0:
402,192,8437,1,0,0:0:0:0:
256,192,8437,1,0,0:0:0:0:
109,192,8437,1,0,0:0:0:0:
36,192,8437,1,0,0:0:0:0:
182,192,8437,1,0,0:0:0:0:
329,192,8437,1,0,0:0:0:0:
475,192,8437,1,0,0:0:0:0:
36,192,8447,1,0,0:0:0:0:
182,192,8447,1,0,0:0:0:0:
329,192,8447,1,0,0:0:0:0:
475,192,8447,1,0,0:0:0:0:
182,192,8457,1,0,0:0:0:0:
402,192,8457,1,0,0:0:0:0:
329,192,8457,1,0,0:0:0:0:
475,192,8457,1,0,0:0:0:0:
36,192,8457,1,0,0:0:0:0:
109,192,8457,1,0,0:0:0:0:
256,192,8457,1,0,0:0:0:0:
256,192,8476,1,0,0:0:0:0:
402,192,8476,1,0,0:0:0:0:
475,192,8476,1,0,0:0:0:0:
329,192,8476,1,0,0:0:0:0:
182,192,8476,1,0,0:0:0:0:
109,192,8476,1,0,0:0:0:0:
36,192,8476,1,0,0:0:0:0:
182,192,8496,1,0,0:0:0:0:
475,192,8496,1,0,0:0:0:0:
36,192,8496,1,0,0:0:0:0:
402,192,8496,1,0,0:0:0:0:
109,192,8496,1,0,0:0:0:0:
329,192,8496,1,0,0:0:0:0:
256,192,8496,1,0,0:0:0:0:
109,192,8515,5,0,0:0:0:0:
256,192,8515,1,0,0:0:0:0:
329,192,8515,1,0,0:0:0:0:
182,192,8515,1,0,0:0:0:0:
402,192,8515,1,0,0:0:0:0:
475,192,8515,1,0,0:0:0:0:
36,192,8515,1,0,0:0:0:0:
256,192,8535,1,0,0:0:0:0:
329,192,8535,1,0,0:0:0:0:
475,192,8535,1,0,0:0:0:0:
182,192,8535,1,0,0:0:0:0:
109,192,8535,1,0,0:0:0:0:
36,192,8535,1,0,0:0:0:0:
402,192,8535,1,0,0:0:0:0:
182,192,8554,1,0,0:0:0:0:
109,192,8554,1,0,0:0:0:0:
256,192,8554,1,0,0:0:0:0:
475,192,8554,1,0,0:0:0:0:
36,192,8554,1,0,0:0:0:0:
402,192,8554,1,0,0:0:0:0:
329,192,8554,1,0,0:0:0:0:
256,192,8574,1,0,0:0:0:0:
182,192,8574,1,0,0:0:0:0:
36,192,8574,1,0,0:0:0:0:
329,192,8574,1,0,0:0:0:0:
402,192,8574,1,0,0:0:0:0:
109,192,8574,1,0,0:0:0:0:
475,192,8574,1,0,0:0:0:0:
402,192,8593,1,0,0:0:0:0:
475,192,8593,1,0,0:0:0:0:
256,192,8593,1,0,0:0:0:0:
36,192,8593,1,0,0:0:0:0:
182,192,8593,1,0,0:0:0:0:
109,192,8593,1,0,0:0:0:0:
329,192,8593,1,0,0:0:0:0:
256,192,8613,1,0,0:0:0:0:
109,192,8613,1,0,0:0:0:0:
36,192,8613,1,0,0:0:0:0:
182,192,8613,1,0,0:0:0:0:
329,192,8613,1,0,0:0:0:0:
475,192,8613,1,0,0:0:0:0:
402,192,8613,1,0,0:0:0:0:
256,192,8632,1,0,0:0:0:0:
402,192,8632,1,0,0:0:0:0:
475,192,8632,1,0,0:0:0:0:
329,192,8632,1,0,0:0:0:0:
182,192,8632,1,0,0:0:0:0:
36,192,8632,1,0,0:0:0:0:
109,192,8632,1,0,0:0:0:0:
109,192,8652,1,0,0:0:0:0:
182,192,8652,1,0,0:0:0:0:
256,192,8652,1,0,0:0:0:0:
329,192,8652,1,0,0:0:0:0:
402,192,8652,1,0,0:0:0:0:
36,192,8652,1,0,0:0:0:0:
475,192,8652,1,0,0:0:0:0:
182,192,8671,1,0,0:0:0:0:
36,192,8671,1,0,0:0:0:0:
402,192,8671,1,0,0:0:0:0:
475,192,8671,1,0,0:0:0:0:
329,192,8671,1,0,0:0:0:0:
256,192,8671,1,0,0:0:0:0:
109,192,8671,1,0,0:0:0:0:
475,192,8691,1,0,0:0:0:0:
256,192,8691,1,0,0:0:0:0:
109,192,8691,1,0,0:0:0:0:
329,192,8691,1,0,0:0:0:0:
402,192,8691,1,0,0:0:0:0:
182,192,8691,1,0,0:0:0:0:
36,192,8691,1,0,0:0:0:0:
402,192,8710,1,0,0:0:0:0:
329,192,8710,1,0,0:0:0:0:
256,192,8710,1,0,0:0:0:0:
36,192,8710,1,0,0:0:0:0:
182,192,8710,1,0,0:0:0:0:
475,192,8710,1,0,0:0:0:0:
109,192,8710,1,0,0:0:0:0:
109,192,8730,5,0,0:0:0:0:
36,192,8730,1,0,0:0:0:0:
402,192,8730,1,0,0:0:0:0:
329,192,8730,1,0,0:0:0:0:
182,192,8730,1,0,0:0:0:0:
256,192,8730,1,0,0:0:0:0:
475,192,8730,1,0,0:0:0:0:
109,192,8750,1,0,0:0:0:0:
402,192,8750,1,0,0:0:0:0:
256,192,8750,1,0,0:0:0:0:
36,192,8750,1,0,0:0:0:0:
182,192,8750,1,0,0:0:0:0:
329,192,8750,1,0,0:0:0:0:
475,192,8750,1,0,0:0:0:0:
36,192,8759,1,0,0:0:0:0:
182,192,8759,1,0,0:0:0:0:
329,192,8759,1,0,0:0:0:0:
475,192,8759,1,0,0:0:0:0:
329,192,8769,1,0,0:0:0:0:
182,192,8769,1,0,0:0:0:0:
109,192,8769,1,0,0:0:0:0:
256,192,8769,1,0,0:0:0:0:
475,192,8769,1,0,0:0:0:0:
402,192,8769,1,0,0:0:0:0:
36,192,8769,1,0,0:0:0:0:
182,192,8789,1,0,0:0:0:0:
36,192,8789,1,0,0:0:0:0:
256,192,8789,1,0,0:0:0:0:
329,192,8789,1,0,0:0:0:0:
402,192,8789,1,0,0:0:0:0:
475,192,8789,1,0,0:0:0:0:
109,192,8789,1,0,0:0:0:0:
36,192,8808,1,0,0:0:0:0:
256,192,8808,1,0,0:0:0:0:
109,192,8808,1,0,0:0:0:0:
329,192,8808,1,0,0:0:0:0:
475,192,8808,1,0,0:0:0:0:
402,192,8808,1,0,0:0:0:0:
182,192,8808,1,0,0:0:0:0:
36,192,8828,1,0,0:0:0:0:
109,192,8828,1,0,0:0:0:0:
256,192,8828,1,0,0:0:0:0:
475,192,8828,1,0,0:0:0:0:
182,192,8828,1,0,0:0:0:0:
402,192,8828,1,0,0:0:0:0:
329,192,8828,1,0,0:0:0:0:
182,192,8847,1,0,0:0:0:0:
109,192,8847,1,0,0:0:0:0:
36,192,8847,1,0,0:0:0:0:
329,192,8847,1,0,0:0:0:0:
256,192,8847,1,0,0:0:0:0:
402,192,8847,1,0,0:0:0:0:
475,192,8847,1,0,0:0:0:0:
109,192,8867,1,0,0:0:0:0:
329,192,8867,1,0,0:0:0:0:
256,192,8867,1,0,0:0:0:0:
402,192,8867,1,0,0:0:0:0:
182,192,8867,1,0,0:0:0:0:
475,192,8867,1,0,0:0:0:0:
36,192,8867,1,0,0:0:0:0:
109,192,8886,5,0,0:0:0:0:
402,192,8886,1,0,0:0:0:0:
475,192,8886,1,0,0:0:0:0:
36,192,8886,1,0,0:0:0:0:
182,192,8886,1,0,0:0:0:0:
256,192,8886,1,0,0:0:0:0:
329,192,8886,1,0,0:0:0:0:
109,192,8906,1,0,0:0:0:0:
36,192,8906,1,0,0:0:0:0:
402,192,8906,1,0,0:0:0:0:
182,192,8906,1,0,0:0:0:0:
256,192,8906,1,0,0:0:0:0:
329,192,8906,1,0,0:0:0:0:
475,192,8906,1,0,0:0:0:0:
36,192,8925,1,0,0:0:0:0:
402,192,8925,1,0,0:0:0:0:
329,192,8925,1,0,0:0:0:0:
475,192,8925,1,0,0:0:0:0:
182,192,8925,1,0,0:0:0:0:
109,192,8925,1,0,0:0:0:0:
256,192,8925,1,0,0:0:0:0:
402,192,8945,1,0,0:0:0:0:
109,192,8945,1,0,0:0:0:0:
475,192,8945,1,0,0:0:0:0:
329,192,8945,1,0,0:0:0:0:
256,192,8945,1,0,0:0:0:0:
182,192,8945,1,0,0:0:0:0:
36,192,8945,1,0,0:0:0:0:
182,192,8964,1,0,0:0:0:0:
109,192,8964,1,0,0:0:0:0:
329,192,8964,1,0,0:0:0:0:
36,192,8964,1,0,0:0:0:0:
402,192,8964,1,0,0:0:0:0:
475,192,8964,1,0,0:0:0:0:
256,192,8964,1,0,0:0:0:0:
329,192,8984,1,0,0:0:0:0:
475,192,8984,1,0,0:0:0:0:
402,192,8984,1,0,0:0:0:0:
182,192,8984,1,0,0:0:0:0:
256,192,8984,1,0,0:0:0:0:
109,192,8984,1,0,0:0:0:0:
36,192,8984,1,0,0:0:0:0:
182,192,9003,1,0,0:0:0:0:
109,192,9003,1,0,0:0:0:0:
329,192,9003,1,0,0:0:0:0:
256,192,9003,1,0,0:0:0:0:
402,192,9003,1,0,0:0:0:0:
329,192,9023,1,0,0:0:0:0:
182,192,9023,1,0,0:0:0:0:
256,192,9023,1,0,0:0:0:0:
256,192,9042,1,0,0:0:0:0:
256,192,9062,1,0,0:0:0:0:
