osu file format v14

[General]
AudioFilename: Prelude in C minor.mp3
AudioLeadIn: 0
PreviewTime: -1
Countdown: 1
SampleSet: None
StackLeniency: 0.7
Mode: 3
LetterboxInBreaks: 1
SpecialStyle: 1
WidescreenStoryboard: 1

[Editor]
DistanceSpacing: 1
BeatDivisor: 8
GridSize: 8
TimelineZoom: 1.7

[Metadata]
Title:The Wrath of ET Blocko
TitleUnicode:The Wrath of ET Blocko
Artist:iJinjin
ArtistUnicode:iJinjin
Creator:iJinjin
Version:4K Vibrotrill Master
Source:
Tags:
BeatmapID:696092
BeatmapSetID:249218

[Difficulty]
HPDrainRate:7
CircleSize:4
OverallDifficulty:8
ApproachRate:5
SliderMultiplier:1.4
SliderTickRate:1

[Events]
//Background and Video events
0,0,"blocko.png",0,0
//Break Periods
//Storyboard Layer 0 (Background)
//Storyboard Layer 1 (Fail)
//Storyboard Layer 2 (Pass)
//Storyboard Layer 3 (Foreground)
//Storyboard Sound Samples

[TimingPoints]
0,312.5,4,2,0,0,1,0

[HitObjects]
320,192,0,1,0,0:0:0:0:
192,192,39,1,0,0:0:0:0:
320,192,78,1,0,0:0:0:0:
192,192,117,1,0,0:0:0:0:
320,192,156,1,0,0:0:0:0:
192,192,195,1,0,0:0:0:0:
320,192,234,1,0,0:0:0:0:
192,192,273,1,0,0:0:0:0:
320,192,312,1,0,0:0:0:0:
192,192,351,1,0,0:0:0:0:
320,192,390,1,0,0:0:0:0:
192,192,429,1,0,0:0:0:0:
320,192,468,1,0,0:0:0:0:
192,192,507,1,0,0:0:0:0:
320,192,546,1,0,0:0:0:0:
192,192,585,1,0,0:0:0:0:
320,192,625,1,0,0:0:0:0:
448,192,625,1,0,0:0:0:0:
192,192,664,1,0,0:0:0:0:
320,192,703,1,0,0:0:0:0:
192,192,742,1,0,0:0:0:0:
320,192,781,1,0,0:0:0:0:
192,192,820,1,0,0:0:0:0:
320,192,859,1,0,0:0:0:0:
192,192,898,1,0,0:0:0:0:
320,192,937,1,0,0:0:0:0:
192,192,976,1,0,0:0:0:0:
320,192,1015,1,0,0:0:0:0:
192,192,1054,1,0,0:0:0:0:
320,192,1093,1,0,0:0:0:0:
192,192,1132,1,0,0:0:0:0:
320,192,1171,1,0,0:0:0:0:
192,192,1210,1,0,0:0:0:0:
448,192,1250,1,0,0:0:0:0:
64,192,1289,1,0,0:0:0:0:
448,192,1328,1,0,0:0:0:0:
64,192,1367,1,0,0:0:0:0:
448,192,1406,1,0,0:0:0:0:
64,192,1445,1,0,0:0:0:0:
448,192,1484,1,0,0:0:0:0:
64,192,1523,1,0,0:0:0:0:
448,192,1562,1,0,0:0:0:0:
64,192,1601,1,0,0:0:0:0:
448,192,1640,1,0,0:0:0:0:
64,192,1679,1,0,0:0:0:0:
448,192,1718,1,0,0:0:0:0:
64,192,1757,1,0,0:0:0:0:
448,192,1796,1,0,0:0:0:0:
64,192,1835,1,0,0:0:0:0:
448,192,1875,1,0,0:0:0:0:
320,192,1875,1,0,0:0:0:0:
64,192,1914,1,0,0:0:0:0:
448,192,1953,1,0,0:0:0:0:
64,192,1992,1,0,0:0:0:0:
448,192,2031,1,0,0:0:0:0:
64,192,2070,1,0,0:0:0:0:
448,192,2109,1,0,0:0:0:0:
64,192,2148,1,0,0:0:0:0:
448,192,2187,1,0,0:0:0:0:
64,192,2226,1,0,0:0:0:0:
448,192,2265,1,0,0:0:0:0:
64,192,2304,1,0,0:0:0:0:
448,192,2343,1,0,0:0:0:0:
64,192,2382,1,0,0:0:0:0:
448,192,2421,1,0,0:0:0:0:
64,192,2460,1,0,0:0:0:0:
192,192,2500,1,0,0:0:0:0:
320,192,2539,1,0,0:0:0:0:
448,192,2578,1,0,0:0:0:0:
192,192,2617,1,0,0:0:0:0:
64,192,2656,1,0,0:0:0:0:
320,192,2695,1,0,0:0:0:0:
192,192,2734,1,0,0:0:0:0:
448,192,2773,1,0,0:0:0:0:
320,192,2812,1,0,0:0:0:0:
64,192,2851,1,0,0:0:0:0:
192,192,2890,1,0,0:0:0:0:
320,192,2929,1,0,0:0:0:0:
448,192,2968,1,0,0:0:0:0:
64,192,3007,1,0,0:0:0:0:
192,192,3046,1,0,0:0:0:0:
448,192,3085,1,0,0:0:0:0:
320,192,3125,1,0,0:0:0:0:
192,192,3164,1,0,0:0:0:0:
64,192,3203,1,0,0:0:0:0:
192,192,3242,1,0,0:0:0:0:
64,192,3281,1,0,0:0:0:0:
192,192,3320,1,0,0:0:0:0:
64,192,3359,1,0,0:0:0:0:
192,192,3398,1,0,0:0:0:0:
320,192,3437,1,0,0:0:0:0:
448,192,3476,1,0,0:0:0:0:
320,192,3515,1,0,0:0:0:0:
448,192,3554,1,0,0:0:0:0:
320,192,3593,1,0,0:0:0:0:
448,192,3632,1,0,0:0:0:0:
320,192,3671,1,0,0:0:0:0:
192,192,3710,1,0,0:0:0:0:
64,192,3750,1,0,0:0:0:0:
448,192,3750,1,0,0:0:0:0:
320,192,3789,1,0,0:0:0:0:
192,192,3828,1,0,0:0:0:0:
320,192,3867,1,0,0:0:0:0:
448,192,3906,1,0,0:0:0:0:
64,192,3906,1,0,0:0:0:0:
192,192,3945,1,0,0:0:0:0:
320,192,3984,1,0,0:0:0:0:
192,192,4023,1,0,0:0:0:0:
64,192,4062,1,0,0:0:0:0:
448,192,4062,1,0,0:0:0:0:
320,192,4101,1,0,0:0:0:0:
192,192,4140,1,0,0:0:0:0:
64,192,4179,1,0,0:0:0:0:
320,192,4218,1,0,0:0:0:0:
448,192,4257,1,0,0:0:0:0:
192,192,4296,1,0,0:0:0:0:
64,192,4335,1,0,0:0:0:0:
320,192,4375,1,0,0:0:0:0:
448,192,4375,1,0,0:0:0:0:
192,192,4414,1,0,0:0:0:0:
64,192,4414,1,0,0:0:0:0:
320,192,4453,1,0,0:0:0:0:
448,192,4453,1,0,0:0:0:0:
192,192,4492,1,0,0:0:0:0:
64,192,4492,1,0,0:0:0:0:
320,192,4531,1,0,0:0:0:0:
448,192,4531,1,0,0:0:0:0:
192,192,4570,1,0,0:0:0:0:
64,192,4570,1,0,0:0:0:0:
320,192,4609,1,0,0:0:0:0:
448,192,4609,1,0,0:0:0:0:
192,192,4648,1,0,0:0:0:0:
64,192,4648,1,0,0:0:0:0:
320,192,4687,1,0,0:0:0:0:
448,192,4687,1,0,0:0:0:0:
192,192,4726,1,0,0:0:0:0:
64,192,4726,1,0,0:0:0:0:
320,192,4765,1,0,0:0:0:0:
448,192,4765,1,0,0:0:0:0:
192,192,4804,1,0,0:0:0:0:
64,192,4804,1,0,0:0:0:0:
320,192,4843,1,0,0:0:0:0:
448,192,4843,1,0,0:0:0:0:
192,192,4882,1,0,0:0:0:0:
64,192,4882,1,0,0:0:0:0:
320,192,4921,1,0,0:0:0:0:
448,192,4921,1,0,0:0:0:0:
192,192,4960,1,0,0:0:0:0:
64,192,4960,1,0,0:0:0:0:
320,192,5000,1,0,0:0:0:0:
448,192,5000,1,0,0:0:0:0:
64,192,5312,1,0,0:0:0:0:
320,192,5351,1,0,0:0:0:0:
64,192,5390,1,0,0:0:0:0:
320,192,5429,1,0,0:0:0:0:
64,192,5468,1,0,0:0:0:0:
320,192,5507,1,0,0:0:0:0:
64,192,5546,1,0,0:0:0:0:
320,192,5585,1,0,0:0:0:0:
192,192,5625,1,0,0:0:0:0:
448,192,5664,1,0,0:0:0:0:
192,192,5703,1,0,0:0:0:0:
448,192,5742,1,0,0:0:0:0:
192,192,5781,1,0,0:0:0:0:
448,192,5820,1,0,0:0:0:0:
192,192,5859,1,0,0:0:0:0:
448,192,5898,1,0,0:0:0:0:
64,192,5937,1,0,0:0:0:0:
320,192,5976,1,0,0:0:0:0:
64,192,6015,1,0,0:0:0:0:
320,192,6054,1,0,0:0:0:0:
64,192,6093,1,0,0:0:0:0:
320,192,6132,1,0,0:0:0:0:
64,192,6171,1,0,0:0:0:0:
320,192,6210,1,0,0:0:0:0:
192,192,6250,1,0,0:0:0:0:
448,192,6289,1,0,0:0:0:0:
192,192,6328,1,0,0:0:0:0:
448,192,6367,1,0,0:0:0:0:
192,192,6406,1,0,0:0:0:0:
448,192,6445,1,0,0:0:0:0:
192,192,6484,1,0,0:0:0:0:
448,192,6523,1,0,0:0:0:0:
320,192,6562,1,0,0:0:0:0:
192,192,6601,1,0,0:0:0:0:
320,192,6640,1,0,0:0:0:0:
192,192,6679,1,0,0:0:0:0:
320,192,6718,1,0,0:0:0:0:
192,192,6757,1,0,0:0:0:0:
320,192,6796,1,0,0:0:0:0:
192,192,6835,1,0,0:0:0:0:
64,192,6875,1,0,0:0:0:0:
320,192,6914,1,0,0:0:0:0:
64,192,6953,1,0,0:0:0:0:
320,192,6992,1,0,0:0:0:0:
64,192,7031,1,0,0:0:0:0:
320,192,7070,1,0,0:0:0:0:
64,192,7109,1,0,0:0:0:0:
320,192,7148,1,0,0:0:0:0:
192,192,7187,1,0,0:0:0:0:
320,192,7226,1,0,0:0:0:0:
192,192,7265,1,0,0:0:0:0:
320,192,7304,1,0,0:0:0:0:
192,192,7343,1,0,0:0:0:0:
320,192,7382,1,0,0:0:0:0:
192,192,7421,1,0,0:0:0:0:
320,192,7460,1,0,0:0:0:0:
192,192,7500,1,0,0:0:0:0:
64,192,7500,1,0,0:0:0:0:
448,192,7500,1,0,0:0:0:0:
320,192,7812,1,0,0:0:0:0:
448,192,7812,1,0,0:0:0:0:
192,192,7812,1,0,0:0:0:0:
320,192,8046,1,0,0:0:0:0:
448,192,8046,1,0,0:0:0:0:
192,192,8085,1,0,0:0:0:0:
64,192,8125,1,0,0:0:0:0:
448,192,8125,1,0,0:0:0:0:
320,192,8125,1,0,0:0:0:0:
64,192,8437,1,0,0:0:0:0:
192,192,8437,1,0,0:0:0:0:
320,192,8476,1,0,0:0:0:0:
448,192,8476,1,0,0:0:0:0:
192,192,8515,1,0,0:0:0:0:
64,192,8515,1,0,0:0:0:0:
320,192,8554,1,0,0:0:0:0:
448,192,8554,1,0,0:0:0:0:
64,192,8593,1,0,0:0:0:0:
192,192,8593,1,0,0:0:0:0:
320,192,8632,1,0,0:0:0:0:
448,192,8632,1,0,0:0:0:0:
64,192,8671,1,0,0:0:0:0:
192,192,8671,1,0,0:0:0:0:
320,192,8710,1,0,0:0:0:0:
448,192,8710,1,0,0:0:0:0:
192,192,8750,1,0,0:0:0:0:
64,192,8750,1,0,0:0:0:0:
320,192,8750,1,0,0:0:0:0:
448,192,8750,1,0,0:0:0:0:
