osu file format v14

[General]
AudioFilename: Prelude in C minor.mp3
AudioLeadIn: 0
PreviewTime: -1
Countdown: 1
SampleSet: None
StackLeniency: 0.7
Mode: 3
LetterboxInBreaks: 1
SpecialStyle: 0
WidescreenStoryboard: 1

[Editor]
DistanceSpacing: 1
BeatDivisor: 6
GridSize: 8
TimelineZoom: 1.9

[Metadata]
Title:The Wrath of ET Blocko
TitleUnicode:The Wrath of ET Blocko
Artist:iJinjin
ArtistUnicode:iJinjin
Creator:iJinjin
Version:4K Co-op B1ock6Dump
Source:
Tags:
BeatmapID:695572
BeatmapSetID:249218

[Difficulty]
HPDrainRate:6
CircleSize:8
OverallDifficulty:7
ApproachRate:5
SliderMultiplier:1.4
SliderTickRate:1

[Events]
//Background and Video events
0,0,"blocko.png",0,0
//Break Periods
//Storyboard Layer 0 (Background)
//Storyboard Layer 1 (Fail)
//Storyboard Layer 2 (Pass)
//Storyboard Layer 3 (Foreground)
//Storyboard Sound Samples

[TimingPoints]
0,312.5,4,2,0,0,1,0

[HitObjects]
32,192,0,1,0,0:0:0:0:
224,192,0,1,0,0:0:0:0:
288,192,0,1,0,0:0:0:0:
480,192,0,1,0,0:0:0:0:
160,192,52,1,0,0:0:0:0:
416,192,52,1,0,0:0:0:0:
96,192,104,1,0,0:0:0:0:
352,192,104,1,0,0:0:0:0:
32,192,156,1,0,0:0:0:0:
288,192,156,1,0,0:0:0:0:
160,192,208,1,0,0:0:0:0:
480,192,208,1,0,0:0:0:0:
96,192,260,1,0,0:0:0:0:
416,192,260,1,0,0:0:0:0:
224,192,312,1,0,0:0:0:0:
352,192,312,1,0,0:0:0:0:
160,192,364,1,0,0:0:0:0:
416,192,364,1,0,0:0:0:0:
96,192,416,1,0,0:0:0:0:
288,192,416,1,0,0:0:0:0:
32,192,468,1,0,0:0:0:0:
352,192,468,1,0,0:0:0:0:
224,192,520,1,0,0:0:0:0:
416,192,520,1,0,0:0:0:0:
160,192,572,1,0,0:0:0:0:
480,192,572,1,0,0:0:0:0:
96,192,625,1,0,0:0:0:0:
288,192,625,1,0,0:0:0:0:
160,192,677,1,0,0:0:0:0:
352,192,677,1,0,0:0:0:0:
224,192,729,1,0,0:0:0:0:
416,192,729,1,0,0:0:0:0:
32,192,781,1,0,0:0:0:0:
352,192,781,1,0,0:0:0:0:
96,192,833,1,0,0:0:0:0:
480,192,833,1,0,0:0:0:0:
160,192,885,1,0,0:0:0:0:
416,192,885,1,0,0:0:0:0:
224,192,937,1,0,0:0:0:0:
352,192,937,1,0,0:0:0:0:
96,192,989,1,0,0:0:0:0:
288,192,989,1,0,0:0:0:0:
160,192,1041,1,0,0:0:0:0:
416,192,1041,1,0,0:0:0:0:
224,192,1093,1,0,0:0:0:0:
352,192,1093,1,0,0:0:0:0:
32,192,1145,1,0,0:0:0:0:
288,192,1145,1,0,0:0:0:0:
96,192,1197,1,0,0:0:0:0:
352,192,1197,1,0,0:0:0:0:
160,192,1250,1,0,0:0:0:0:
416,192,1250,1,0,0:0:0:0:
96,192,1302,1,0,0:0:0:0:
480,192,1302,1,0,0:0:0:0:
32,192,1354,1,0,0:0:0:0:
352,192,1354,1,0,0:0:0:0:
224,192,1406,1,0,0:0:0:0:
416,192,1406,1,0,0:0:0:0:
160,192,1458,1,0,0:0:0:0:
288,192,1458,1,0,0:0:0:0:
96,192,1510,1,0,0:0:0:0:
352,192,1510,1,0,0:0:0:0:
32,192,1562,1,0,0:0:0:0:
480,192,1562,1,0,0:0:0:0:
160,192,1614,1,0,0:0:0:0:
416,192,1614,1,0,0:0:0:0:
96,192,1666,1,0,0:0:0:0:
352,192,1666,1,0,0:0:0:0:
224,192,1718,1,0,0:0:0:0:
288,192,1718,1,0,0:0:0:0:
160,192,1770,1,0,0:0:0:0:
480,192,1770,1,0,0:0:0:0:
96,192,1822,1,0,0:0:0:0:
416,192,1822,1,0,0:0:0:0:
32,192,1875,1,0,0:0:0:0:
352,192,1875,1,0,0:0:0:0:
96,192,1927,1,0,0:0:0:0:
416,192,1927,1,0,0:0:0:0:
160,192,1979,1,0,0:0:0:0:
288,192,1979,1,0,0:0:0:0:
32,192,2031,1,0,0:0:0:0:
352,192,2031,1,0,0:0:0:0:
96,192,2083,1,0,0:0:0:0:
416,192,2083,1,0,0:0:0:0:
160,192,2135,1,0,0:0:0:0:
480,192,2135,1,0,0:0:0:0:
224,192,2187,1,0,0:0:0:0:
288,192,2187,1,0,0:0:0:0:
32,192,2239,1,0,0:0:0:0:
352,192,2239,1,0,0:0:0:0:
96,192,2291,1,0,0:0:0:0:
416,192,2291,1,0,0:0:0:0:
160,192,2343,1,0,0:0:0:0:
352,192,2343,1,0,0:0:0:0:
96,192,2395,1,0,0:0:0:0:
480,192,2395,1,0,0:0:0:0:
32,192,2447,1,0,0:0:0:0:
416,192,2447,1,0,0:0:0:0:
224,192,2500,1,0,0:0:0:0:
160,192,2500,1,0,0:0:0:0:
352,192,2500,1,0,0:0:0:0:
288,192,2500,1,0,0:0:0:0:
96,192,2578,1,0,0:0:0:0:
32,192,2656,1,0,0:0:0:0:
224,192,2656,1,0,0:0:0:0:
160,192,2734,1,0,0:0:0:0:
96,192,2812,1,0,0:0:0:0:
32,192,2812,1,0,0:0:0:0:
224,192,2812,1,0,0:0:0:0:
416,192,2812,1,0,0:0:0:0:
480,192,2812,1,0,0:0:0:0:
352,192,2890,1,0,0:0:0:0:
288,192,2968,1,0,0:0:0:0:
480,192,2968,1,0,0:0:0:0:
352,192,3046,1,0,0:0:0:0:
416,192,3125,1,0,0:0:0:0:
480,192,3125,1,0,0:0:0:0:
288,192,3125,1,0,0:0:0:0:
96,192,3125,1,0,0:0:0:0:
32,192,3125,1,0,0:0:0:0:
224,192,3125,1,0,0:0:0:0:
160,192,3203,1,0,0:0:0:0:
96,192,3281,1,0,0:0:0:0:
32,192,3281,1,0,0:0:0:0:
160,192,3359,1,0,0:0:0:0:
224,192,3437,1,0,0:0:0:0:
32,192,3437,1,0,0:0:0:0:
96,192,3437,1,0,0:0:0:0:
288,192,3437,1,0,0:0:0:0:
352,192,3437,1,0,0:0:0:0:
480,192,3437,1,0,0:0:0:0:
416,192,3515,1,0,0:0:0:0:
288,192,3593,1,0,0:0:0:0:
480,192,3593,1,0,0:0:0:0:
352,192,3671,1,0,0:0:0:0:
416,192,3750,1,0,0:0:0:0:
480,192,3750,1,0,0:0:0:0:
288,192,3750,1,0,0:0:0:0:
32,192,3750,1,0,0:0:0:0:
96,192,3750,1,0,0:0:0:0:
224,192,3750,1,0,0:0:0:0:
160,192,3828,1,0,0:0:0:0:
32,192,3906,1,0,0:0:0:0:
224,192,3906,1,0,0:0:0:0:
96,192,3984,1,0,0:0:0:0:
224,192,4062,1,0,0:0:0:0:
160,192,4062,1,0,0:0:0:0:
480,192,4062,1,0,0:0:0:0:
416,192,4114,1,0,0:0:0:0:
96,192,4140,1,0,0:0:0:0:
352,192,4166,1,0,0:0:0:0:
32,192,4218,1,0,0:0:0:0:
224,192,4218,1,0,0:0:0:0:
288,192,4218,1,0,0:0:0:0:
416,192,4270,1,0,0:0:0:0:
160,192,4296,1,0,0:0:0:0:
352,192,4322,1,0,0:0:0:0:
32,192,4375,1,0,0:0:0:0:
96,192,4375,1,0,0:0:0:0:
416,192,4375,1,0,0:0:0:0:
480,192,4375,1,0,0:0:0:0:
160,192,4427,1,0,0:0:0:0:
224,192,4427,1,0,0:0:0:0:
352,192,4427,1,0,0:0:0:0:
288,192,4427,1,0,0:0:0:0:
96,192,4479,1,0,0:0:0:0:
32,192,4479,1,0,0:0:0:0:
416,192,4479,1,0,0:0:0:0:
480,192,4479,1,0,0:0:0:0:
160,192,4531,1,0,0:0:0:0:
224,192,4531,1,0,0:0:0:0:
352,192,4531,1,0,0:0:0:0:
288,192,4531,1,0,0:0:0:0:
96,192,4583,1,0,0:0:0:0:
32,192,4583,1,0,0:0:0:0:
416,192,4583,1,0,0:0:0:0:
480,192,4583,1,0,0:0:0:0:
160,192,4635,1,0,0:0:0:0:
224,192,4635,1,0,0:0:0:0:
352,192,4635,1,0,0:0:0:0:
288,192,4635,1,0,0:0:0:0:
96,192,4687,1,0,0:0:0:0:
32,192,4687,1,0,0:0:0:0:
416,192,4687,1,0,0:0:0:0:
480,192,4687,1,0,0:0:0:0:
160,192,4739,1,0,0:0:0:0:
224,192,4739,1,0,0:0:0:0:
352,192,4739,1,0,0:0:0:0:
288,192,4739,1,0,0:0:0:0:
96,192,4791,1,0,0:0:0:0:
32,192,4791,1,0,0:0:0:0:
416,192,4791,1,0,0:0:0:0:
480,192,4791,1,0,0:0:0:0:
160,192,4843,1,0,0:0:0:0:
224,192,4843,1,0,0:0:0:0:
352,192,4843,1,0,0:0:0:0:
288,192,4843,1,0,0:0:0:0:
96,192,4895,1,0,0:0:0:0:
32,192,4895,1,0,0:0:0:0:
416,192,4895,1,0,0:0:0:0:
480,192,4895,1,0,0:0:0:0:
160,192,4947,1,0,0:0:0:0:
224,192,4947,1,0,0:0:0:0:
352,192,4947,1,0,0:0:0:0:
288,192,4947,1,0,0:0:0:0:
32,192,5000,1,0,0:0:0:0:
96,192,5000,1,0,0:0:0:0:
416,192,5000,1,0,0:0:0:0:
480,192,5000,1,0,0:0:0:0:
224,192,5312,1,0,0:0:0:0:
32,192,5312,1,0,0:0:0:0:
480,192,5312,1,0,0:0:0:0:
416,192,5312,1,0,0:0:0:0:
160,192,5364,1,0,0:0:0:0:
352,192,5364,1,0,0:0:0:0:
96,192,5416,1,0,0:0:0:0:
288,192,5416,1,0,0:0:0:0:
160,192,5468,1,0,0:0:0:0:
416,192,5468,1,0,0:0:0:0:
32,192,5520,1,0,0:0:0:0:
480,192,5520,1,0,0:0:0:0:
96,192,5572,1,0,0:0:0:0:
288,192,5572,1,0,0:0:0:0:
160,192,5625,1,0,0:0:0:0:
352,192,5625,1,0,0:0:0:0:
224,192,5677,1,0,0:0:0:0:
416,192,5677,1,0,0:0:0:0:
32,192,5729,1,0,0:0:0:0:
480,192,5729,1,0,0:0:0:0:
96,192,5781,1,0,0:0:0:0:
352,192,5781,1,0,0:0:0:0:
160,192,5833,1,0,0:0:0:0:
288,192,5833,1,0,0:0:0:0:
224,192,5885,1,0,0:0:0:0:
480,192,5885,1,0,0:0:0:0:
96,192,5937,1,0,0:0:0:0:
416,192,5937,1,0,0:0:0:0:
160,192,5989,1,0,0:0:0:0:
352,192,5989,1,0,0:0:0:0:
224,192,6041,1,0,0:0:0:0:
288,192,6041,1,0,0:0:0:0:
160,192,6093,1,0,0:0:0:0:
416,192,6093,1,0,0:0:0:0:
96,192,6145,1,0,0:0:0:0:
352,192,6145,1,0,0:0:0:0:
32,192,6197,1,0,0:0:0:0:
224,192,6197,1,0,0:0:0:0:
480,192,6197,1,0,0:0:0:0:
160,192,6250,1,0,0:0:0:0:
416,192,6250,1,0,0:0:0:0:
96,192,6302,1,0,0:0:0:0:
480,192,6302,1,0,0:0:0:0:
160,192,6354,1,0,0:0:0:0:
352,192,6354,1,0,0:0:0:0:
32,192,6406,1,0,0:0:0:0:
416,192,6406,1,0,0:0:0:0:
96,192,6458,1,0,0:0:0:0:
288,192,6458,1,0,0:0:0:0:
224,192,6510,1,0,0:0:0:0:
352,192,6510,1,0,0:0:0:0:
160,192,6562,1,0,0:0:0:0:
416,192,6562,1,0,0:0:0:0:
96,192,6614,1,0,0:0:0:0:
480,192,6614,1,0,0:0:0:0:
32,192,6666,1,0,0:0:0:0:
352,192,6666,1,0,0:0:0:0:
160,192,6718,1,0,0:0:0:0:
416,192,6718,1,0,0:0:0:0:
224,192,6770,1,0,0:0:0:0:
352,192,6770,1,0,0:0:0:0:
96,192,6822,1,0,0:0:0:0:
288,192,6822,1,0,0:0:0:0:
160,192,6875,1,0,0:0:0:0:
480,192,6875,1,0,0:0:0:0:
32,192,6927,1,0,0:0:0:0:
352,192,6927,1,0,0:0:0:0:
96,192,6979,1,0,0:0:0:0:
416,192,6979,1,0,0:0:0:0:
224,192,7031,1,0,0:0:0:0:
288,192,7031,1,0,0:0:0:0:
160,192,7083,1,0,0:0:0:0:
352,192,7083,1,0,0:0:0:0:
96,192,7135,1,0,0:0:0:0:
480,192,7135,1,0,0:0:0:0:
32,192,7187,1,0,0:0:0:0:
416,192,7187,1,0,0:0:0:0:
160,192,7239,1,0,0:0:0:0:
288,192,7239,1,0,0:0:0:0:
96,192,7291,1,0,0:0:0:0:
352,192,7291,1,0,0:0:0:0:
224,192,7343,1,0,0:0:0:0:
416,192,7343,1,0,0:0:0:0:
160,192,7395,1,0,0:0:0:0:
480,192,7395,1,0,0:0:0:0:
32,192,7447,1,0,0:0:0:0:
288,192,7447,1,0,0:0:0:0:
96,192,7500,1,0,0:0:0:0:
160,192,7500,1,0,0:0:0:0:
352,192,7500,1,0,0:0:0:0:
416,192,7500,1,0,0:0:0:0:
32,192,7812,1,0,0:0:0:0:
96,192,7812,1,0,0:0:0:0:
224,192,7812,1,0,0:0:0:0:
288,192,7812,1,0,0:0:0:0:
352,192,7812,1,0,0:0:0:0:
480,192,7812,1,0,0:0:0:0:
416,192,7864,1,0,0:0:0:0:
160,192,7864,1,0,0:0:0:0:
32,192,8046,1,0,0:0:0:0:
480,192,8046,1,0,0:0:0:0:
224,192,8125,1,0,0:0:0:0:
32,192,8125,1,0,0:0:0:0:
160,192,8125,1,0,0:0:0:0:
352,192,8125,1,0,0:0:0:0:
480,192,8125,1,0,0:0:0:0:
416,192,8125,1,0,0:0:0:0:
96,192,8177,1,0,0:0:0:0:
288,192,8177,1,0,0:0:0:0:
96,192,8437,1,0,0:0:0:0:
416,192,8437,1,0,0:0:0:0:
160,192,8489,1,0,0:0:0:0:
352,192,8489,1,0,0:0:0:0:
96,192,8541,1,0,0:0:0:0:
416,192,8541,1,0,0:0:0:0:
160,192,8593,1,0,0:0:0:0:
224,192,8593,1,0,0:0:0:0:
288,192,8593,1,0,0:0:0:0:
352,192,8593,1,0,0:0:0:0:
32,192,8645,1,0,0:0:0:0:
96,192,8645,1,0,0:0:0:0:
416,192,8645,1,0,0:0:0:0:
480,192,8645,1,0,0:0:0:0:
160,192,8697,1,0,0:0:0:0:
224,192,8697,1,0,0:0:0:0:
352,192,8697,1,0,0:0:0:0:
288,192,8697,1,0,0:0:0:0:
32,192,8750,1,0,0:0:0:0:
96,192,8750,1,0,0:0:0:0:
224,192,8750,1,0,0:0:0:0:
288,192,8750,1,0,0:0:0:0:
416,192,8750,1,0,0:0:0:0:
480,192,8750,1,0,0:0:0:0:
