osu file format v13

[General]
AudioFilename: Prelude in C minor.mp3
AudioLeadIn: 0
PreviewTime: -1
Countdown: 1
SampleSet: None
StackLeniency: 0.7
Mode: 3
LetterboxInBreaks: 1
SpecialStyle: 0
WidescreenStoryboard: 1

[Editor]
DistanceSpacing: 1
BeatDivisor: 4
GridSize: 8
TimelineZoom: 1.9

[Metadata]
Title:The Wrath of ET Blocko
TitleUnicode:The Wrath of ET Blocko
Artist:iJinjin
ArtistUnicode:iJinjin
Creator:iJinjin
Version:2K Jackhammer Ultimate
Source:
Tags:
BeatmapID:576763
BeatmapSetID:249218

[Difficulty]
HPDrainRate:7
CircleSize:2
OverallDifficulty:8
ApproachRate:5
SliderMultiplier:1.4
SliderTickRate:1

[Events]
//Background and Video events
0,0,"blocko.png",0,0
//Break Periods
//Storyboard Layer 0 (Background)
//Storyboard Layer 1 (Fail)
//Storyboard Layer 2 (Pass)
//Storyboard Layer 3 (Foreground)
//Storyboard Sound Samples

[TimingPoints]
0,312.5,4,1,0,0,1,0

[HitObjects]
128,192,0,5,0,0:0:0:0:
384,192,0,1,0,0:0:0:0:
128,192,78,1,0,0:0:0:0:
128,192,156,1,0,0:0:0:0:
128,192,234,1,0,0:0:0:0:
128,192,312,1,0,0:0:0:0:
128,192,390,1,0,0:0:0:0:
128,192,468,1,0,0:0:0:0:
128,192,546,1,0,0:0:0:0:
128,192,625,1,0,0:0:0:0:
384,192,625,1,0,0:0:0:0:
384,192,703,1,0,0:0:0:0:
384,192,781,1,0,0:0:0:0:
384,192,859,1,0,0:0:0:0:
384,192,937,1,0,0:0:0:0:
384,192,1015,1,0,0:0:0:0:
384,192,1093,1,0,0:0:0:0:
384,192,1171,1,0,0:0:0:0:
128,192,1250,1,0,0:0:0:0:
384,192,1250,1,0,0:0:0:0:
128,192,1328,1,0,0:0:0:0:
128,192,1406,1,0,0:0:0:0:
128,192,1484,1,0,0:0:0:0:
384,192,1562,1,0,0:0:0:0:
384,192,1640,1,0,0:0:0:0:
384,192,1718,1,0,0:0:0:0:
384,192,1796,1,0,0:0:0:0:
128,192,1875,1,0,0:0:0:0:
384,192,1875,1,0,0:0:0:0:
128,192,1953,1,0,0:0:0:0:
128,192,2031,1,0,0:0:0:0:
128,192,2109,1,0,0:0:0:0:
384,192,2187,1,0,0:0:0:0:
384,192,2265,1,0,0:0:0:0:
384,192,2343,1,0,0:0:0:0:
384,192,2421,1,0,0:0:0:0:
128,192,2500,1,0,0:0:0:0:
384,192,2500,1,0,0:0:0:0:
128,192,2578,1,0,0:0:0:0:
128,192,2656,1,0,0:0:0:0:
384,192,2656,1,0,0:0:0:0:
384,192,2734,1,0,0:0:0:0:
128,192,2812,1,0,0:0:0:0:
384,192,2812,1,0,0:0:0:0:
128,192,2890,1,0,0:0:0:0:
128,192,2968,1,0,0:0:0:0:
384,192,2968,1,0,0:0:0:0:
384,192,3046,1,0,0:0:0:0:
128,192,3125,1,0,0:0:0:0:
384,192,3125,1,0,0:0:0:0:
128,192,3203,1,0,0:0:0:0:
128,192,3281,1,0,0:0:0:0:
384,192,3281,1,0,0:0:0:0:
384,192,3359,1,0,0:0:0:0:
384,192,3437,1,0,0:0:0:0:
128,192,3437,1,0,0:0:0:0:
128,192,3515,1,0,0:0:0:0:
128,192,3593,1,0,0:0:0:0:
384,192,3593,1,0,0:0:0:0:
384,192,3671,1,0,0:0:0:0:
384,192,3750,1,0,0:0:0:0:
128,192,3750,128,0,4296:0:0:0:0:
384,192,4375,1,0,0:0:0:0:
128,192,4375,1,0,0:0:0:0:
128,192,4453,1,0,0:0:0:0:
384,192,4453,1,0,0:0:0:0:
128,192,4531,1,0,0:0:0:0:
384,192,4531,1,0,0:0:0:0:
128,192,4609,1,0,0:0:0:0:
384,192,4609,1,0,0:0:0:0:
384,192,4687,1,0,0:0:0:0:
128,192,4687,1,0,0:0:0:0:
128,192,4765,1,0,0:0:0:0:
384,192,4765,1,0,0:0:0:0:
384,192,4843,1,0,0:0:0:0:
128,192,4843,1,0,0:0:0:0:
128,192,4921,1,0,0:0:0:0:
384,192,4921,1,0,0:0:0:0:
128,192,5000,1,0,0:0:0:0:
384,192,5000,1,0,0:0:0:0:
128,192,5312,1,0,0:0:0:0:
384,192,5468,1,0,0:0:0:0:
128,192,5625,1,0,0:0:0:0:
384,192,5781,1,0,0:0:0:0:
128,192,5937,1,0,0:0:0:0:
384,192,6093,1,0,0:0:0:0:
128,192,6250,1,0,0:0:0:0:
384,192,6328,1,0,0:0:0:0:
128,192,6406,1,0,0:0:0:0:
384,192,6484,1,0,0:0:0:0:
128,192,6562,1,0,0:0:0:0:
384,192,6640,1,0,0:0:0:0:
128,192,6718,1,0,0:0:0:0:
384,192,6796,1,0,0:0:0:0:
128,192,6875,1,0,0:0:0:0:
384,192,6914,1,0,0:0:0:0:
128,192,6953,1,0,0:0:0:0:
384,192,6992,1,0,0:0:0:0:
128,192,7031,1,0,0:0:0:0:
384,192,7070,1,0,0:0:0:0:
128,192,7109,1,0,0:0:0:0:
384,192,7148,1,0,0:0:0:0:
128,192,7187,1,0,0:0:0:0:
384,192,7207,1,0,0:0:0:0:
128,192,7226,1,0,0:0:0:0:
384,192,7246,1,0,0:0:0:0:
128,192,7265,1,0,0:0:0:0:
384,192,7285,1,0,0:0:0:0:
128,192,7304,1,0,0:0:0:0:
384,192,7324,1,0,0:0:0:0:
128,192,7343,1,0,0:0:0:0:
384,192,7363,1,0,0:0:0:0:
128,192,7382,1,0,0:0:0:0:
384,192,7402,1,0,0:0:0:0:
128,192,7421,1,0,0:0:0:0:
384,192,7441,1,0,0:0:0:0:
128,192,7460,1,0,0:0:0:0:
384,192,7480,1,0,0:0:0:0:
128,192,7500,1,0,0:0:0:0:
128,192,7812,1,0,0:0:0:0:
384,192,7812,1,0,0:0:0:0:
128,192,8046,1,0,0:0:0:0:
384,192,8046,1,0,0:0:0:0:
128,192,8125,1,0,0:0:0:0:
384,192,8125,1,0,0:0:0:0:
128,192,8437,128,0,8671:0:0:0:0:
384,192,8437,128,0,8671:0:0:0:0:
128,192,8750,128,0,9062:0:0:0:0:
384,192,8750,128,0,9062:0:0:0:0:
