osu file format v14

[General]
AudioFilename: Prelude in C minor.mp3
AudioLeadIn: 0
PreviewTime: -1
Countdown: 1
SampleSet: None
StackLeniency: 0.7
Mode: 3
LetterboxInBreaks: 1
SpecialStyle: 1
WidescreenStoryboard: 1

[Editor]
DistanceSpacing: 1
BeatDivisor: 4
GridSize: 8
TimelineZoom: 1.7

[Metadata]
Title:The Wrath of ET Blocko
TitleUnicode:The Wrath of ET Blocko
Artist:iJinjin
ArtistUnicode:iJinjin
Creator:iJinjin
Version:12K Extra
Source:
Tags:
BeatmapID:696086
BeatmapSetID:249218

[Difficulty]
HPDrainRate:7
CircleSize:12
OverallDifficulty:8
ApproachRate:5
SliderMultiplier:1.4
SliderTickRate:1

[Events]
//Background and Video events
0,0,"blocko.png",0,0
//Break Periods
//Storyboard Layer 0 (Background)
//Storyboard Layer 1 (Fail)
//Storyboard Layer 2 (Pass)
//Storyboard Layer 3 (Foreground)
//Storyboard Sound Samples

[TimingPoints]
0,312.5,4,2,0,0,1,0

[HitObjects]
21,192,0,1,0,0:0:0:0:
234,192,0,1,0,0:0:0:0:
277,192,0,1,0,0:0:0:0:
362,192,0,1,0,0:0:0:0:
64,192,78,1,0,0:0:0:0:
192,192,78,1,0,0:0:0:0:
405,192,78,1,0,0:0:0:0:
490,192,78,1,0,0:0:0:0:
106,192,156,1,0,0:0:0:0:
149,192,156,1,0,0:0:0:0:
362,192,156,1,0,0:0:0:0:
277,192,156,1,0,0:0:0:0:
64,192,234,1,0,0:0:0:0:
192,192,234,1,0,0:0:0:0:
405,192,234,1,0,0:0:0:0:
490,192,234,1,0,0:0:0:0:
234,192,312,1,0,0:0:0:0:
21,192,312,1,0,0:0:0:0:
362,192,312,1,0,0:0:0:0:
277,192,312,1,0,0:0:0:0:
64,192,390,1,0,0:0:0:0:
192,192,390,1,0,0:0:0:0:
405,192,390,1,0,0:0:0:0:
490,192,390,1,0,0:0:0:0:
106,192,468,1,0,0:0:0:0:
149,192,468,1,0,0:0:0:0:
362,192,468,1,0,0:0:0:0:
277,192,468,1,0,0:0:0:0:
64,192,546,1,0,0:0:0:0:
405,192,546,1,0,0:0:0:0:
490,192,546,1,0,0:0:0:0:
21,192,625,1,0,0:0:0:0:
192,192,625,1,0,0:0:0:0:
234,192,625,1,0,0:0:0:0:
448,192,625,1,0,0:0:0:0:
320,192,625,1,0,0:0:0:0:
64,192,703,1,0,0:0:0:0:
106,192,703,1,0,0:0:0:0:
277,192,703,1,0,0:0:0:0:
405,192,703,1,0,0:0:0:0:
192,192,781,1,0,0:0:0:0:
234,192,781,1,0,0:0:0:0:
362,192,781,1,0,0:0:0:0:
490,192,781,1,0,0:0:0:0:
106,192,859,1,0,0:0:0:0:
64,192,859,1,0,0:0:0:0:
320,192,859,1,0,0:0:0:0:
448,192,859,1,0,0:0:0:0:
149,192,937,1,0,0:0:0:0:
192,192,937,1,0,0:0:0:0:
277,192,937,1,0,0:0:0:0:
405,192,937,1,0,0:0:0:0:
64,192,1015,1,0,0:0:0:0:
21,192,1015,1,0,0:0:0:0:
320,192,1015,1,0,0:0:0:0:
448,192,1015,1,0,0:0:0:0:
149,192,1093,1,0,0:0:0:0:
192,192,1093,1,0,0:0:0:0:
362,192,1093,1,0,0:0:0:0:
490,192,1093,1,0,0:0:0:0:
64,192,1171,1,0,0:0:0:0:
21,192,1171,1,0,0:0:0:0:
320,192,1171,1,0,0:0:0:0:
448,192,1171,1,0,0:0:0:0:
106,192,1250,1,0,0:0:0:0:
234,192,1250,1,0,0:0:0:0:
405,192,1250,1,0,0:0:0:0:
362,192,1250,1,0,0:0:0:0:
192,192,1328,1,0,0:0:0:0:
64,192,1328,1,0,0:0:0:0:
277,192,1328,1,0,0:0:0:0:
490,192,1328,1,0,0:0:0:0:
149,192,1406,1,0,0:0:0:0:
21,192,1406,1,0,0:0:0:0:
320,192,1406,1,0,0:0:0:0:
448,192,1406,1,0,0:0:0:0:
192,192,1484,1,0,0:0:0:0:
64,192,1484,1,0,0:0:0:0:
362,192,1484,1,0,0:0:0:0:
405,192,1484,1,0,0:0:0:0:
234,192,1562,1,0,0:0:0:0:
106,192,1562,1,0,0:0:0:0:
277,192,1562,1,0,0:0:0:0:
490,192,1562,1,0,0:0:0:0:
192,192,1640,1,0,0:0:0:0:
64,192,1640,1,0,0:0:0:0:
320,192,1640,1,0,0:0:0:0:
448,192,1640,1,0,0:0:0:0:
149,192,1718,1,0,0:0:0:0:
21,192,1718,1,0,0:0:0:0:
362,192,1718,1,0,0:0:0:0:
405,192,1718,1,0,0:0:0:0:
192,192,1796,1,0,0:0:0:0:
64,192,1796,1,0,0:0:0:0:
448,192,1796,1,0,0:0:0:0:
106,192,1875,1,0,0:0:0:0:
149,192,1875,1,0,0:0:0:0:
490,192,1875,1,0,0:0:0:0:
277,192,1875,1,0,0:0:0:0:
320,192,1875,1,0,0:0:0:0:
21,192,1953,1,0,0:0:0:0:
234,192,1953,1,0,0:0:0:0:
405,192,1953,1,0,0:0:0:0:
448,192,1953,1,0,0:0:0:0:
106,192,2031,1,0,0:0:0:0:
149,192,2031,1,0,0:0:0:0:
277,192,2031,1,0,0:0:0:0:
320,192,2031,1,0,0:0:0:0:
21,192,2109,1,0,0:0:0:0:
234,192,2109,1,0,0:0:0:0:
405,192,2109,1,0,0:0:0:0:
448,192,2109,1,0,0:0:0:0:
64,192,2187,1,0,0:0:0:0:
192,192,2187,1,0,0:0:0:0:
320,192,2187,1,0,0:0:0:0:
362,192,2187,1,0,0:0:0:0:
106,192,2265,1,0,0:0:0:0:
149,192,2265,1,0,0:0:0:0:
448,192,2265,1,0,0:0:0:0:
490,192,2265,1,0,0:0:0:0:
64,192,2343,1,0,0:0:0:0:
192,192,2343,1,0,0:0:0:0:
320,192,2343,1,0,0:0:0:0:
362,192,2343,1,0,0:0:0:0:
106,192,2421,1,0,0:0:0:0:
149,192,2421,1,0,0:0:0:0:
448,192,2421,1,0,0:0:0:0:
490,192,2421,1,0,0:0:0:0:
21,192,2500,1,0,0:0:0:0:
234,192,2500,1,0,0:0:0:0:
277,192,2500,1,0,0:0:0:0:
362,192,2500,1,0,0:0:0:0:
64,192,2578,1,0,0:0:0:0:
192,192,2578,1,0,0:0:0:0:
320,192,2578,1,0,0:0:0:0:
405,192,2578,1,0,0:0:0:0:
106,192,2656,1,0,0:0:0:0:
21,192,2656,1,0,0:0:0:0:
362,192,2656,1,0,0:0:0:0:
448,192,2656,1,0,0:0:0:0:
64,192,2734,1,0,0:0:0:0:
149,192,2734,1,0,0:0:0:0:
405,192,2734,1,0,0:0:0:0:
490,192,2734,1,0,0:0:0:0:
106,192,2812,1,0,0:0:0:0:
192,192,2812,1,0,0:0:0:0:
362,192,2812,1,0,0:0:0:0:
277,192,2812,1,0,0:0:0:0:
149,192,2890,1,0,0:0:0:0:
234,192,2890,1,0,0:0:0:0:
405,192,2890,1,0,0:0:0:0:
320,192,2890,1,0,0:0:0:0:
106,192,2968,1,0,0:0:0:0:
192,192,2968,1,0,0:0:0:0:
362,192,2968,1,0,0:0:0:0:
448,192,2968,1,0,0:0:0:0:
149,192,3046,1,0,0:0:0:0:
64,192,3046,1,0,0:0:0:0:
405,192,3046,1,0,0:0:0:0:
490,192,3046,1,0,0:0:0:0:
21,192,3125,1,0,0:0:0:0:
234,192,3125,1,0,0:0:0:0:
277,192,3125,1,0,0:0:0:0:
448,192,3125,1,0,0:0:0:0:
192,192,3203,1,0,0:0:0:0:
106,192,3203,1,0,0:0:0:0:
320,192,3203,1,0,0:0:0:0:
405,192,3203,1,0,0:0:0:0:
64,192,3281,1,0,0:0:0:0:
149,192,3281,1,0,0:0:0:0:
362,192,3281,1,0,0:0:0:0:
277,192,3281,1,0,0:0:0:0:
21,192,3359,1,0,0:0:0:0:
106,192,3359,1,0,0:0:0:0:
320,192,3359,1,0,0:0:0:0:
405,192,3359,1,0,0:0:0:0:
149,192,3437,1,0,0:0:0:0:
234,192,3437,1,0,0:0:0:0:
448,192,3437,1,0,0:0:0:0:
362,192,3437,1,0,0:0:0:0:
192,192,3515,1,0,0:0:0:0:
106,192,3515,1,0,0:0:0:0:
490,192,3515,1,0,0:0:0:0:
405,192,3515,1,0,0:0:0:0:
149,192,3593,1,0,0:0:0:0:
64,192,3593,1,0,0:0:0:0:
362,192,3593,1,0,0:0:0:0:
448,192,3593,1,0,0:0:0:0:
106,192,3671,1,0,0:0:0:0:
21,192,3671,1,0,0:0:0:0:
405,192,3671,1,0,0:0:0:0:
320,192,3671,1,0,0:0:0:0:
64,192,3750,1,0,0:0:0:0:
192,192,3750,1,0,0:0:0:0:
277,192,3750,1,0,0:0:0:0:
362,192,3750,1,0,0:0:0:0:
106,192,3828,1,0,0:0:0:0:
234,192,3828,1,0,0:0:0:0:
490,192,3828,1,0,0:0:0:0:
320,192,3828,1,0,0:0:0:0:
21,192,3906,1,0,0:0:0:0:
149,192,3906,1,0,0:0:0:0:
277,192,3906,1,0,0:0:0:0:
448,192,3906,1,0,0:0:0:0:
64,192,3984,1,0,0:0:0:0:
192,192,3984,1,0,0:0:0:0:
405,192,3984,1,0,0:0:0:0:
320,192,3984,1,0,0:0:0:0:
106,192,4062,1,0,0:0:0:0:
234,192,4062,1,0,0:0:0:0:
362,192,4062,1,0,0:0:0:0:
448,192,4062,1,0,0:0:0:0:
149,192,4140,1,0,0:0:0:0:
21,192,4140,1,0,0:0:0:0:
277,192,4140,1,0,0:0:0:0:
490,192,4140,1,0,0:0:0:0:
64,192,4218,1,0,0:0:0:0:
192,192,4218,1,0,0:0:0:0:
320,192,4218,1,0,0:0:0:0:
405,192,4218,1,0,0:0:0:0:
234,192,4296,1,0,0:0:0:0:
149,192,4296,1,0,0:0:0:0:
448,192,4296,1,0,0:0:0:0:
490,192,4296,1,0,0:0:0:0:
64,192,4375,1,0,0:0:0:0:
21,192,4375,1,0,0:0:0:0:
106,192,4375,1,0,0:0:0:0:
277,192,4375,1,0,0:0:0:0:
320,192,4375,1,0,0:0:0:0:
362,192,4375,1,0,0:0:0:0:
149,192,4453,1,0,0:0:0:0:
192,192,4453,1,0,0:0:0:0:
234,192,4453,1,0,0:0:0:0:
405,192,4453,1,0,0:0:0:0:
448,192,4453,1,0,0:0:0:0:
490,192,4453,1,0,0:0:0:0:
106,192,4531,1,0,0:0:0:0:
64,192,4531,1,0,0:0:0:0:
21,192,4531,1,0,0:0:0:0:
362,192,4531,1,0,0:0:0:0:
320,192,4531,1,0,0:0:0:0:
277,192,4531,1,0,0:0:0:0:
149,192,4609,1,0,0:0:0:0:
192,192,4609,1,0,0:0:0:0:
234,192,4609,1,0,0:0:0:0:
405,192,4609,1,0,0:0:0:0:
490,192,4609,1,0,0:0:0:0:
448,192,4609,1,0,0:0:0:0:
106,192,4687,1,0,0:0:0:0:
64,192,4687,1,0,0:0:0:0:
21,192,4687,1,0,0:0:0:0:
277,192,4687,1,0,0:0:0:0:
320,192,4687,1,0,0:0:0:0:
362,192,4687,1,0,0:0:0:0:
149,192,4765,1,0,0:0:0:0:
192,192,4765,1,0,0:0:0:0:
234,192,4765,1,0,0:0:0:0:
405,192,4765,1,0,0:0:0:0:
448,192,4765,1,0,0:0:0:0:
490,192,4765,1,0,0:0:0:0:
106,192,4843,1,0,0:0:0:0:
64,192,4843,1,0,0:0:0:0:
21,192,4843,1,0,0:0:0:0:
320,192,4843,1,0,0:0:0:0:
277,192,4843,1,0,0:0:0:0:
362,192,4843,1,0,0:0:0:0:
149,192,4921,1,0,0:0:0:0:
192,192,4921,1,0,0:0:0:0:
234,192,4921,1,0,0:0:0:0:
405,192,4921,1,0,0:0:0:0:
448,192,4921,1,0,0:0:0:0:
490,192,4921,1,0,0:0:0:0:
106,192,5000,1,0,0:0:0:0:
64,192,5000,1,0,0:0:0:0:
21,192,5000,1,0,0:0:0:0:
192,192,5000,1,0,0:0:0:0:
149,192,5000,1,0,0:0:0:0:
234,192,5000,1,0,0:0:0:0:
405,192,5000,1,0,0:0:0:0:
448,192,5000,1,0,0:0:0:0:
490,192,5000,1,0,0:0:0:0:
362,192,5000,1,0,0:0:0:0:
320,192,5000,1,0,0:0:0:0:
277,192,5000,1,0,0:0:0:0:
21,192,5312,128,0,5625:0:0:0:0:
192,192,5312,128,0,5468:0:0:0:0:
277,192,5312,128,0,5468:0:0:0:0:
448,192,5312,1,0,0:0:0:0:
490,192,5312,1,0,0:0:0:0:
64,192,5312,1,0,0:0:0:0:
405,192,5390,128,0,5546:0:0:0:0:
106,192,5390,1,0,0:0:0:0:
320,192,5468,128,0,5625:0:0:0:0:
149,192,5468,1,0,0:0:0:0:
490,192,5546,128,0,5703:0:0:0:0:
192,192,5546,1,0,0:0:0:0:
106,192,5625,128,0,5937:0:0:0:0:
234,192,5625,128,0,5781:0:0:0:0:
362,192,5625,128,0,5781:0:0:0:0:
277,192,5625,1,0,0:0:0:0:
64,192,5625,1,0,0:0:0:0:
448,192,5703,128,0,5859:0:0:0:0:
149,192,5703,1,0,0:0:0:0:
405,192,5781,128,0,5937:0:0:0:0:
192,192,5781,1,0,0:0:0:0:
277,192,5859,128,0,6015:0:0:0:0:
149,192,5859,1,0,0:0:0:0:
64,192,5937,128,0,6250:0:0:0:0:
192,192,5937,128,0,6093:0:0:0:0:
490,192,5937,128,0,6093:0:0:0:0:
362,192,5937,1,0,0:0:0:0:
21,192,5937,1,0,0:0:0:0:
320,192,6015,128,0,6171:0:0:0:0:
234,192,6015,1,0,0:0:0:0:
448,192,6093,128,0,6250:0:0:0:0:
149,192,6093,1,0,0:0:0:0:
405,192,6171,128,0,6328:0:0:0:0:
106,192,6171,1,0,0:0:0:0:
362,192,6250,128,0,6406:0:0:0:0:
490,192,6250,1,0,0:0:0:0:
192,192,6250,1,0,0:0:0:0:
234,192,6250,1,0,0:0:0:0:
21,192,6250,1,0,0:0:0:0:
277,192,6328,128,0,6484:0:0:0:0:
149,192,6328,1,0,0:0:0:0:
490,192,6406,128,0,6562:0:0:0:0:
106,192,6406,1,0,0:0:0:0:
64,192,6406,1,0,0:0:0:0:
21,192,6406,1,0,0:0:0:0:
320,192,6484,128,0,6640:0:0:0:0:
149,192,6484,1,0,0:0:0:0:
448,192,6562,128,0,6718:0:0:0:0:
405,192,6562,1,0,0:0:0:0:
21,192,6562,1,0,0:0:0:0:
192,192,6562,1,0,0:0:0:0:
234,192,6562,1,0,0:0:0:0:
362,192,6640,128,0,6796:0:0:0:0:
64,192,6640,1,0,0:0:0:0:
405,192,6718,128,0,6875:0:0:0:0:
106,192,6718,1,0,0:0:0:0:
149,192,6718,1,0,0:0:0:0:
192,192,6718,1,0,0:0:0:0:
320,192,6796,128,0,6953:0:0:0:0:
64,192,6796,1,0,0:0:0:0:
448,192,6875,128,0,7031:0:0:0:0:
490,192,6875,1,0,0:0:0:0:
234,192,6875,1,0,0:0:0:0:
149,192,6875,1,0,0:0:0:0:
21,192,6875,1,0,0:0:0:0:
277,192,6953,128,0,7109:0:0:0:0:
106,192,6953,1,0,0:0:0:0:
490,192,7031,128,0,7187:0:0:0:0:
64,192,7031,1,0,0:0:0:0:
192,192,7031,1,0,0:0:0:0:
21,192,7031,1,0,0:0:0:0:
405,192,7109,128,0,7265:0:0:0:0:
149,192,7109,1,0,0:0:0:0:
320,192,7187,128,0,7343:0:0:0:0:
362,192,7187,1,0,0:0:0:0:
106,192,7187,1,0,0:0:0:0:
234,192,7187,1,0,0:0:0:0:
192,192,7187,1,0,0:0:0:0:
448,192,7265,128,0,7421:0:0:0:0:
64,192,7265,1,0,0:0:0:0:
362,192,7343,128,0,7500:0:0:0:0:
21,192,7343,1,0,0:0:0:0:
149,192,7343,1,0,0:0:0:0:
106,192,7343,1,0,0:0:0:0:
277,192,7421,128,0,7500:0:0:0:0:
192,192,7421,1,0,0:0:0:0:
405,192,7500,1,0,0:0:0:0:
490,192,7500,1,0,0:0:0:0:
448,192,7500,1,0,0:0:0:0:
234,192,7500,1,0,0:0:0:0:
21,192,7500,1,0,0:0:0:0:
106,192,7500,1,0,0:0:0:0:
64,192,7500,1,0,0:0:0:0:
21,192,7812,1,0,0:0:0:0:
106,192,7812,1,0,0:0:0:0:
234,192,7812,1,0,0:0:0:0:
149,192,7812,1,0,0:0:0:0:
320,192,7812,1,0,0:0:0:0:
362,192,7812,1,0,0:0:0:0:
490,192,7812,1,0,0:0:0:0:
448,192,7812,1,0,0:0:0:0:
64,192,8046,1,0,0:0:0:0:
106,192,8046,1,0,0:0:0:0:
192,192,8046,1,0,0:0:0:0:
149,192,8046,1,0,0:0:0:0:
405,192,8046,1,0,0:0:0:0:
448,192,8046,1,0,0:0:0:0:
490,192,8046,1,0,0:0:0:0:
362,192,8046,1,0,0:0:0:0:
21,192,8125,1,0,0:0:0:0:
64,192,8125,1,0,0:0:0:0:
149,192,8125,1,0,0:0:0:0:
234,192,8125,1,0,0:0:0:0:
192,192,8125,1,0,0:0:0:0:
106,192,8125,1,0,0:0:0:0:
362,192,8125,1,0,0:0:0:0:
320,192,8125,1,0,0:0:0:0:
277,192,8125,1,0,0:0:0:0:
405,192,8125,1,0,0:0:0:0:
448,192,8125,1,0,0:0:0:0:
490,192,8125,1,0,0:0:0:0:
21,192,8437,1,0,0:0:0:0:
64,192,8437,1,0,0:0:0:0:
149,192,8437,1,0,0:0:0:0:
192,192,8437,1,0,0:0:0:0:
277,192,8437,1,0,0:0:0:0:
362,192,8437,1,0,0:0:0:0:
448,192,8437,1,0,0:0:0:0:
490,192,8437,1,0,0:0:0:0:
64,192,8750,1,0,0:0:0:0:
106,192,8750,1,0,0:0:0:0:
149,192,8750,1,0,0:0:0:0:
192,192,8750,1,0,0:0:0:0:
234,192,8750,1,0,0:0:0:0:
277,192,8750,1,0,0:0:0:0:
320,192,8750,1,0,0:0:0:0:
362,192,8750,1,0,0:0:0:0:
405,192,8750,1,0,0:0:0:0:
448,192,8750,1,0,0:0:0:0:
