osu file format v14

[General]
AudioFilename: Prelude in C minor.mp3
AudioLeadIn: 0
PreviewTime: -1
Countdown: 1
SampleSet: None
StackLeniency: 0.7
Mode: 3
LetterboxInBreaks: 1
SpecialStyle: 1
WidescreenStoryboard: 1

[Editor]
DistanceSpacing: 1
BeatDivisor: 4
GridSize: 8
TimelineZoom: 1.7

[Metadata]
Title:The Wrath of ET Blocko
TitleUnicode:The Wrath of ET Blocko
Artist:iJinjin
ArtistUnicode:iJinjin
Creator:iJinjin
Version:12K Easy
Source:
Tags:
BeatmapID:696085
BeatmapSetID:249218

[Difficulty]
HPDrainRate:7
CircleSize:12
OverallDifficulty:8
ApproachRate:5
SliderMultiplier:1.4
SliderTickRate:1

[Events]
//Background and Video events
0,0,"blocko.png",0,0
//Break Periods
//Storyboard Layer 0 (Background)
//Storyboard Layer 1 (Fail)
//Storyboard Layer 2 (Pass)
//Storyboard Layer 3 (Foreground)
//Storyboard Sound Samples

[TimingPoints]
0,312.5,4,2,0,0,1,0

[HitObjects]
21,192,0,5,0,0:0:0:0:
234,192,0,1,0,0:0:0:0:
320,192,0,1,0,0:0:0:0:
448,192,0,1,0,0:0:0:0:
149,192,625,1,0,0:0:0:0:
362,192,625,1,0,0:0:0:0:
64,192,1250,1,0,0:0:0:0:
320,192,1250,1,0,0:0:0:0:
149,192,1875,1,0,0:0:0:0:
448,192,1875,1,0,0:0:0:0:
21,192,2500,1,0,0:0:0:0:
320,192,2500,1,0,0:0:0:0:
277,192,2500,1,0,0:0:0:0:
234,192,2812,1,0,0:0:0:0:
64,192,3125,1,0,0:0:0:0:
362,192,3125,1,0,0:0:0:0:
320,192,3125,1,0,0:0:0:0:
192,192,3437,1,0,0:0:0:0:
106,192,3750,1,0,0:0:0:0:
405,192,3750,1,0,0:0:0:0:
362,192,3750,1,0,0:0:0:0:
149,192,4375,128,0,5000:0:0:0:0:
106,192,4375,128,0,5000:0:0:0:0:
320,192,4375,128,0,5000:0:0:0:0:
448,192,4375,128,0,5000:0:0:0:0:
21,192,5000,1,0,0:0:0:0:
234,192,5000,1,0,0:0:0:0:
362,192,5000,1,0,0:0:0:0:
405,192,5000,1,0,0:0:0:0:
234,192,5312,1,0,0:0:0:0:
64,192,5312,1,0,0:0:0:0:
490,192,5312,1,0,0:0:0:0:
405,192,5468,1,0,0:0:0:0:
21,192,5625,1,0,0:0:0:0:
192,192,5625,1,0,0:0:0:0:
320,192,5625,1,0,0:0:0:0:
448,192,5781,1,0,0:0:0:0:
64,192,5937,1,0,0:0:0:0:
234,192,5937,1,0,0:0:0:0:
362,192,5937,1,0,0:0:0:0:
277,192,6093,1,0,0:0:0:0:
21,192,6250,1,0,0:0:0:0:
149,192,6250,1,0,0:0:0:0:
448,192,6250,1,0,0:0:0:0:
490,192,6250,1,0,0:0:0:0:
106,192,6562,1,0,0:0:0:0:
234,192,6562,1,0,0:0:0:0:
405,192,6562,1,0,0:0:0:0:
448,192,6562,1,0,0:0:0:0:
21,192,6875,1,0,0:0:0:0:
149,192,6875,1,0,0:0:0:0:
362,192,6875,1,0,0:0:0:0:
405,192,6875,1,0,0:0:0:0:
106,192,7187,1,0,0:0:0:0:
234,192,7187,1,0,0:0:0:0:
362,192,7187,1,0,0:0:0:0:
320,192,7187,1,0,0:0:0:0:
64,192,7500,1,0,0:0:0:0:
192,192,7500,1,0,0:0:0:0:
277,192,7500,1,0,0:0:0:0:
320,192,7500,1,0,0:0:0:0:
106,192,7812,1,0,0:0:0:0:
149,192,7812,1,0,0:0:0:0:
405,192,7812,1,0,0:0:0:0:
490,192,7812,1,0,0:0:0:0:
64,192,8125,1,0,0:0:0:0:
192,192,8125,1,0,0:0:0:0:
277,192,8125,1,0,0:0:0:0:
362,192,8125,1,0,0:0:0:0:
106,192,8437,1,0,0:0:0:0:
149,192,8437,1,0,0:0:0:0:
405,192,8437,1,0,0:0:0:0:
448,192,8437,1,0,0:0:0:0:
106,192,8750,1,0,0:0:0:0:
149,192,8750,1,0,0:0:0:0:
362,192,8750,1,0,0:0:0:0:
320,192,8750,1,0,0:0:0:0:
