osu file format v14

[General]
AudioFilename: hyi - we all burn.mp3
AudioLeadIn: 0
PreviewTime: 3090
Countdown: 0
SampleSet: Soft
StackLeniency: 0.7
Mode: 0
LetterboxInBreaks: 0
WidescreenStoryboard: 1

[Editor]
DistanceSpacing: 1.5
BeatDivisor: 8
GridSize: 4
TimelineZoom: 2.1

[Metadata]
Title:we all burn
TitleUnicode:we all burn
Artist:hyi
ArtistUnicode:hyi
Creator:-Bakari-
Version:love
Source:
Tags:LAPFOX TRAX Ren Queenston r is who Pjecoo
BeatmapID:695322
BeatmapSetID:311284

[Difficulty]
HPDrainRate:6
CircleSize:5
OverallDifficulty:7
ApproachRate:7.5
SliderMultiplier:2.2
SliderTickRate:4

[Events]
//Background and Video events
0,0,"udMaN12.jpg",0,0
//Break Periods
//Storyboard Layer 0 (Background)
//Storyboard Layer 1 (Fail)
//Storyboard Layer 2 (Pass)
//Storyboard Layer 3 (Foreground)
//Storyboard Sound Samples

[TimingPoints]
250,706.297822248381,4,2,1,45,1,0
45453,-100,4,2,1,25,0,0
54105,-100,4,2,1,5,0,0

[Colours]
Combo1 : 172,154,192
Combo2 : 183,162,98
Combo3 : 202,134,159

[HitObjects]
220,280,250,5,0,3:0:0:0:
212,264,956,1,2,3:0:0:0:
205,247,1662,2,0,P|196:204|296:144,1,165,0|8,0:0|0:3,0:0:0:0:
348,192,2368,1,10,0:3:0:0:
348,108,2545,2,8,L|352:76,2,27.5,8|8|8,0:3|0:3|0:3,0:3:0:0:
268,212,2898,1,8,0:3:0:0:
140,168,3075,5,0,2:0:0:0:
220,312,3428,2,0,P|264:300|336:304,2,110,0|2|0,0:0|0:0|0:0,0:0:0:0:
144,348,4311,1,0,0:0:0:0:
80,296,4487,2,0,L|88:176,1,110,0|0,0:0|0:0,0:0:0:0:
68,108,5017,1,0,0:0:0:0:
192,104,5194,2,0,L|184:224,1,110,2|0,0:0|0:0,0:0:0:0:
296,336,5900,5,0,0:0:0:0:
408,212,6253,2,0,P|416:184|416:144,1,55,0|0,0:0|0:0,0:0:0:0:
336,176,6606,2,0,P|330:231|377:285,1,110,2|0,0:0|0:0,0:0:0:0:
508,200,7312,1,0,0:0:0:0:
392,80,7666,2,0,L|404:24,1,55,0|0,0:0|0:0,0:0:0:0:
460,84,8019,2,0,L|436:209,1,110,2|0,0:0|0:0,0:0:0:0:
280,232,8725,6,0,P|280:180|304:128,2,110,0|0|2,0:0|0:0|0:0,0:0:0:0:
340,292,9608,2,0,P|394:287|441:260,1,110,0|0,0:0|0:0,0:0:0:0:
460,180,10138,2,0,P|428:135|381:107,1,110
300,120,10667,1,0,0:0:0:0:
220,148,10844,1,2,0:0:0:0:
68,80,11197,2,0,P|64:60|64:24,1,55,0|0,0:0|0:0,0:0:0:0:
144,52,11550,6,0,P|144:112|88:152,2,110,0|0|2,0:0|0:0|0:0,0:0:0:0:
220,20,12433,2,0,P|264:40|336:24,1,110,0|0,0:0|0:0,0:0:0:0:
400,64,12963,2,0,P|416:120|412:184,2,110,0|0|2,0:0|0:0|0:0,0:0:0:0:
260,148,14022,1,0,0:0:0:0:
280,228,14199,1,0,0:0:0:0:
304,308,14375,6,0,L|240:304,1,55
176,348,14729,2,0,P|168:320|96:264,1,110,0|2,0:0|0:0,0:0:0:0:
44,220,15258,2,0,L|52:144,1,55
104,104,15611,1,0,0:0:0:0:
160,164,15788,2,0,L|276:152,1,110,0|0,0:0|0:0,0:0:0:0:
304,80,16318,1,0,0:0:0:0:
227,47,16494,2,0,P|203:67|179:99,1,55,2|0,0:0|0:0,0:0:0:0:
160,164,16847,1,0,0:0:0:0:
308,236,17201,6,0,L|428:224,1,110,0|0,0:0|0:0,0:0:0:0:
484,176,17730,1,0,0:0:0:0:
458,295,17907,2,0,L|384:304,2,55,2|0|0,0:0|0:0|0:0,0:0:0:0:
352,168,18613,2,0,P|312:160|244:184,1,110,0|0,0:0|0:0,0:0:0:0:
216,256,19143,1,0,0:0:0:0:
112,188,19320,2,0,P|112:156|120:124,1,55,2|0,0:0|0:0,0:0:0:0:
188,92,19673,1,0,0:0:0:0:
216,256,20026,5,0,0:0:0:0:
356,168,20379,2,0,P|384:164|424:164,1,55,0|0,0:0|0:0,0:0:0:0:
452,236,20732,2,0,P|424:240|384:240,2,55,2|0|0,0:0|0:0|0:0,0:0:0:0:
424,72,21438,2,0,L|304:64,1,110,0|0,0:0|0:0,0:0:0:0:
252,120,21968,1,0,0:0:0:0:
304,216,22145,2,0,P|308:252|304:280,1,55,2|0,0:0|0:0,0:0:0:0:
232,308,22498,2,0,P|228:272|232:244,1,55,0|0,0:0|0:0,0:0:0:0:
160,208,22851,6,0,P|120:224|64:268,2,110,0|0|2,0:0|0:0|0:0,0:0:0:0:
324,204,23910,2,0,P|356:188|376:168,1,55,0|0,0:0|0:0,0:0:0:0:
360,92,24264,2,0,L|356:36,2,55,0|0|0,0:0|0:0|0:0,0:0:0:0:
266,230,24970,1,2,0:0:0:0:
428,268,25323,2,0,P|444:244|460:208,1,55,0|0,0:0|0:0,0:0:0:0:
420,144,25676,5,0,0:0:0:0:
340,288,26029,2,0,L|348:356,1,55,0|0,0:0|0:0,0:0:0:0:
264,324,26383,2,0,L|248:192,1,110,2|0,0:0|0:0,0:0:0:0:
156,80,27089,2,0,P|112:112|76:220,1,165,0|0,0:0|0:0,0:0:0:0:
136,268,27795,2,0,L|256:240,1,110,2|0,0:0|0:0,0:0:0:0:
364,352,28501,6,0,L|304:369,2,55,0|0|0,0:0|0:0|0:0,0:0:0:0:
472,224,29208,2,0,P|420:224|324:140,1,165,2|0,0:0|0:0,0:0:0:0:
260,120,29914,2,0,P|208:124|144:160,1,110,0|0,0:0|0:0,0:0:0:0:
132,312,30620,1,2,0:0:0:0:
356,68,31327,6,0,P|368:128|360:184,1,110,0|0,0:0|0:0,0:0:0:0:
300,228,31856,1,0,0:0:0:0:
220,204,32033,2,0,L|96:192,1,110,2|0,0:0|0:0,0:0:0:0:
176,344,32739,2,0,L|304:360,1,110,0|0,0:0|0:0,0:0:0:0:
436,296,33445,1,2,0:0:0:0:
468,220,33622,1,0,0:0:0:0:
456,140,33799,1,0,0:0:0:0:
312,56,34152,6,0,P|292:100|292:164,1,110,0|0,0:0|0:0,0:0:0:0:
332,320,34858,1,2,0:0:0:0:
180,256,35211,1,0,0:0:0:0:
336,204,35564,1,0,0:0:0:0:
236,336,35918,1,0,0:0:0:0:
240,172,36271,2,0,P|220:148|140:112,1,110,2|0,0:0|0:0,0:0:0:0:
72,256,36977,6,0,P|116:240|168:192,1,110,0|0,0:0|0:0,0:0:0:0:
76,60,37683,2,0,P|64:108|68:180,1,110,2|0,0:0|0:0,0:0:0:0:
188,280,38390,2,0,L|312:268,1,110,0|0,0:0|0:0,0:0:0:0:
344,204,38919,1,0,0:0:0:0:
316,128,39096,2,0,L|185:142,1,110,2|0,0:0|0:0,0:0:0:0:
144,84,39626,1,0,0:0:0:0:
72,176,39802,6,0,P|72:220|76:240,1,55,0|0,0:0|0:0,0:0:0:0:
136,288,40155,2,0,L|128:360,1,55,0|0,0:0|0:0,0:0:0:0:
212,328,40508,2,0,L|220:208,2,110,2|0|0,0:0|0:0|0:0,0:0:0:0:
292,316,41391,2,0,L|284:372,1,55,0|0,0:0|0:0,0:0:0:0:
364,352,41744,2,0,L|368:308,2,27.5,0|0|2,0:0|0:0|0:0,0:0:0:0:
448,348,42098,2,0,L|444:388,2,27.5,0|0|0,0:0|0:0|0:0,0:0:0:0:
412,272,42451,1,0,0:0:0:0:
380,196,42627,6,0,P|380:152|404:88,1,110
508,56,43334,2,0,P|508:100|484:164,1,110,2|0,0:0|0:0,0:0:0:0:
392,24,44040,1,0,0:0:0:0:
64,116,44746,2,0,P|68:136|84:184,2,55,2|0|0,0:0|0:0|0:0,0:0:0:0:
228,108,45453,6,0,P|232:152|180:272,1,165
136,324,46159,1,2,0:0:0:0:
288,256,46512,1,0,0:0:0:0:
104,156,46865,1,0,0:0:0:0:
220,40,47218,2,0,P|224:20|224:8,2,27.5
280,96,47571,2,0,P|316:100|344:92,2,55,2|0|0,0:0|0:0|0:0,0:0:0:0:
212,248,48278,6,0,P|248:284|320:308,1,110
448,232,48984,1,2,0:0:0:0:
416,72,49337,1,0,0:0:0:0:
340,104,49514,1,0,0:0:0:0:
260,116,49690,2,0,P|232:112|152:52,1,110
12,120,50397,2,0,P|0:160|0:240,1,110,2|0,0:0|0:0,0:0:0:0:
48,292,50926,1,0,0:0:0:0:
160,236,51103,6,0,P|160:204|156:172,2,55,0|0|0,0:0|0:0|0:0,0:0:0:0:
144,316,51633,1,0,0:0:0:0:
256,288,51809,2,0,P|268:252|264:172,1,110,2|0,0:0|0:0,0:0:0:0:
220,112,52339,1,0,0:0:0:0:
152,68,52516,2,0,L|84:56,1,55,0|0,0:0|0:0,0:0:0:0:
96,140,52869,2,0,L|160:152,1,55,0|0,0:0|0:0,0:0:0:0:
220,112,53222,1,2,0:0:0:0:
288,64,53398,2,0,P|296:36|300:8,2,55,0|0|0,0:0|0:0|0:0,0:0:0:0:
256,192,53928,12,0,59579,0:0:0:0:
