osu file format v12

[General]
AudioFilename: - - ;.mp3
AudioLeadIn: 1500
PreviewTime: -1
Countdown: 0
SampleSet: Normal
StackLeniency: 0.7
Mode: 0
LetterboxInBreaks: 1

[Editor]
DistanceSpacing: 1.5
BeatDivisor: 12
GridSize: 8

[Metadata]
Title:kare no uta
TitleUnicode:kare no uta
Artist:hosaka&chiaki
ArtistUnicode:hosaka&chiaki
Creator:SODDA
Version:Normal
Source:minami-ke
Tags:minami-ke
BeatmapID:240405
BeatmapSetID:88142

[Difficulty]
HPDrainRate:5
CircleSize:4
OverallDifficulty:2
ApproachRate:4
SliderMultiplier:1.4
SliderTickRate:1

[Events]
//Background and Video events
0,0,"Zero-RawsMinami-keTadaima-02MX1280x720x264AACmp4_snapshot_0010_20130113_105749_zpsd7f05740.jpg",1,1
//Break Periods
2,56143,67853
//Storyboard Layer 0 (Background)
//Storyboard Layer 1 (Fail)
//Storyboard Layer 2 (Pass)
//Storyboard Layer 3 (Foreground)
//Storyboard Sound Samples
//Background Colour Transformations
3,100,163,162,255

[TimingPoints]
0,333.333333333333,3,1,0,100,1,0
100,332.033333333333,3,1,0,100,1,0
15572,336.833333333334,3,1,0,100,1,0
39961,337.133333333334,3,1,0,100,1,0
60187,332.833333333333,3,1,0,100,1,0
88461,333.333333333333,3,1,0,100,1,1

[Colours]
Combo1 : 128,0,255
Combo2 : 0,202,0
Combo3 : 18,124,255
Combo4 : 242,24,57
Combo5 : 255,192,0

[HitObjects]
144,88,2092,1,0,0:0:0:0:
256,192,3918,5,0,0:0:0:0:
360,88,5744,5,0,0:0:0:0:
256,192,7626,5,0,0:0:0:0:
256,192,9064,12,0,14543,0:0:0:0:
104,120,17593,5,0,0:0:0:0:
104,256,17929,1,0,0:0:0:0:
200,232,18266,2,0,B|224:216|232:208|240:192|240:168|232:152|224:144|200:128|200:128,2,140
376,256,19445,5,0,0:0:0:0:
376,128,19782,1,0,0:0:0:0:
304,240,20119,2,0,B|264:208|256:176|256:160|280:136|312:120|312:120|320:112|336:112|336:112,2,140
128,160,22645,5,0,0:0:0:0:
256,280,23487,1,0,0:0:0:0:
344,128,24498,1,0,0:0:0:0:
288,96,24834,2,0,L|144:96|144:96,1,140
152,120,25845,5,0,0:0:0:0:
360,120,26519,1,0,0:0:0:0:
432,256,27529,1,0,0:0:0:0:
432,208,27613,2,0,L|56:208|56:208,1,373.333333333333
136,96,29550,5,0,0:0:0:0:
176,96,29887,1,0,0:0:0:0:
208,96,30224,1,0,0:0:0:0:
248,96,30561,1,0,0:0:0:0:
280,96,30897,1,0,0:0:0:0:
320,96,31234,1,0,0:0:0:0:
352,96,31571,1,0,0:0:0:0:
392,184,32245,1,0,0:0:0:0:
376,232,32582,1,0,0:0:0:0:
256,296,33592,5,0,0:0:0:0:
224,288,33761,1,0,0:0:0:0:
200,264,33929,1,0,0:0:0:0:
144,200,34266,1,0,0:0:0:0:
200,120,34603,1,0,0:0:0:0:
224,96,34771,1,0,0:0:0:0:
256,80,34939,1,0,0:0:0:0:
336,104,35613,5,0,0:0:0:0:
336,280,35950,1,0,0:0:0:0:
176,272,36287,1,0,0:0:0:0:
176,104,36624,1,0,0:0:0:0:
256,192,37129,12,0,39655,0:0:0:0:
192,24,40635,1,0,0:0:0:0:
264,24,40803,2,0,B|472:24|472:24|472:24,2,140
216,64,41815,1,0,0:0:0:0:
160,64,41983,1,0,0:0:0:0:
120,96,42152,2,0,L|80:224,1,140
104,280,42995,5,0,0:0:0:0:
144,280,43163,1,0,0:0:0:0:
232,280,43500,1,0,0:0:0:0:
296,288,43669,2,0,B|480:152|288:72|272:64,1,280
168,48,45018,5,0,0:0:0:0:
168,72,45186,1,0,0:0:0:0:
168,120,45355,2,0,L|168:280|168:272,1,140
296,264,46029,1,0,0:0:0:0:
320,232,46366,1,0,0:0:0:0:
352,200,46703,2,0,P|352:32|216:32,1,280
176,96,47715,1,0,0:0:0:0:
176,264,48052,1,0,0:0:0:0:
128,240,49063,5,0,0:0:0:0:
184,312,49400,1,0,0:0:0:0:
256,240,49737,1,0,0:0:0:0:
328,160,50075,1,0,0:0:0:0:
408,224,50412,1,0,0:0:0:0:
344,104,51170,1,0,0:0:0:0:
288,96,51423,2,0,L|144:96,1,140
144,272,52434,1,0,0:0:0:0:
216,272,52772,2,0,L|416:272,1,140
368,280,54120,6,0,P|376:80|328:64,1,280
184,104,69173,5,0,0:0:0:0:
288,104,69506,2,0,P|352:136|344:240,1,140
160,256,70504,1,0,0:0:0:0:
120,176,71004,2,0,P|232:56|368:248,1,420
384,208,72335,1,0,0:0:0:0:
160,224,73167,6,0,L|160:128|160:144,2,70
368,160,74165,2,0,L|368:264,2,70
392,80,75164,5,0,0:0:0:0:
304,80,75497,1,0,0:0:0:0:
200,80,75830,1,0,0:0:0:0:
112,80,76162,2,0,P|112:288|296:304,1,420
368,232,80822,5,0,0:0:0:0:
368,168,81155,2,0,L|368:24|368:40,1,140
256,24,82153,1,0,0:0:0:0:
256,80,82486,2,0,L|256:360,1,280
128,280,83818,1,0,0:0:0:0:
128,208,84150,2,0,L|128:56,1,140
112,144,85149,5,0,0:0:0:0:
184,240,85482,1,0,0:0:0:0:
256,144,85815,1,0,0:0:0:0:
336,240,86147,1,0,0:0:0:0:
408,144,86480,1,0,0:0:0:0:
432,80,86980,2,0,B|304:-16|176:16|208:160|344:160|368:24|232:-16|104:88,1,420
168,80,88794,5,0,0:0:0:0:
136,112,88961,1,0,0:0:0:0:
128,192,89127,2,0,B|128:312|208:312|200:312,1,140
320,304,89961,1,0,0:0:0:0:
368,272,90127,1,0,0:0:0:0:
408,216,90294,2,0,B|456:80|312:48|312:48,1,210
288,136,91127,5,0,0:0:0:0:
344,152,91294,1,0,0:0:0:0:
376,192,91461,1,0,0:0:0:0:
264,232,92127,5,0,0:0:0:0:
216,200,92294,1,0,0:0:0:0:
192,152,92461,1,0,0:0:0:0:
120,328,93127,6,0,L|120:40,1,280
120,48,94127,2,0,L|400:48|392:48,1,280
424,168,96794,5,0,0:0:0:0:
400,224,96960,1,0,0:0:0:0:
256,192,97460,12,0,100127,0:0:0:0:
256,192,100460,5,0,0:0:0:0:
